  0
SECTION
  2
HEADER
  9
$ACADVER
  1
AC1015
  9
$ACADMAINTVER
 70
    20
  9
$DWGCODEPAGE
  3
ANSI_1252
  9
$INSBASE
 10
0.0
 20
0.0
 30
0.0
  9
$EXTMIN
 10
64.99999999999954
 20
65.0
 30
0.0
  9
$EXTMAX
 10
2665.0
 20
3796.0
 30
0.0
  9
$LIMMIN
 10
0.0
 20
0.0
  9
$LIMMAX
 10
2730.0
 20
3861.0
  9
$ORTHOMODE
 70
     0
  9
$REGENMODE
 70
     1
  9
$FILLMODE
 70
     1
  9
$QTEXTMODE
 70
     0
  9
$MIRRTEXT
 70
     0
  9
$LTSCALE
 40
13.0
  9
$ATTMODE
 70
     1
  9
$TEXTSIZE
 40
0.2
  9
$TRACEWID
 40
0.05
  9
$TEXTSTYLE
  7
Standard
  9
$CLAYER
  8
0
  9
$CELTYPE
  6
ByLayer
  9
$CECOLOR
 62
   256
  9
$CELTSCALE
 40
1.0
  9
$DISPSILH
 70
     0
  9
$DIMSCALE
 40
1.0
  9
$DIMASZ
 40
1.799999999999999
  9
$DIMEXO
 40
0.0625
  9
$DIMDLI
 40
0.38
  9
$DIMRND
 40
0.0
  9
$DIMDLE
 40
0.0
  9
$DIMEXE
 40
0.18
  9
$DIMTP
 40
0.0
  9
$DIMTM
 40
0.0
  9
$DIMTXT
 40
0.3048000037670135
  9
$DIMCEN
 40
0.09
  9
$DIMTSZ
 40
0.0
  9
$DIMTOL
 70
     0
  9
$DIMLIM
 70
     0
  9
$DIMTIH
 70
     1
  9
$DIMTOH
 70
     1
  9
$DIMSE1
 70
     0
  9
$DIMSE2
 70
     0
  9
$DIMTAD
 70
     0
  9
$DIMZIN
 70
     0
  9
$DIMBLK
  1

  9
$DIMASO
 70
     1
  9
$DIMSHO
 70
     1
  9
$DIMPOST
  1

  9
$DIMAPOST
  1

  9
$DIMALT
 70
     0
  9
$DIMALTD
 70
     2
  9
$DIMALTF
 40
25.4
  9
$DIMLFAC
 40
1.0
  9
$DIMTOFL
 70
     0
  9
$DIMTVP
 40
0.0
  9
$DIMTIX
 70
     0
  9
$DIMSOXD
 70
     0
  9
$DIMSAH
 70
     0
  9
$DIMBLK1
  1

  9
$DIMBLK2
  1

  9
$DIMSTYLE
  2
Standard
  9
$DIMCLRD
 70
     0
  9
$DIMCLRE
 70
     0
  9
$DIMCLRT
 70
     0
  9
$DIMTFAC
 40
1.0
  9
$DIMGAP
 40
0.09
  9
$DIMJUST
 70
     0
  9
$DIMSD1
 70
     0
  9
$DIMSD2
 70
     0
  9
$DIMTOLJ
 70
     1
  9
$DIMTZIN
 70
     0
  9
$DIMALTZ
 70
     0
  9
$DIMALTTZ
 70
     0
  9
$DIMUPT
 70
     0
  9
$DIMDEC
 70
     4
  9
$DIMTDEC
 70
     4
  9
$DIMALTU
 70
     2
  9
$DIMALTTD
 70
     2
  9
$DIMTXSTY
  7
Standard
  9
$DIMAUNIT
 70
     0
  9
$DIMADEC
 70
     0
  9
$DIMALTRND
 40
0.0
  9
$DIMAZIN
 70
     0
  9
$DIMDSEP
 70
    46
  9
$DIMATFIT
 70
     3
  9
$DIMFRAC
 70
     0
  9
$DIMLDRBLK
  1

  9
$DIMLUNIT
 70
     2
  9
$DIMLWD
 70
    -2
  9
$DIMLWE
 70
    -2
  9
$DIMTMOVE
 70
     0
  9
$LUNITS
 70
     2
  9
$LUPREC
 70
     4
  9
$SKETCHINC
 40
0.1
  9
$FILLETRAD
 40
0.0
  9
$AUNITS
 70
     0
  9
$AUPREC
 70
     0
  9
$MENU
  1
.
  9
$ELEVATION
 40
0.0
  9
$PELEVATION
 40
0.0
  9
$THICKNESS
 40
0.0
  9
$LIMCHECK
 70
     0
  9
$CHAMFERA
 40
0.0
  9
$CHAMFERB
 40
0.0
  9
$CHAMFERC
 40
0.0
  9
$CHAMFERD
 40
0.0
  9
$SKPOLY
 70
     0
  9
$TDCREATE
 40
2455265.354359329
  9
$TDUCREATE
 40
2455265.354359329
  9
$TDUPDATE
 40
2455267.393100093
  9
$TDUUPDATE
 40
2455267.393100093
  9
$TDINDWG
 40
0.0043891319
  9
$TDUSRTIMER
 40
0.0043889468
  9
$USRTIMER
 70
     1
  9
$ANGBASE
 50
0.0
  9
$ANGDIR
 70
     0
  9
$PDMODE
 70
     0
  9
$PDSIZE
 40
0.0
  9
$PLINEWID
 40
0.0
  9
$SPLFRAME
 70
     0
  9
$SPLINETYPE
 70
     6
  9
$SPLINESEGS
 70
     8
  9
$HANDSEED
  5
1112
  9
$SURFTAB1
 70
     6
  9
$SURFTAB2
 70
     6
  9
$SURFTYPE
 70
     6
  9
$SURFU
 70
     6
  9
$SURFV
 70
     6
  9
$UCSBASE
  2

  9
$UCSNAME
  2

  9
$UCSORG
 10
0.0
 20
0.0
 30
0.0
  9
$UCSXDIR
 10
1.0
 20
0.0
 30
0.0
  9
$UCSYDIR
 10
0.0
 20
1.0
 30
0.0
  9
$UCSORTHOREF
  2

  9
$UCSORTHOVIEW
 70
     0
  9
$UCSORGTOP
 10
0.0
 20
0.0
 30
0.0
  9
$UCSORGBOTTOM
 10
0.0
 20
0.0
 30
0.0
  9
$UCSORGLEFT
 10
0.0
 20
0.0
 30
0.0
  9
$UCSORGRIGHT
 10
0.0
 20
0.0
 30
0.0
  9
$UCSORGFRONT
 10
0.0
 20
0.0
 30
0.0
  9
$UCSORGBACK
 10
0.0
 20
0.0
 30
0.0
  9
$PUCSBASE
  2

  9
$PUCSNAME
  2

  9
$PUCSORG
 10
0.0
 20
0.0
 30
0.0
  9
$PUCSXDIR
 10
1.0
 20
0.0
 30
0.0
  9
$PUCSYDIR
 10
0.0
 20
1.0
 30
0.0
  9
$PUCSORTHOREF
  2

  9
$PUCSORTHOVIEW
 70
     0
  9
$PUCSORGTOP
 10
0.0
 20
0.0
 30
0.0
  9
$PUCSORGBOTTOM
 10
0.0
 20
0.0
 30
0.0
  9
$PUCSORGLEFT
 10
0.0
 20
0.0
 30
0.0
  9
$PUCSORGRIGHT
 10
0.0
 20
0.0
 30
0.0
  9
$PUCSORGFRONT
 10
0.0
 20
0.0
 30
0.0
  9
$PUCSORGBACK
 10
0.0
 20
0.0
 30
0.0
  9
$USERI1
 70
     0
  9
$USERI2
 70
     0
  9
$USERI3
 70
     0
  9
$USERI4
 70
     0
  9
$USERI5
 70
     0
  9
$USERR1
 40
0.0
  9
$USERR2
 40
0.0
  9
$USERR3
 40
0.0
  9
$USERR4
 40
0.0
  9
$USERR5
 40
0.0
  9
$WORLDVIEW
 70
     1
  9
$SHADEDGE
 70
     3
  9
$SHADEDIF
 70
    70
  9
$TILEMODE
 70
     1
  9
$MAXACTVP
 70
    64
  9
$PINSBASE
 10
0.0
 20
0.0
 30
0.0
  9
$PLIMCHECK
 70
     0
  9
$PEXTMIN
 10
0.0
 20
0.0
 30
0.0
  9
$PEXTMAX
 10
2730.0
 20
3861.0
 30
0.0
  9
$PLIMMIN
 10
0.0
 20
0.0
  9
$PLIMMAX
 10
2730.0
 20
3861.0
  9
$UNITMODE
 70
     0
  9
$VISRETAIN
 70
     1
  9
$PLINEGEN
 70
     0
  9
$PSLTSCALE
 70
     1
  9
$TREEDEPTH
 70
  3020
  9
$CMLSTYLE
  2
Standard
  9
$CMLJUST
 70
     0
  9
$CMLSCALE
 40
1.0
  9
$PROXYGRAPHICS
 70
     1
  9
$MEASUREMENT
 70
     1
  9
$CELWEIGHT
370
    -1
  9
$ENDCAPS
280
     0
  9
$JOINSTYLE
280
     0
  9
$LWDISPLAY
290
     0
  9
$INSUNITS
 70
     4
  9
$HYPERLINKBASE
  1

  9
$STYLESHEET
  1

  9
$XEDIT
290
     1
  9
$CEPSNTYPE
380
     0
  9
$PSTYLEMODE
290
     1
  9
$FINGERPRINTGUID
  2
{7177073F-29DE-4547-9CB5-DB4A1C91DF76}
  9
$VERSIONGUID
  2
{27902D83-D9B0-4992-9ECA-B28756F345A8}
  9
$EXTNAMES
290
     1
  9
$PSVPSCALE
 40
0.0
  9
$OLESTARTUP
290
     0
  0
ENDSEC
  0
SECTION
  2
CLASSES
  0
CLASS
  1
ACDBDICTIONARYWDFLT
  2
AcDbDictionaryWithDefault
  3
ObjectDBX Classes
 90
        0
280
     0
281
     0
  0
CLASS
  1
MATERIAL
  2
AcDbMaterial
  3
ObjectDBX Classes
 90
     1153
280
     0
281
     0
  0
CLASS
  1
VISUALSTYLE
  2
AcDbVisualStyle
  3
ObjectDBX Classes
 90
     4095
280
     0
281
     0
  0
CLASS
  1
SCALE
  2
AcDbScale
  3
ObjectDBX Classes
 90
     1153
280
     0
281
     0
  0
CLASS
  1
TABLESTYLE
  2
AcDbTableStyle
  3
ObjectDBX Classes
 90
     4095
280
     0
281
     0
  0
CLASS
  1
MLEADERSTYLE
  2
AcDbMLeaderStyle
  3
ACDB_MLEADERSTYLE_CLASS
 90
     4095
280
     0
281
     0
  0
CLASS
  1
DICTIONARYVAR
  2
AcDbDictionaryVar
  3
ObjectDBX Classes
 90
        0
280
     0
281
     0
  0
CLASS
  1
CELLSTYLEMAP
  2
AcDbCellStyleMap
  3
ObjectDBX Classes
 90
     1152
280
     0
281
     0
  0
CLASS
  1
ACDBPLACEHOLDER
  2
AcDbPlaceHolder
  3
ObjectDBX Classes
 90
        0
280
     0
281
     0
  0
CLASS
  1
LAYOUT
  2
AcDbLayout
  3
ObjectDBX Classes
 90
        0
280
     0
281
     0
  0
ENDSEC
  0
SECTION
  2
TABLES
  0
TABLE
  2
VPORT
  5
8
330
0
100
AcDbSymbolTable
 70
     1
  0
VPORT
  5
5F
330
8
100
AcDbSymbolTableRecord
100
AcDbViewportTableRecord
  2
*Active
 70
     0
 10
0.0
 20
0.0
 11
1.0
 21
1.0
 12
2355.62874597177
 22
1901.082655164723
 13
0.0
 23
0.0
 14
1.0
 24
1.0
 15
0.0
 25
0.0
 16
0.0
 26
0.0
 36
1.0
 17
0.0
 27
0.0
 37
0.0
 40
3818.023972150908
 41
1.61987041036717
 42
50.0
 43
0.0
 44
0.0
 50
0.0
 51
0.0
 71
     0
 72
   100
 73
     1
 74
     1
 75
     0
 76
     0
 77
     0
 78
     0
281
     0
 65
     1
110
0.0
120
0.0
130
0.0
111
1.0
121
0.0
131
0.0
112
0.0
122
1.0
132
0.0
 79
     0
146
0.0
  0
ENDTAB
  0
TABLE
  2
LTYPE
  5
5
330
0
100
AcDbSymbolTable
 70
    62
  0
LTYPE
  5
63
330
5
100
AcDbSymbolTableRecord
100
AcDbLinetypeTableRecord
  2
ByBlock
 70
     0
  3

 72
    65
 73
     0
 40
0.0
  0
LTYPE
  5
64
330
5
100
AcDbSymbolTableRecord
100
AcDbLinetypeTableRecord
  2
ByLayer
 70
     0
  3

 72
    65
 73
     0
 40
0.0
  0
LTYPE
  5
65
330
5
100
AcDbSymbolTableRecord
100
AcDbLinetypeTableRecord
  2
Continuous
 70
     0
  3
Solid line
 72
    65
 73
     0
 40
0.0
  0
LTYPE
  5
7D
330
5
100
AcDbSymbolTableRecord
100
AcDbLinetypeTableRecord
  2
Section_View_Lines
 70
     0
  3
Section View Lines
 72
    65
 73
     4
 40
0.8406
 49
0.6614
 74
     0
 49
-0.0827
 74
     0
 49
0.0138
 74
     0
 49
-0.0827
 74
     0
  0
LTYPE
  5
7E
330
5
100
AcDbSymbolTableRecord
100
AcDbLinetypeTableRecord
  2
CHAIN
 70
     0
  3
Chain ____ _ ____ _ ____ _ ____ _ ____ _ ____
 72
    65
 73
     4
 40
0.3543
 49
0.2362
 74
     0
 49
-0.0295
 74
     0
 49
0.0591
 74
     0
 49
-0.0295
 74
     0
  0
LTYPE
  5
7F
330
5
100
AcDbSymbolTableRecord
100
AcDbLinetypeTableRecord
  2
DASH_DOT
 70
     0
  3
Dash dot _._._._._._._._._._._._._._._.
 72
    65
 73
     4
 40
0.182
 49
0.1181
 74
     0
 49
-0.0295
 74
     0
 49
0.0049
 74
     0
 49
-0.0295
 74
     0
  0
LTYPE
  5
80
330
5
100
AcDbSymbolTableRecord
100
AcDbLinetypeTableRecord
  2
DASH_DOUBLE_DOT
 70
     0
  3
Dash Double Dot __ __ . __ __ . __ __ . __ _
 72
    65
 73
     6
 40
0.2164
 49
0.1181
 74
     0
 49
-0.0295
 74
     0
 49
0.0049
 74
     0
 49
-0.0295
 74
     0
 49
0.0049
 74
     0
 49
-0.0295
 74
     0
  0
LTYPE
  5
81
330
5
100
AcDbSymbolTableRecord
100
AcDbLinetypeTableRecord
  2
DASH_TRIPLE_DOT
 70
     0
  3
Dash Triple-Dot _ . . . _ . . . _ . . . _
 72
    65
 73
     8
 40
0.2508
 49
0.1181
 74
     0
 49
-0.0295
 74
     0
 49
0.0049
 74
     0
 49
-0.0295
 74
     0
 49
0.0049
 74
     0
 49
-0.0295
 74
     0
 49
0.0049
 74
     0
 49
-0.0295
 74
     0
  0
LTYPE
  5
82
330
5
100
AcDbSymbolTableRecord
100
AcDbLinetypeTableRecord
  2
DASHED
 70
     0
  3
Dashed __ __ __ __ __ __ __ __ __ __ __ __ __ _
 72
    65
 73
     2
 40
0.2068
 49
0.1655
 74
     0
 49
-0.0413
 74
     0
  0
LTYPE
  5
83
330
5
100
AcDbSymbolTableRecord
100
AcDbLinetypeTableRecord
  2
DASHED_SPACE
 70
     0
  3
Dashed Space __ __ __ __ __ __ __ __ __ __ __ _
 72
    65
 73
     2
 40
0.2067
 49
0.1654
 74
     0
 49
-0.0413
 74
     0
  0
LTYPE
  5
84
330
5
100
AcDbSymbolTableRecord
100
AcDbLinetypeTableRecord
  2
DOTTED
 70
     0
  3
Dotted . . . . . . . . . . . . . . . . . . . . 
 72
    65
 73
     2
 40
0.0481
 49
0.0068
 74
     0
 49
-0.0413
 74
     0
  0
LTYPE
  5
85
330
5
100
AcDbSymbolTableRecord
100
AcDbLinetypeTableRecord
  2
DOUBLE_DASH_CHAIN
 70
     0
  3
Double Dash Chain ___ _ _ ___ _ _ ___ _ _ ___ _
 72
    65
 73
     6
 40
1.240299999999998
 49
0.6614
 74
     0
 49
-0.0827
 74
     0
 49
0.1654
 74
     0
 49
-0.0827
 74
     0
 49
0.1654
 74
     0
 49
-0.0827
 74
     0
  0
LTYPE
  5
86
330
5
100
AcDbSymbolTableRecord
100
AcDbLinetypeTableRecord
  2
DOUBLE_DASH_DOT
 70
     0
  3
Double Dash Dot __ __ . __ __ . __ __ . __ _
 72
    65
 73
     6
 40
0.3296
 49
0.1181
 74
     0
 49
-0.0295
 74
     0
 49
0.1181
 74
     0
 49
-0.0295
 74
     0
 49
0.0049
 74
     0
 49
-0.0295
 74
     0
  0
LTYPE
  5
87
330
5
100
AcDbSymbolTableRecord
100
AcDbLinetypeTableRecord
  2
DOUBLE_DASH_DOUBLE_DOT
 70
     0
  3
Double Dash Double Dot _ _ . . _ _ . . _ _
 72
    65
 73
     8
 40
0.364
 49
0.1181
 74
     0
 49
-0.0295
 74
     0
 49
0.1181
 74
     0
 49
-0.0295
 74
     0
 49
0.0049
 74
     0
 49
-0.0295
 74
     0
 49
0.0049
 74
     0
 49
-0.0295
 74
     0
  0
LTYPE
  5
88
330
5
100
AcDbSymbolTableRecord
100
AcDbLinetypeTableRecord
  2
DOUBLE_DASH_TRIPLE_DOT
 70
     0
  3
Double Dash Triple Dot __ __ . . . __ __ . . .
 72
    65
 73
    10
 40
0.3984
 49
0.1181
 74
     0
 49
-0.0295
 74
     0
 49
0.1181
 74
     0
 49
-0.0295
 74
     0
 49
0.0049
 74
     0
 49
-0.0295
 74
     0
 49
0.0049
 74
     0
 49
-0.0295
 74
     0
 49
0.0049
 74
     0
 49
-0.0295
 74
     0
  0
LTYPE
  5
89
330
5
100
AcDbSymbolTableRecord
100
AcDbLinetypeTableRecord
  2
LONG_DASH_DOTTED
 70
     0
  3
Long Dash Dotted ____ . ____ . ____ . ____ . _
 72
    65
 73
     4
 40
0.3001
 49
0.2362
 74
     0
 49
-0.0295
 74
     0
 49
0.0049
 74
     0
 49
-0.0295
 74
     0
  0
LTYPE
  5
8A
330
5
100
AcDbSymbolTableRecord
100
AcDbLinetypeTableRecord
  2
LONG_DASH_DOUBLE_DOT
 70
     0
  3
Long Dash Double Dot ____ . . ____ . . ____ . .
 72
    65
 73
     6
 40
0.3345
 49
0.2362
 74
     0
 49
-0.0295
 74
     0
 49
0.0049
 74
     0
 49
-0.0295
 74
     0
 49
0.0049
 74
     0
 49
-0.0295
 74
     0
  0
LTYPE
  5
8B
330
5
100
AcDbSymbolTableRecord
100
AcDbLinetypeTableRecord
  2
LONG_DASH_TRIPLE_DOT
 70
     0
  3
Long Dash Triple Dot ____ ... ____ ... ____
 72
    65
 73
     8
 40
0.3689
 49
0.2362
 74
     0
 49
-0.0295
 74
     0
 49
0.0049
 74
     0
 49
-0.0295
 74
     0
 49
0.0049
 74
     0
 49
-0.0295
 74
     0
 49
0.0049
 74
     0
 49
-0.0295
 74
     0
  0
LTYPE
  5
8C
330
5
100
AcDbSymbolTableRecord
100
AcDbLinetypeTableRecord
  2
BORDER
 70
     0
  3
Border __ __ . __ __ . __ __ . __ __ . __ __ .
 72
    65
 73
     6
 40
44.45
 49
12.7
 74
     0
 49
-6.349999999999998
 74
     0
 49
12.7
 74
     0
 49
-6.349999999999998
 74
     0
 49
0.0
 74
     0
 49
-6.349999999999998
 74
     0
  0
LTYPE
  5
8D
330
5
100
AcDbSymbolTableRecord
100
AcDbLinetypeTableRecord
  2
BORDER2
 70
     0
  3
Border (.5x) __.__.__.__.__.__.__.__.__.__.__.
 72
    65
 73
     6
 40
22.225
 49
6.349999999999998
 74
     0
 49
-3.174999999999998
 74
     0
 49
6.349999999999998
 74
     0
 49
-3.174999999999998
 74
     0
 49
0.0
 74
     0
 49
-3.174999999999998
 74
     0
  0
LTYPE
  5
8E
330
5
100
AcDbSymbolTableRecord
100
AcDbLinetypeTableRecord
  2
BORDERX2
 70
     0
  3
Border (2x) ____  ____  .  ____  ____  .  ___
 72
    65
 73
     6
 40
88.9
 49
25.4
 74
     0
 49
-12.7
 74
     0
 49
25.4
 74
     0
 49
-12.7
 74
     0
 49
0.0
 74
     0
 49
-12.7
 74
     0
  0
LTYPE
  5
8F
330
5
100
AcDbSymbolTableRecord
100
AcDbLinetypeTableRecord
  2
CENTER
 70
     0
  3
Center ____ _ ____ _ ____ _ ____ _ ____ _ ____
 72
    65
 73
     4
 40
50.8
 49
31.75
 74
     0
 49
-6.349999999999998
 74
     0
 49
6.349999999999998
 74
     0
 49
-6.349999999999998
 74
     0
  0
LTYPE
  5
90
330
5
100
AcDbSymbolTableRecord
100
AcDbLinetypeTableRecord
  2
CENTER2
 70
     0
  3
Center (.5x) ___ _ ___ _ ___ _ ___ _ ___ _ ___
 72
    65
 73
     4
 40
28.575
 49
19.05
 74
     0
 49
-3.174999999999998
 74
     0
 49
3.174999999999998
 74
     0
 49
-3.174999999999998
 74
     0
  0
LTYPE
  5
91
330
5
100
AcDbSymbolTableRecord
100
AcDbLinetypeTableRecord
  2
CENTERX2
 70
     0
  3
Center (2x) ________  __  ________  __  _____
 72
    65
 73
     4
 40
101.6
 49
63.5
 74
     0
 49
-12.7
 74
     0
 49
12.7
 74
     0
 49
-12.7
 74
     0
  0
LTYPE
  5
92
330
5
100
AcDbSymbolTableRecord
100
AcDbLinetypeTableRecord
  2
DASHDOT2
 70
     0
  3
Dash dot (.5x) _._._._._._._._._._._._._._._.
 72
    65
 73
     4
 40
12.7
 49
6.349999999999998
 74
     0
 49
-3.174999999999998
 74
     0
 49
0.0
 74
     0
 49
-3.174999999999998
 74
     0
  0
LTYPE
  5
93
330
5
100
AcDbSymbolTableRecord
100
AcDbLinetypeTableRecord
  2
DASHDOTX2
 70
     0
  3
Dash dot (2x) ____  .  ____  .  ____  .  ___
 72
    65
 73
     4
 40
50.8
 49
25.4
 74
     0
 49
-12.7
 74
     0
 49
0.0
 74
     0
 49
-12.7
 74
     0
  0
LTYPE
  5
94
330
5
100
AcDbSymbolTableRecord
100
AcDbLinetypeTableRecord
  2
DASHED2
 70
     0
  3
Dashed (.5x) _ _ _ _ _ _ _ _ _ _ _ _ _ _ _ _ _
 72
    65
 73
     2
 40
9.524999999999996
 49
6.349999999999998
 74
     0
 49
-3.174999999999998
 74
     0
  0
LTYPE
  5
95
330
5
100
AcDbSymbolTableRecord
100
AcDbLinetypeTableRecord
  2
DASHEDX2
 70
     0
  3
Dashed (2x) ____  ____  ____  ____  ____  ___
 72
    65
 73
     2
 40
38.1
 49
25.4
 74
     0
 49
-12.7
 74
     0
  0
LTYPE
  5
96
330
5
100
AcDbSymbolTableRecord
100
AcDbLinetypeTableRecord
  2
DIVIDE
 70
     0
  3
Divide ____ . . ____ . . ____ . . ____ . . ____
 72
    65
 73
     6
 40
31.75
 49
12.7
 74
     0
 49
-6.349999999999998
 74
     0
 49
0.0
 74
     0
 49
-6.349999999999998
 74
     0
 49
0.0
 74
     0
 49
-6.349999999999998
 74
     0
  0
LTYPE
  5
97
330
5
100
AcDbSymbolTableRecord
100
AcDbLinetypeTableRecord
  2
DIVIDE2
 70
     0
  3
Divide (.5x) __..__..__..__..__..__..__..__.._
 72
    65
 73
     6
 40
15.875
 49
6.349999999999998
 74
     0
 49
-3.174999999999998
 74
     0
 49
0.0
 74
     0
 49
-3.174999999999998
 74
     0
 49
0.0
 74
     0
 49
-3.174999999999998
 74
     0
  0
LTYPE
  5
98
330
5
100
AcDbSymbolTableRecord
100
AcDbLinetypeTableRecord
  2
DIVIDEX2
 70
     0
  3
Divide (2x) ________  .  .  ________  .  .  _
 72
    65
 73
     6
 40
63.49999999999999
 49
25.4
 74
     0
 49
-12.7
 74
     0
 49
0.0
 74
     0
 49
-12.7
 74
     0
 49
0.0
 74
     0
 49
-12.7
 74
     0
  0
LTYPE
  5
99
330
5
100
AcDbSymbolTableRecord
100
AcDbLinetypeTableRecord
  2
DOT
 70
     0
  3
Dot . . . . . . . . . . . . . . . . . . . . . .
 72
    65
 73
     2
 40
6.349999999999998
 49
0.0
 74
     0
 49
-6.349999999999998
 74
     0
  0
LTYPE
  5
9A
330
5
100
AcDbSymbolTableRecord
100
AcDbLinetypeTableRecord
  2
DOT2
 70
     0
  3
Dot (.5x) .....................................
 72
    65
 73
     2
 40
3.174999999999998
 49
0.0
 74
     0
 49
-3.174999999999998
 74
     0
  0
LTYPE
  5
9B
330
5
100
AcDbSymbolTableRecord
100
AcDbLinetypeTableRecord
  2
DOTX2
 70
     0
  3
Dot (2x) .  .  .  .  .  .  .  .  .  .  .  .  . 
 72
    65
 73
     2
 40
12.7
 49
0.0
 74
     0
 49
-12.7
 74
     0
  0
LTYPE
  5
9C
330
5
100
AcDbSymbolTableRecord
100
AcDbLinetypeTableRecord
  2
HIDDEN
 70
     0
  3
Hidden __ __ __ __ __ __ __ __ __ __ __ __ __ _
 72
    65
 73
     2
 40
9.524999999999996
 49
6.349999999999998
 74
     0
 49
-3.174999999999998
 74
     0
  0
LTYPE
  5
9D
330
5
100
AcDbSymbolTableRecord
100
AcDbLinetypeTableRecord
  2
HIDDEN2
 70
     0
  3
Hidden (.5x) _ _ _ _ _ _ _ _ _ _ _ _ _ _ _ _ _
 72
    65
 73
     2
 40
4.762499999999998
 49
3.174999999999998
 74
     0
 49
-1.587499999999999
 74
     0
  0
LTYPE
  5
9E
330
5
100
AcDbSymbolTableRecord
100
AcDbLinetypeTableRecord
  2
HIDDENX2
 70
     0
  3
Hidden (2x) ____ ____ ____ ____ ____ ____ ____
 72
    65
 73
     2
 40
19.05
 49
12.7
 74
     0
 49
-6.349999999999998
 74
     0
  0
LTYPE
  5
9F
330
5
100
AcDbSymbolTableRecord
100
AcDbLinetypeTableRecord
  2
PHANTOM
 70
     0
  3
Phantom ______  __  __  ______  __  __  ______
 72
    65
 73
     6
 40
63.5
 49
31.75
 74
     0
 49
-6.349999999999998
 74
     0
 49
6.349999999999998
 74
     0
 49
-6.349999999999998
 74
     0
 49
6.349999999999998
 74
     0
 49
-6.349999999999998
 74
     0
  0
LTYPE
  5
A0
330
5
100
AcDbSymbolTableRecord
100
AcDbLinetypeTableRecord
  2
PHANTOM2
 70
     0
  3
Phantom (.5x) ___ _ _ ___ _ _ ___ _ _ ___ _ _
 72
    65
 73
     6
 40
31.75
 49
15.875
 74
     0
 49
-3.174999999999998
 74
     0
 49
3.174999999999998
 74
     0
 49
-3.174999999999998
 74
     0
 49
3.174999999999998
 74
     0
 49
-3.174999999999998
 74
     0
  0
LTYPE
  5
A1
330
5
100
AcDbSymbolTableRecord
100
AcDbLinetypeTableRecord
  2
PHANTOMX2
 70
     0
  3
Phantom (2x) ____________    ____    ____   _
 72
    65
 73
     6
 40
127.0
 49
63.5
 74
     0
 49
-12.7
 74
     0
 49
12.7
 74
     0
 49
-12.7
 74
     0
 49
12.7
 74
     0
 49
-12.7
 74
     0
  0
LTYPE
  5
A2
330
5
100
AcDbSymbolTableRecord
100
AcDbLinetypeTableRecord
  2
ACAD_ISO02W100
 70
     0
  3
ISO dash __ __ __ __ __ __ __ __ __ __ __ __ __
 72
    65
 73
     2
 40
15.0
 49
12.0
 74
     0
 49
-3.0
 74
     0
  0
LTYPE
  5
A3
330
5
100
AcDbSymbolTableRecord
100
AcDbLinetypeTableRecord
  2
ACAD_ISO03W100
 70
     0
  3
ISO dash space __    __    __    __    __    __
 72
    65
 73
     2
 40
30.0
 49
12.0
 74
     0
 49
-18.0
 74
     0
  0
LTYPE
  5
A4
330
5
100
AcDbSymbolTableRecord
100
AcDbLinetypeTableRecord
  2
ACAD_ISO04W100
 70
     0
  3
ISO long-dash dot ____ . ____ . ____ . ____ . _
 72
    65
 73
     4
 40
30.0
 49
24.0
 74
     0
 49
-3.0
 74
     0
 49
0.0
 74
     0
 49
-3.0
 74
     0
  0
LTYPE
  5
A5
330
5
100
AcDbSymbolTableRecord
100
AcDbLinetypeTableRecord
  2
ACAD_ISO05W100
 70
     0
  3
ISO long-dash double-dot ____ .. ____ .. ____ .
 72
    65
 73
     6
 40
33.0
 49
24.0
 74
     0
 49
-3.0
 74
     0
 49
0.0
 74
     0
 49
-3.0
 74
     0
 49
0.0
 74
     0
 49
-3.0
 74
     0
  0
LTYPE
  5
A6
330
5
100
AcDbSymbolTableRecord
100
AcDbLinetypeTableRecord
  2
ACAD_ISO06W100
 70
     0
  3
ISO long-dash triple-dot ____ ... ____ ... ____
 72
    65
 73
     8
 40
36.0
 49
24.0
 74
     0
 49
-3.0
 74
     0
 49
0.0
 74
     0
 49
-3.0
 74
     0
 49
0.0
 74
     0
 49
-3.0
 74
     0
 49
0.0
 74
     0
 49
-3.0
 74
     0
  0
LTYPE
  5
A7
330
5
100
AcDbSymbolTableRecord
100
AcDbLinetypeTableRecord
  2
ACAD_ISO07W100
 70
     0
  3
ISO dot . . . . . . . . . . . . . . . . . . . .
 72
    65
 73
     2
 40
3.0
 49
0.0
 74
     0
 49
-3.0
 74
     0
  0
LTYPE
  5
A8
330
5
100
AcDbSymbolTableRecord
100
AcDbLinetypeTableRecord
  2
ACAD_ISO08W100
 70
     0
  3
ISO long-dash short-dash ____ __ ____ __ ____ _
 72
    65
 73
     4
 40
36.0
 49
24.0
 74
     0
 49
-3.0
 74
     0
 49
6.0
 74
     0
 49
-3.0
 74
     0
  0
LTYPE
  5
A9
330
5
100
AcDbSymbolTableRecord
100
AcDbLinetypeTableRecord
  2
ACAD_ISO09W100
 70
     0
  3
ISO long-dash double-short-dash ____ __ __ ____
 72
    65
 73
     6
 40
45.0
 49
24.0
 74
     0
 49
-3.0
 74
     0
 49
6.0
 74
     0
 49
-3.0
 74
     0
 49
6.0
 74
     0
 49
-3.0
 74
     0
  0
LTYPE
  5
AA
330
5
100
AcDbSymbolTableRecord
100
AcDbLinetypeTableRecord
  2
ACAD_ISO10W100
 70
     0
  3
ISO dash dot __ . __ . __ . __ . __ . __ . __ .
 72
    65
 73
     4
 40
18.0
 49
12.0
 74
     0
 49
-3.0
 74
     0
 49
0.0
 74
     0
 49
-3.0
 74
     0
  0
LTYPE
  5
AB
330
5
100
AcDbSymbolTableRecord
100
AcDbLinetypeTableRecord
  2
ACAD_ISO11W100
 70
     0
  3
ISO double-dash dot __ __ . __ __ . __ __ . __ 
 72
    65
 73
     6
 40
33.0
 49
12.0
 74
     0
 49
-3.0
 74
     0
 49
12.0
 74
     0
 49
-3.0
 74
     0
 49
0.0
 74
     0
 49
-3.0
 74
     0
  0
LTYPE
  5
AC
330
5
100
AcDbSymbolTableRecord
100
AcDbLinetypeTableRecord
  2
ACAD_ISO12W100
 70
     0
  3
ISO dash double-dot __ . . __ . . __ . . __ . .
 72
    65
 73
     6
 40
21.0
 49
12.0
 74
     0
 49
-3.0
 74
     0
 49
0.0
 74
     0
 49
-3.0
 74
     0
 49
0.0
 74
     0
 49
-3.0
 74
     0
  0
LTYPE
  5
AD
330
5
100
AcDbSymbolTableRecord
100
AcDbLinetypeTableRecord
  2
ACAD_ISO13W100
 70
     0
  3
ISO double-dash double-dot __ __ . . __ __ . . 
 72
    65
 73
     8
 40
36.0
 49
12.0
 74
     0
 49
-3.0
 74
     0
 49
12.0
 74
     0
 49
-3.0
 74
     0
 49
0.0
 74
     0
 49
-3.0
 74
     0
 49
0.0
 74
     0
 49
-3.0
 74
     0
  0
LTYPE
  5
AE
330
5
100
AcDbSymbolTableRecord
100
AcDbLinetypeTableRecord
  2
ACAD_ISO14W100
 70
     0
  3
ISO dash triple-dot __ . . . __ . . . __ . . . 
 72
    65
 73
     8
 40
24.0
 49
12.0
 74
     0
 49
-3.0
 74
     0
 49
0.0
 74
     0
 49
-3.0
 74
     0
 49
0.0
 74
     0
 49
-3.0
 74
     0
 49
0.0
 74
     0
 49
-3.0
 74
     0
  0
LTYPE
  5
AF
330
5
100
AcDbSymbolTableRecord
100
AcDbLinetypeTableRecord
  2
ACAD_ISO15W100
 70
     0
  3
ISO double-dash triple-dot __ __ . . . __ __ . 
 72
    65
 73
    10
 40
39.0
 49
12.0
 74
     0
 49
-3.0
 74
     0
 49
12.0
 74
     0
 49
-3.0
 74
     0
 49
0.0
 74
     0
 49
-3.0
 74
     0
 49
0.0
 74
     0
 49
-3.0
 74
     0
 49
0.0
 74
     0
 49
-3.0
 74
     0
  0
LTYPE
  5
B2
330
5
100
AcDbSymbolTableRecord
100
AcDbLinetypeTableRecord
  2
FENCELINE1
 70
     0
  3
Fenceline circle ----0-----0----0-----0----0---
 72
    65
 73
     4
 40
36.83
 49
6.349999999999998
 74
     0
 49
-2.54
 74
     4
 75
   133
340
B1
 46
2.54
 50
0.0
 44
-2.54
 45
0.0
 49
-2.54
 74
     0
 49
25.4
 74
     0
  0
LTYPE
  5
B3
330
5
100
AcDbSymbolTableRecord
100
AcDbLinetypeTableRecord
  2
FENCELINE2
 70
     0
  3
Fenceline square ----[]-----[]----[]-----[]----
 72
    65
 73
     4
 40
36.83
 49
6.349999999999998
 74
     0
 49
-2.54
 74
     4
 75
   132
340
B1
 46
2.54
 50
0.0
 44
-2.54
 45
0.0
 49
-2.54
 74
     0
 49
25.4
 74
     0
  0
LTYPE
  5
B4
330
5
100
AcDbSymbolTableRecord
100
AcDbLinetypeTableRecord
  2
TRACKS
 70
     0
  3
Tracks -|-|-|-|-|-|-|-|-|-|-|-|-|-|-|-|-|-|-|-|
 72
    65
 73
     2
 40
7.62
 49
3.81
 74
     4
 75
   130
340
B1
 46
6.349999999999998
 50
0.0
 44
0.0
 45
0.0
 49
3.81
 74
     0
  0
LTYPE
  5
B5
330
5
100
AcDbSymbolTableRecord
100
AcDbLinetypeTableRecord
  2
BATTING
 70
     0
  3
Batting SSSSSSSSSSSSSSSSSSSSSSSSSSSSSSSSSSSSSSS
 72
    65
 73
     4
 40
10.16254
 49
0.00254
 74
     0
 49
-2.54
 74
     4
 75
   134
340
B1
 46
2.54
 50
0.0
 44
-2.54
 45
0.0
 49
-5.08
 74
     4
 75
   134
340
B1
 46
2.54
 50
180.0
 44
2.54
 45
0.0
 49
-2.54
 74
     0
  0
LTYPE
  5
B6
330
5
100
AcDbSymbolTableRecord
100
AcDbLinetypeTableRecord
  2
HOT_WATER_SUPPLY
 70
     0
  3
Hot water supply ---- HW ---- HW ---- HW ----
 72
    65
 73
     3
 40
22.86
 49
12.7
 74
     0
 49
-5.08
 74
     2
 75
     0
340
5D
 46
2.54
 50
0.0
 44
-2.54
 45
-1.27
  9
HW
 49
-5.08
 74
     0
  0
LTYPE
  5
B7
330
5
100
AcDbSymbolTableRecord
100
AcDbLinetypeTableRecord
  2
GAS_LINE
 70
     0
  3
Gas line ----GAS----GAS----GAS----GAS----GAS---
 72
    65
 73
     3
 40
24.13
 49
12.7
 74
     0
 49
-5.08
 74
     2
 75
     0
340
5D
 46
2.54
 50
0.0
 44
-2.54
 45
-1.27
  9
GAS
 49
-6.349999999999998
 74
     0
  0
LTYPE
  5
B8
330
5
100
AcDbSymbolTableRecord
100
AcDbLinetypeTableRecord
  2
ZIGZAG
 70
     0
  3
Zig zag /\/\/\/\/\/\/\/\/\/\/\/\/\/\/\/\/\/\/\/
 72
    65
 73
     4
 40
20.32254
 49
0.00254
 74
     0
 49
-5.08
 74
     4
 75
   131
340
B1
 46
5.08
 50
0.0
 44
-5.08
 45
0.0
 49
-10.16
 74
     4
 75
   131
340
B1
 46
5.08
 50
180.0
 44
5.08
 45
0.0
 49
-5.08
 74
     0
  0
LTYPE
  5
109
330
5
100
AcDbSymbolTableRecord
100
AcDbLinetypeTableRecord
  2
MarMittel
 70
     0
  3
_ _ 
 72
    65
 73
     4
 40
500.0001983642578
 49
263.1579895019531
 74
     0
 49
-78.94740295410156
 74
     0
 49
78.94740295410156
 74
     0
 49
-78.94740295410156
 74
     0
  0
LTYPE
  5
10A
330
5
100
AcDbSymbolTableRecord
100
AcDbLinetypeTableRecord
  2
MarPhantom
 70
     0
  3
_ _ _ 
 72
    65
 73
     6
 40
789.4740142822265
 49
394.7369995117187
 74
     0
 49
-78.94740295410156
 74
     0
 49
78.94740295410156
 74
     0
 49
-78.94740295410156
 74
     0
 49
78.94740295410156
 74
     0
 49
-78.94740295410156
 74
     0
  0
LTYPE
  5
10B
330
5
100
AcDbSymbolTableRecord
100
AcDbLinetypeTableRecord
  2
MarVerdeckt
 70
     0
  3
_ 
 72
    65
 73
     2
 40
236.8424072265625
 49
157.8950042724609
 74
     0
 49
-78.94740295410156
 74
     0
  0
ENDTAB
  0
TABLE
  2
LAYER
  5
2
330
0
100
AcDbSymbolTable
 70
    14
  0
LAYER
  5
5C
330
2
100
AcDbSymbolTableRecord
100
AcDbLayerTableRecord
  2
0
 70
     0
 62
     7
  6
Continuous
370
    -3
390
F
  0
LAYER
  5
C9
330
2
100
AcDbSymbolTableRecord
100
AcDbLayerTableRecord
  2
Bemaßungen(DIN)
 70
     0
 62
     7
  6
Continuous
370
    25
390
F
  0
LAYER
  5
CF
330
2
100
AcDbSymbolTableRecord
100
AcDbLayerTableRecord
  2
Centerline(ISO)
 70
     0
 62
     7
  6
DASH_DOT
370
    25
390
F
  0
LAYER
  5
D5
330
2
100
AcDbSymbolTableRecord
100
AcDbLayerTableRecord
  2
Hatch
 70
     0
 62
     7
  6
Continuous
370
     9
390
F
  0
LAYER
  5
DC
330
2
100
AcDbSymbolTableRecord
100
AcDbLayerTableRecord
  2
MaCenterline
 70
     0
 62
     7
  6
Continuous
370
    35
390
F
  0
LAYER
  5
DD
330
2
100
AcDbSymbolTableRecord
100
AcDbLayerTableRecord
  2
MaHiddenEdge
 70
     0
 62
     7
  6
Continuous
370
    35
390
F
  0
LAYER
  5
DF
330
2
100
AcDbSymbolTableRecord
100
AcDbLayerTableRecord
  2
MaSichtkante dünnFliese
 70
     0
 62
     7
  6
Continuous
370
    30
390
F
  0
LAYER
  5
E0
330
2
100
AcDbSymbolTableRecord
100
AcDbLayerTableRecord
  2
MaVisibleEdge
 70
     0
 62
     7
  6
Continuous
370
    50
390
F
  0
LAYER
  5
E8
330
2
100
AcDbSymbolTableRecord
100
AcDbLayerTableRecord
  2
Phantom Lines(ISO)
 70
     0
 62
     7
  6
DOUBLE_DASH_CHAIN
370
    70
390
F
  0
LAYER
  5
EF
330
2
100
AcDbSymbolTableRecord
100
AcDbLayerTableRecord
  2
Sketch Geometry(DIN)
 70
     0
 62
     7
  6
Continuous
370
    50
390
F
  0
LAYER
  5
F0
330
2
100
AcDbSymbolTableRecord
100
AcDbLayerTableRecord
  2
Sketch Geometry(ISO)
 70
     0
 62
     7
  6
Continuous
370
    50
390
F
  0
LAYER
  5
FA
330
2
100
AcDbSymbolTableRecord
100
AcDbLayerTableRecord
  2
Symbols(ISO)
 70
     0
 62
     7
  6
Continuous
370
    25
390
F
  0
LAYER
  5
102
330
2
100
AcDbSymbolTableRecord
100
AcDbLayerTableRecord
  2
Visible Edges(DIN)
 70
     0
 62
     7
  6
Continuous
370
    50
390
F
  0
LAYER
  5
3A3
330
2
100
AcDbSymbolTableRecord
100
AcDbLayerTableRecord
  2
Defpoints
 70
     0
 62
     7
  6
Continuous
290
     0
370
    -3
390
F
  0
ENDTAB
  0
TABLE
  2
STYLE
  5
3
330
0
100
AcDbSymbolTable
 70
    26
  0
STYLE
  5
5D
330
3
100
AcDbSymbolTableRecord
100
AcDbTextStyleTableRecord
  2
Standard
 70
     0
 40
0.0
 41
1.0
 50
0.0
 71
     0
 42
0.2
  3
monotxt.shx
  4

  0
STYLE
  5
62
330
3
100
AcDbSymbolTableRecord
100
AcDbTextStyleTableRecord
  2
Annotative
 70
     0
 40
0.0
 41
1.0
 50
0.0
 71
     0
 42
0.2
  3

  4

1001
AcadAnnotative
1000
AnnotativeData
1002
{
1070
     1
1070
     1
1002
}
  0
STYLE
  5
B1
330
3
100
AcDbSymbolTableRecord
100
AcDbTextStyleTableRecord
  2

 70
     1
 40
0.0
 41
1.0
 50
0.0
 71
     0
 42
0.2
  3
ltypeshp.shx
  4

  0
STYLE
  5
10C
330
3
100
AcDbSymbolTableRecord
100
AcDbTextStyleTableRecord
  2
Current-DIN
 70
     0
 40
0.0
 41
1.0
 50
0.0
 71
     0
 42
0.2
  3
TAHOMA.TTF
  4

1001
ACAD
1000
Tahoma
1071
      256
  0
STYLE
  5
10D
330
3
100
AcDbSymbolTableRecord
100
AcDbTextStyleTableRecord
  2
Label Text (ANSI)
 70
     0
 40
0.0
 41
1.0
 50
0.0
 71
     0
 42
0.2
  3
TAHOMA.TTF
  4

1001
ACAD
1000
Tahoma
1071
      256
  0
STYLE
  5
10E
330
3
100
AcDbSymbolTableRecord
100
AcDbTextStyleTableRecord
  2
Label Text (DIN)
 70
     0
 40
0.0
 41
1.0
 50
0.0
 71
     0
 42
0.2
  3
isocpeur.ttf
  4

1001
ACAD
1000
ISOCPEUR
1071
      256
  0
STYLE
  5
10F
330
3
100
AcDbSymbolTableRecord
100
AcDbTextStyleTableRecord
  2
Label Text (ISO)
 70
     0
 40
0.0
 41
1.0
 50
0.0
 71
     0
 42
0.2
  3
TAHOMA.TTF
  4

1001
ACAD
1000
Tahoma
1071
      256
  0
STYLE
  5
110
330
3
100
AcDbSymbolTableRecord
100
AcDbTextStyleTableRecord
  2
Label Text (JIS)
 70
     0
 40
0.0
 41
1.0
 50
0.0
 71
     0
 42
0.2
  3
TAHOMA.TTF
  4

1001
ACAD
1000
Tahoma
1071
      256
  0
STYLE
  5
111
330
3
100
AcDbSymbolTableRecord
100
AcDbTextStyleTableRecord
  2
Note Text (ANSI)
 70
     0
 40
0.0
 41
1.0
 50
0.0
 71
     0
 42
0.2
  3
TAHOMA.TTF
  4

1001
ACAD
1000
Tahoma
1071
      256
  0
STYLE
  5
112
330
3
100
AcDbSymbolTableRecord
100
AcDbTextStyleTableRecord
  2
Note Text (DIN)
 70
     0
 40
0.0
 41
1.0
 50
0.0
 71
     0
 42
0.2
  3
isocpeur.ttf
  4

1001
ACAD
1000
ISOCPEUR
1071
      256
  0
STYLE
  5
113
330
3
100
AcDbSymbolTableRecord
100
AcDbTextStyleTableRecord
  2
Note Text (ISO)
 70
     0
 40
0.0
 41
1.0
 50
0.0
 71
     0
 42
0.2
  3
TAHOMA.TTF
  4

1001
ACAD
1000
Tahoma
1071
      256
  0
STYLE
  5
114
330
3
100
AcDbSymbolTableRecord
100
AcDbTextStyleTableRecord
  2
Note Text (JIS)
 70
     0
 40
0.0
 41
1.0
 50
0.0
 71
     0
 42
0.2
  3
TAHOMA.TTF
  4

1001
ACAD
1000
Tahoma
1071
      256
  0
STYLE
  5
115
330
3
100
AcDbSymbolTableRecord
100
AcDbTextStyleTableRecord
  2
Parts-List_2.0mm
 70
     0
 40
0.0
 41
0.899999976158142
 50
0.0
 71
     0
 42
0.2
  3
ARIAL.TTF
  4

1001
ACAD
1000
Arial
1071
      256
  0
STYLE
  5
116
330
3
100
AcDbSymbolTableRecord
100
AcDbTextStyleTableRecord
  2
Parts-List_2.0mmByLayer
 70
     0
 40
0.0
 41
0.899999976158142
 50
0.0
 71
     0
 42
0.2
  3
ARIAL.TTF
  4

1001
ACAD
1000
Arial
1071
      256
  0
STYLE
  5
117
330
3
100
AcDbSymbolTableRecord
100
AcDbTextStyleTableRecord
  2
Text__1.3mm
 70
     0
 40
0.0
 41
0.899999976158142
 50
0.0
 71
     0
 42
0.2
  3
ARIAL.TTF
  4

1001
ACAD
1000
Arial
1071
      256
  0
STYLE
  5
118
330
3
100
AcDbSymbolTableRecord
100
AcDbTextStyleTableRecord
  2
Text__1.5mm
 70
     0
 40
0.0
 41
0.899999976158142
 50
0.0
 71
     0
 42
0.2
  3
ARIAL.TTF
  4

1001
ACAD
1000
Arial
1071
      256
  0
STYLE
  5
119
330
3
100
AcDbSymbolTableRecord
100
AcDbTextStyleTableRecord
  2
Text__3.5mm
 70
     0
 40
0.0
 41
0.899999976158142
 50
0.0
 71
     0
 42
0.2
  3
ARIAL.TTF
  4

1001
ACAD
1000
Arial
1071
      256
  0
STYLE
  5
11A
330
3
100
AcDbSymbolTableRecord
100
AcDbTextStyleTableRecord
  2
Text__3.5mmBigText
 70
     0
 40
0.0
 41
0.899999976158142
 50
0.0
 71
     0
 42
0.2
  3
ARIAL.TTF
  4

1001
ACAD
1000
Arial
1071
      256
  0
STYLE
  5
11B
330
3
100
AcDbSymbolTableRecord
100
AcDbTextStyleTableRecord
  2
Text__3.5mmByLayer
 70
     0
 40
0.0
 41
0.899999976158142
 50
0.0
 71
     0
 42
0.2
  3
ARIAL.TTF
  4

1001
ACAD
1000
Arial
1071
      256
  0
STYLE
  5
11C
330
3
100
AcDbSymbolTableRecord
100
AcDbTextStyleTableRecord
  2
Text__4.0mm
 70
     0
 40
0.0
 41
0.899999976158142
 50
0.0
 71
     0
 42
0.2
  3
ARIAL.TTF
  4

1001
ACAD
1000
Arial
1071
      256
  0
STYLE
  5
11D
330
3
100
AcDbSymbolTableRecord
100
AcDbTextStyleTableRecord
  2
Text__5.0mm
 70
     0
 40
0.0
 41
0.899999976158142
 50
0.0
 71
     0
 42
0.2
  3
ARIAL.TTF
  4

1001
ACAD
1000
Arial
1071
      256
  0
STYLE
  5
11E
330
3
100
AcDbSymbolTableRecord
100
AcDbTextStyleTableRecord
  2
Text__5.0mmByLayer
 70
     0
 40
0.0
 41
0.899999976158142
 50
0.0
 71
     0
 42
0.2
  3
ARIAL.TTF
  4

1001
ACAD
1000
Arial
1071
      256
  0
STYLE
  5
11F
330
3
100
AcDbSymbolTableRecord
100
AcDbTextStyleTableRecord
  2
Text_2.5mm
 70
     0
 40
0.0
 41
0.899999976158142
 50
0.0
 71
     0
 42
0.2
  3
ARIAL.TTF
  4

1001
ACAD
1000
Arial
1071
      256
  0
STYLE
  5
120
330
3
100
AcDbSymbolTableRecord
100
AcDbTextStyleTableRecord
  2
Text_3.5mm
 70
     0
 40
0.0
 41
0.899999976158142
 50
0.0
 71
     0
 42
0.2
  3
ARIAL.TTF
  4

1001
ACAD
1000
Arial
1071
      256
  0
STYLE
  5
121
330
3
100
AcDbSymbolTableRecord
100
AcDbTextStyleTableRecord
  2
Text_5.0mm
 70
     0
 40
0.0
 41
0.899999976158142
 50
0.0
 71
     0
 42
0.2
  3
ARIAL.TTF
  4

1001
ACAD
1000
Arial
1071
      256
  0
STYLE
  5
122
330
3
100
AcDbSymbolTableRecord
100
AcDbTextStyleTableRecord
  2
Text_5.0mmByLayer
 70
     0
 40
0.0
 41
0.899999976158142
 50
0.0
 71
     0
 42
0.2
  3
ARIAL.TTF
  4

1001
ACAD
1000
Arial
1071
      256
  0
ENDTAB
  0
TABLE
  2
VIEW
  5
6
330
0
100
AcDbSymbolTable
 70
     0
  0
ENDTAB
  0
TABLE
  2
UCS
  5
7
330
0
100
AcDbSymbolTable
 70
     0
  0
ENDTAB
  0
TABLE
  2
APPID
  5
9
330
0
100
AcDbSymbolTable
 70
     4
  0
APPID
  5
5E
330
9
100
AcDbSymbolTableRecord
100
AcDbRegAppTableRecord
  2
ACAD
 70
     0
  0
APPID
  5
66
330
9
100
AcDbSymbolTableRecord
100
AcDbRegAppTableRecord
  2
AcadAnnotative
 70
     0
  0
APPID
  5
70
330
9
100
AcDbSymbolTableRecord
100
AcDbRegAppTableRecord
  2
ACAD_MLEADERVER
 70
     0
  0
APPID
  5
1103
330
9
100
AcDbSymbolTableRecord
100
AcDbRegAppTableRecord
  2
AMAcad
 70
     0
  0
ENDTAB
  0
TABLE
  2
DIMSTYLE
  5
A
330
0
100
AcDbSymbolTable
 70
    17
100
AcDbDimStyleTable
 71
     2
340
127
340
60
  0
DIMSTYLE
105
60
330
A
100
AcDbSymbolTableRecord
100
AcDbDimStyleTableRecord
  2
Standard
 70
     0
340
5D
  0
DIMSTYLE
105
61
330
A
100
AcDbSymbolTableRecord
100
AcDbDimStyleTableRecord
  2
Annotative
 70
     0
340
5D
1001
AcadAnnotative
1000
AnnotativeData
1002
{
1070
     1
1070
     1
1002
}
  0
DIMSTYLE
105
123
330
A
100
AcDbSymbolTableRecord
100
AcDbDimStyleTableRecord
  2
KS-STANDARD
 70
     0
 40
13.0
 41
2.5
 42
0.0
 43
12.0
 44
3.174999999999998
 45
0.00000001
 46
10.0
 73
     0
 74
     0
 77
     1
 78
     8
 79
     2
140
3.5
143
0.03937
146
0.7142857142857145
147
0.8000000000000001
171
     3
172
     1
176
     7
177
     7
178
     7
271
     1
274
     3
278
    44
284
     8
286
     8
340
120
371
    25
372
    25
  0
DIMSTYLE
105
124
330
A
100
AcDbSymbolTableRecord
100
AcDbDimStyleTableRecord
  2
KS-STANDARD$7
 70
     0
 40
13.0
 41
2.5
 42
0.0
 43
12.0
 44
3.174999999999998
 45
0.00000001
 46
10.0
 73
     0
 74
     0
 77
     1
 78
     8
 79
     2
140
3.5
143
0.03937
146
0.7142857142857145
147
0.8000000000000001
171
     3
172
     1
176
     7
177
     7
178
     7
271
     1
274
     3
278
    44
284
     8
286
     8
340
120
371
    25
372
    25
  0
DIMSTYLE
105
125
330
A
100
AcDbSymbolTableRecord
100
AcDbDimStyleTableRecord
  2
KS-STANDARDBigText
 70
     0
 40
13.0
 41
5.0
 42
0.0
 43
12.0
 44
3.174999999999998
 45
0.00000001
 46
10.0
 73
     0
 74
     0
 77
     1
 78
     8
 79
     2
140
5.25
143
0.03937
146
0.4761904761904762
147
0.8000000000000001
171
     3
172
     1
176
     7
177
     7
178
     7
271
     1
274
     3
278
    44
284
     8
286
     8
340
11A
371
    25
372
    25
  0
DIMSTYLE
105
126
330
A
100
AcDbSymbolTableRecord
100
AcDbDimStyleTableRecord
  2
KS-STANDARDBigText$7
 70
     0
 40
13.0
 41
5.0
 42
0.0
 43
12.0
 44
3.174999999999998
 45
0.00000001
 46
10.0
 73
     0
 74
     0
 77
     1
 78
     8
 79
     2
140
5.25
143
0.03937
146
0.4761904761904762
147
0.8000000000000001
171
     3
172
     1
176
     7
177
     7
178
     7
271
     1
274
     3
278
    44
284
     8
286
     8
340
11A
371
    25
372
    25
  0
DIMSTYLE
105
127
102
{ACAD_REACTORS
330
3A2
330
48B
330
56B
330
646
330
726
330
807
330
8E7
330
9C7
330
AA2
330
B7D
330
C5D
330
D46
330
E2A
330
F0A
330
FEA
102
}
330
A
100
AcDbSymbolTableRecord
100
AcDbDimStyleTableRecord
  2
MarketingDrawing
 70
     0
 40
13.0
 41
4.0
 42
2.0
 43
12.0
 44
2.0
 45
0.00000001
 46
10.0
 78
     8
 79
     2
140
4.0
143
0.03937
146
0.625
147
1.0
171
     3
176
     7
177
     7
178
     7
271
     0
274
     3
278
    44
284
     8
286
     8
340
11C
371
    25
372
    25
  0
DIMSTYLE
105
128
330
A
100
AcDbSymbolTableRecord
100
AcDbDimStyleTableRecord
  2
MarketingDrawing$7
 70
     0
 40
13.0
 41
5.0
 42
2.0
 43
12.0
 44
2.0
 45
0.00000001
 46
10.0
 78
     8
 79
     2
140
4.0
143
0.03937
146
0.625
147
1.0
171
     3
176
     7
177
     7
178
     7
271
     0
274
     3
278
    44
284
     8
286
     8
340
11C
371
    25
372
    25
  0
DIMSTYLE
105
133
330
A
100
AcDbSymbolTableRecord
100
AcDbDimStyleTableRecord
  2
Leader-Datum(DIN)
 70
     0
 40
13.0
 41
2.5
340
5D
342
134
  0
DIMSTYLE
105
13B
330
A
100
AcDbSymbolTableRecord
100
AcDbDimStyleTableRecord
  2
Leader-Datum(ISO)
 70
     0
 40
13.0
 41
2.5
340
5D
342
134
  0
DIMSTYLE
105
13C
330
A
100
AcDbSymbolTableRecord
100
AcDbDimStyleTableRecord
  2
Leader-Dot(DIN)
 70
     0
 40
13.0
 41
2.5
340
5D
342
134
  0
DIMSTYLE
105
13D
330
A
100
AcDbSymbolTableRecord
100
AcDbDimStyleTableRecord
  2
Leader-Dot(ISO)
 70
     0
 40
13.0
 41
2.5
340
5D
342
134
  0
DIMSTYLE
105
13E
330
A
100
AcDbSymbolTableRecord
100
AcDbDimStyleTableRecord
  2
Leader-Large(DIN)
 70
     0
 40
13.0
 41
5.0
340
5D
342
134
  0
DIMSTYLE
105
13F
330
A
100
AcDbSymbolTableRecord
100
AcDbDimStyleTableRecord
  2
Leader-OriginIndicator(DIN)
 70
     0
 40
13.0
 41
2.5
340
5D
342
134
  0
DIMSTYLE
105
140
330
A
100
AcDbSymbolTableRecord
100
AcDbDimStyleTableRecord
  2
Leader-OriginIndicator(ISO)
 70
     0
 40
13.0
 41
2.5
340
5D
342
134
  0
DIMSTYLE
105
141
330
A
100
AcDbSymbolTableRecord
100
AcDbDimStyleTableRecord
  2
Leader(DIN)
 70
     0
 40
13.0
 41
2.5
340
5D
342
134
  0
DIMSTYLE
105
142
330
A
100
AcDbSymbolTableRecord
100
AcDbDimStyleTableRecord
  2
Leader(ISO)
 70
     0
 40
13.0
 41
2.5
340
5D
342
134
  0
ENDTAB
  0
TABLE
  2
BLOCK_RECORD
  5
1
330
0
100
AcDbSymbolTable
 70
    26
  0
BLOCK_RECORD
  5
75
330
1
100
AcDbSymbolTableRecord
100
AcDbBlockTableRecord
  2
*Model_Space
340
78
  0
BLOCK_RECORD
  5
71
330
1
100
AcDbSymbolTableRecord
100
AcDbBlockTableRecord
  2
*Paper_Space
340
74
  0
BLOCK_RECORD
  5
79
330
1
100
AcDbSymbolTableRecord
100
AcDbBlockTableRecord
  2
*Paper_Space0
340
7C
  0
BLOCK_RECORD
  5
129
330
1
100
AcDbSymbolTableRecord
100
AcDbBlockTableRecord
  2
DatumFilled45
340
0
  0
BLOCK_RECORD
  5
134
330
1
100
AcDbSymbolTableRecord
100
AcDbBlockTableRecord
  2
_Closed
340
0
  0
BLOCK_RECORD
  5
143
330
1
100
AcDbSymbolTableRecord
100
AcDbBlockTableRecord
  2
Index
340
0
  0
BLOCK_RECORD
  5
14A
330
1
100
AcDbSymbolTableRecord
100
AcDbBlockTableRecord
  2
AIR
340
0
  0
BLOCK_RECORD
  5
157
330
1
100
AcDbSymbolTableRecord
100
AcDbBlockTableRecord
  2
Zertifizierungszeichnung
340
0
  0
BLOCK_RECORD
  5
15F
330
1
100
AcDbSymbolTableRecord
100
AcDbBlockTableRecord
  2
Pfeil 1_1
340
0
  0
BLOCK_RECORD
  5
171
330
1
100
AcDbSymbolTableRecord
100
AcDbBlockTableRecord
  2
TWK 1_1
340
0
  0
BLOCK_RECORD
  5
17F
330
1
100
AcDbSymbolTableRecord
100
AcDbBlockTableRecord
  2
TWW 1_1
340
0
  0
BLOCK_RECORD
  5
18F
330
1
100
AcDbSymbolTableRecord
100
AcDbBlockTableRecord
  2
Title Blocks WS-Marketing-FUN
340
0
102
{BLKREFS
331
297
102
}
  0
BLOCK_RECORD
  5
2AC
330
1
100
AcDbSymbolTableRecord
100
AcDbBlockTableRecord
  2
Borders Verkauf Border_85x80
340
0
102
{BLKREFS
331
2B7
102
}
  0
BLOCK_RECORD
  5
3A4
330
1
100
AcDbSymbolTableRecord
100
AcDbBlockTableRecord
  2
*D11
340
0
  0
BLOCK_RECORD
  5
48C
330
1
100
AcDbSymbolTableRecord
100
AcDbBlockTableRecord
  2
*D12
340
0
  0
BLOCK_RECORD
  5
56C
330
1
100
AcDbSymbolTableRecord
100
AcDbBlockTableRecord
  2
*D13
340
0
  0
BLOCK_RECORD
  5
647
330
1
100
AcDbSymbolTableRecord
100
AcDbBlockTableRecord
  2
*D14
340
0
  0
BLOCK_RECORD
  5
727
330
1
100
AcDbSymbolTableRecord
100
AcDbBlockTableRecord
  2
*D15
340
0
  0
BLOCK_RECORD
  5
808
330
1
100
AcDbSymbolTableRecord
100
AcDbBlockTableRecord
  2
*D16
340
0
  0
BLOCK_RECORD
  5
8E8
330
1
100
AcDbSymbolTableRecord
100
AcDbBlockTableRecord
  2
*D17
340
0
  0
BLOCK_RECORD
  5
9C8
330
1
100
AcDbSymbolTableRecord
100
AcDbBlockTableRecord
  2
*D18
340
0
  0
BLOCK_RECORD
  5
AA3
330
1
100
AcDbSymbolTableRecord
100
AcDbBlockTableRecord
  2
*D19
340
0
  0
BLOCK_RECORD
  5
B7E
330
1
100
AcDbSymbolTableRecord
100
AcDbBlockTableRecord
  2
*D20
340
0
  0
BLOCK_RECORD
  5
C5E
330
1
100
AcDbSymbolTableRecord
100
AcDbBlockTableRecord
  2
*D21
340
0
  0
BLOCK_RECORD
  5
D47
330
1
100
AcDbSymbolTableRecord
100
AcDbBlockTableRecord
  2
*D22
340
0
  0
BLOCK_RECORD
  5
E2B
330
1
100
AcDbSymbolTableRecord
100
AcDbBlockTableRecord
  2
*D23
340
0
  0
BLOCK_RECORD
  5
F0B
330
1
100
AcDbSymbolTableRecord
100
AcDbBlockTableRecord
  2
*D24
340
0
  0
BLOCK_RECORD
  5
FEB
330
1
100
AcDbSymbolTableRecord
100
AcDbBlockTableRecord
  2
*D25
340
0
  0
ENDTAB
  0
ENDSEC
  0
SECTION
  2
BLOCKS
  0
BLOCK
  5
76
330
75
100
AcDbEntity
  8
0
100
AcDbBlockBegin
  2
*Model_Space
 70
     0
 10
0.0
 20
0.0
 30
0.0
  3
*Model_Space
  1

  0
ENDBLK
  5
77
330
75
100
AcDbEntity
  8
0
100
AcDbBlockEnd
  0
BLOCK
  5
72
330
71
100
AcDbEntity
 67
     1
  8
0
100
AcDbBlockBegin
  2
*Paper_Space
 70
     0
 10
0.0
 20
0.0
 30
0.0
  3
*Paper_Space
  1

  0
ENDBLK
  5
73
330
71
100
AcDbEntity
 67
     1
  8
0
100
AcDbBlockEnd
  0
BLOCK
  5
7A
330
79
100
AcDbEntity
 67
     1
  8
0
100
AcDbBlockBegin
  2
*Paper_Space0
 70
     0
 10
0.0
 20
0.0
 30
0.0
  3
*Paper_Space0
  1

  0
ENDBLK
  5
7B
330
79
100
AcDbEntity
 67
     1
  8
0
100
AcDbBlockEnd
  0
BLOCK
  5
12A
330
129
100
AcDbEntity
  8
0
100
AcDbBlockBegin
  2
DatumFilled45
 70
     0
 10
0.0
 20
0.0
 30
0.0
  3
DatumFilled45
  1

  0
POLYLINE
  5
12C
330
129
100
AcDbEntity
  8
0
 62
     0
100
AcDb2dPolyline
 66
     1
 10
0.0
 20
0.0
 30
0.0
 70
   128
  0
VERTEX
  5
12D
330
12C
100
AcDbEntity
  8
0
 62
     0
100
AcDbVertex
100
AcDb2dVertex
 10
0.0
 20
1.0
 30
0.0
  0
VERTEX
  5
12E
330
12C
100
AcDbEntity
  8
0
 62
     0
100
AcDbVertex
100
AcDb2dVertex
 10
0.0
 20
-1.0
 30
0.0
  0
VERTEX
  5
130
330
12C
100
AcDbEntity
  8
0
 62
     0
100
AcDbVertex
100
AcDb2dVertex
 10
-1.0
 20
0.0
 30
0.0
  0
VERTEX
  5
131
330
12C
100
AcDbEntity
  8
0
 62
     0
100
AcDbVertex
100
AcDb2dVertex
 10
0.0
 20
1.0
 30
0.0
  0
SEQEND
  5
12F
330
12C
100
AcDbEntity
  8
0
 62
     0
  0
SOLID
  5
132
330
129
100
AcDbEntity
  8
0
 62
     0
100
AcDbTrace
 10
0.0
 20
1.0
 30
0.0
 11
0.0
 21
-1.0
 31
0.0
 12
-1.0
 22
0.0
 32
0.0
 13
0.0
 23
1.0
 33
0.0
  0
ENDBLK
  5
12B
330
129
100
AcDbEntity
  8
0
100
AcDbBlockEnd
  0
BLOCK
  5
139
330
134
100
AcDbEntity
  8
0
100
AcDbBlockBegin
  2
_Closed
 70
     0
 10
0.0
 20
0.0
 30
0.0
  3
_Closed
  1

  0
LINE
  5
135
330
134
100
AcDbEntity
  8
0
  6
ByBlock
 62
     0
370
    -2
100
AcDbLine
 10
-1.0
 20
0.1666666666666666
 30
0.0
 11
0.0
 21
0.0
 31
0.0
  0
LINE
  5
136
330
134
100
AcDbEntity
  8
0
  6
ByBlock
 62
     0
370
    -2
100
AcDbLine
 10
0.0
 20
0.0
 30
0.0
 11
-1.0
 21
-0.1666666666666666
 31
0.0
  0
LINE
  5
137
330
134
100
AcDbEntity
  8
0
  6
ByBlock
 62
     0
370
    -2
100
AcDbLine
 10
-1.0
 20
0.1666666666666666
 30
0.0
 11
-1.0
 21
-0.1666666666666666
 31
0.0
  0
LINE
  5
138
330
134
100
AcDbEntity
  8
0
  6
ByBlock
 62
     0
370
    -2
100
AcDbLine
 10
0.0
 20
0.0
 30
0.0
 11
-1.0
 21
0.0
 31
0.0
  0
ENDBLK
  5
13A
330
134
100
AcDbEntity
  8
0
100
AcDbBlockEnd
  0
BLOCK
  5
144
330
143
100
AcDbEntity
  8
0
100
AcDbBlockBegin
  2
Index
 70
     2
 10
0.0
 20
0.0
 30
0.0
  3
Index
  1

  0
CIRCLE
  5
146
330
143
100
AcDbEntity
  8
Sketch Geometry(ISO)
  6
Continuous
 62
     7
370
    25
100
AcDbCircle
 10
0.0
 20
0.0
 30
0.0
 40
2.5
  0
ATTDEF
  5
147
330
143
100
AcDbEntity
  8
Symbols(ISO)
 62
     7
100
AcDbText
 10
-0.4366473281326594
 20
-1.25
 30
0.0
 40
2.5
  1
 
 41
0.899999976158142
  7
Text__3.5mm
 72
     1
 11
0.0
 21
0.0
 31
0.0
100
AcDbAttributeDefinition
  3
<Enter Prompt for Field>
  2
<Enter_Prompt_for_Field>
 70
     0
 74
     2
  0
ENDBLK
  5
145
330
143
100
AcDbEntity
  8
0
100
AcDbBlockEnd
  0
BLOCK
  5
14B
330
14A
100
AcDbEntity
  8
0
100
AcDbBlockBegin
  2
AIR
 70
     0
 10
0.0
 20
0.0
 30
0.0
  3
AIR
  1

  0
LINE
  5
14D
330
14A
100
AcDbEntity
  8
Sketch Geometry(ISO)
 62
     7
370
    70
100
AcDbLine
 10
-7.0
 20
6.000000000000048
 30
0.0
 11
6.999999999999992
 21
6.000000000000013
 31
0.0
  0
LINE
  5
14E
330
14A
100
AcDbEntity
  8
Sketch Geometry(ISO)
 62
     7
370
    70
100
AcDbLine
 10
10.00000000000001
 20
3.000000000000006
 30
0.0
 11
10.00000000000001
 21
-2.999999999999971
 31
0.0
  0
LINE
  5
14F
330
14A
100
AcDbEntity
  8
Sketch Geometry(ISO)
 62
     7
370
    70
100
AcDbLine
 10
6.999999999999992
 20
-5.999999999999976
 30
0.0
 11
-7.0
 21
-6.000000000000013
 31
0.0
  0
LINE
  5
150
330
14A
100
AcDbEntity
  8
Sketch Geometry(ISO)
 62
     7
370
    70
100
AcDbLine
 10
-10.00000000000001
 20
-2.999999999999971
 30
0.0
 11
-10.0
 21
3.000000000000006
 31
0.0
  0
ARC
  5
151
330
14A
100
AcDbEntity
  8
Sketch Geometry(ISO)
 62
     7
370
    70
100
AcDbCircle
 10
6.999999999999992
 20
3.000000000000006
 30
0.0
 40
3.0
100
AcDbArc
 50
0.0
 51
90.0
  0
ARC
  5
152
330
14A
100
AcDbEntity
  8
Sketch Geometry(ISO)
 62
     7
370
    70
100
AcDbCircle
 10
6.999999999999992
 20
-2.999999999999971
 30
0.0
 40
3.0
100
AcDbArc
 50
270.0
 51
0.0
  0
ARC
  5
153
330
14A
100
AcDbEntity
  8
Sketch Geometry(ISO)
 62
     7
370
    70
100
AcDbCircle
 10
-7.0
 20
-2.999999999999971
 30
0.0
 40
3.0
100
AcDbArc
 50
180.0
 51
270.0
  0
ARC
  5
154
330
14A
100
AcDbEntity
  8
Sketch Geometry(ISO)
 62
     7
370
    70
100
AcDbCircle
 10
-7.0
 20
3.000000000000006
 30
0.0
 40
3.0
100
AcDbArc
 50
90.0
 51
180.0
  0
MTEXT
  5
155
330
14A
100
AcDbEntity
  8
Symbols(ISO)
 62
     7
100
AcDbMText
 10
0.0
 20
0.0
 30
0.0
 40
6.99999988079071
 41
16.10195276430038
 71
     5
 72
     1
  1
\fArial|b0|i0;\H7.0000;AIR
  7
Text__3.5mm
 73
     1
 44
1.0
1001
ACAD
1000
MTEXTBEGIN
1070
    73
1070
     1
1070
    44
1040
1.0
1070
    74
1070
     0
1000
MTEXTEND
  0
ENDBLK
  5
14C
330
14A
100
AcDbEntity
  8
0
100
AcDbBlockEnd
  0
BLOCK
  5
158
330
157
100
AcDbEntity
  8
0
100
AcDbBlockBegin
  2
Zertifizierungszeichnung
 70
     0
 10
0.0
 20
0.0
 30
0.0
  3
Zertifizierungszeichnung
  1

  0
LINE
  5
15A
330
157
100
AcDbEntity
  8
Sketch Geometry(ISO)
100
AcDbLine
 10
-36.13491376407675
 20
6.581399957023617
 30
0.0
 11
36.13491376407676
 21
6.581399957023617
 31
0.0
  0
LINE
  5
15B
330
157
100
AcDbEntity
  8
Sketch Geometry(ISO)
100
AcDbLine
 10
36.13491376407676
 20
6.581399957023617
 30
0.0
 11
36.13491376407676
 21
-6.581399957023633
 31
0.0
  0
LINE
  5
15C
330
157
100
AcDbEntity
  8
Sketch Geometry(ISO)
100
AcDbLine
 10
36.13491376407676
 20
-6.581399957023633
 30
0.0
 11
-36.13491376407675
 21
-6.581399957023633
 31
0.0
  0
LINE
  5
15D
330
157
100
AcDbEntity
  8
Sketch Geometry(ISO)
100
AcDbLine
 10
-36.13491376407675
 20
-6.581399957023633
 30
0.0
 11
-36.13491376407675
 21
6.581399957023617
 31
0.0
  0
MTEXT
  5
15E
330
157
100
AcDbEntity
  8
Symbols(ISO)
 62
     7
100
AcDbMText
 10
-34.13997890763035
 20
-0.338671892615654
 30
0.0
 40
3.000000119209288
 41
0.0
 71
     4
 72
     1
  1
\fTahoma|b0|i0;\H3.0000;Drawing for certification purposes only!\PDrawing not for manufacturing purposes!
  7
Text__3.5mm
 73
     2
 44
0.9442214369773862
1001
ACAD
1000
MTEXTBEGIN
1070
    73
1070
     2
1070
    44
1040
0.9442214369773862
1070
    74
1070
     0
1000
MTEXTEND
  0
ENDBLK
  5
159
330
157
100
AcDbEntity
  8
0
100
AcDbBlockEnd
  0
BLOCK
  5
160
330
15F
100
AcDbEntity
  8
0
100
AcDbBlockBegin
  2
Pfeil 1_1
 70
     0
 10
0.0
 20
0.0
 30
0.0
  3
Pfeil 1_1
  1

  0
LINE
  5
162
102
{ACAD_REACTORS
330
169
102
}
330
15F
100
AcDbEntity
  8
0
100
AcDbLine
 10
-2.327499999999814
 20
0.6650000000002621
 30
0.0
 11
0.0
 21
-2.659999999999874
 31
0.0
  0
LINE
  5
163
102
{ACAD_REACTORS
330
169
102
}
330
15F
100
AcDbEntity
  8
0
100
AcDbLine
 10
-0.664999999999978
 20
0.6650000000002621
 30
0.0
 11
-2.327499999999814
 21
0.6650000000002621
 31
0.0
  0
LINE
  5
164
102
{ACAD_REACTORS
330
169
102
}
330
15F
100
AcDbEntity
  8
0
100
AcDbLine
 10
-0.664999999999978
 20
2.659999999999858
 30
0.0
 11
-0.664999999999978
 21
0.6650000000002621
 31
0.0
  0
LINE
  5
165
102
{ACAD_REACTORS
330
169
102
}
330
15F
100
AcDbEntity
  8
0
100
AcDbLine
 10
0.6649999999998713
 20
2.659999999999858
 30
0.0
 11
-0.664999999999978
 21
2.659999999999858
 31
0.0
  0
LINE
  5
166
102
{ACAD_REACTORS
330
169
102
}
330
15F
100
AcDbEntity
  8
0
100
AcDbLine
 10
0.6649999999998713
 20
0.6650000000002621
 30
0.0
 11
0.6649999999998713
 21
2.659999999999858
 31
0.0
  0
LINE
  5
167
102
{ACAD_REACTORS
330
169
102
}
330
15F
100
AcDbEntity
  8
0
100
AcDbLine
 10
2.327499999999833
 20
0.6650000000002621
 30
0.0
 11
0.6649999999998713
 21
0.6650000000002621
 31
0.0
  0
LINE
  5
168
102
{ACAD_REACTORS
330
169
102
}
330
15F
100
AcDbEntity
  8
0
100
AcDbLine
 10
0.0
 20
-2.659999999999874
 30
0.0
 11
2.327499999999833
 21
0.6650000000002621
 31
0.0
  0
HATCH
  5
169
330
15F
100
AcDbEntity
  8
Hatch
100
AcDbHatch
 10
0.0
 20
0.0
 30
0.0
210
0.0
220
0.0
230
1.0
  2
ANSI31
 70
     0
 71
     1
 91
        1
 92
        1
 93
        7
 72
     1
 10
-2.327499999999814
 20
0.6650000000002621
 11
0.0
 21
-2.659999999999874
 72
     1
 10
0.0
 20
-2.659999999999874
 11
2.327499999999833
 21
0.6650000000002621
 72
     1
 10
2.327499999999833
 20
0.6650000000002621
 11
0.6649999999998713
 21
0.6650000000002621
 72
     1
 10
0.6649999999998713
 20
0.6650000000002621
 11
0.6649999999998713
 21
2.659999999999858
 72
     1
 10
0.6649999999998713
 20
2.659999999999858
 11
-0.6649999999999779
 21
2.659999999999858
 72
     1
 10
-0.664999999999978
 20
2.659999999999858
 11
-0.664999999999978
 21
0.6650000000002621
 72
     1
 10
-0.664999999999978
 20
0.6650000000002621
 11
-2.327499999999814
 21
0.6650000000002621
 97
        7
330
162
330
168
330
167
330
166
330
165
330
164
330
163
 75
     0
 76
     1
 52
0.0
 41
0.0254
 77
     0
 78
     1
 53
45.0
 43
0.0
 44
0.0
 45
-0.0022450640302673
 46
0.0022450640302673
 79
     0
 98
        1
 10
0.0
 20
0.0
  0
LINE
  5
16A
330
15F
100
AcDbEntity
  8
MaSichtkante dünnFliese
370
     5
100
AcDbLine
 10
-2.327499999999814
 20
0.6650000000002621
 30
0.0
 11
-0.664999999999978
 21
0.6650000000002621
 31
0.0
  0
LINE
  5
16B
330
15F
100
AcDbEntity
  8
MaSichtkante dünnFliese
370
     5
100
AcDbLine
 10
0.0
 20
-2.659999999999874
 30
0.0
 11
-2.327499999999814
 21
0.6650000000002621
 31
0.0
  0
LINE
  5
16C
330
15F
100
AcDbEntity
  8
MaSichtkante dünnFliese
370
     5
100
AcDbLine
 10
-0.664999999999978
 20
0.6650000000002621
 30
0.0
 11
-0.664999999999978
 21
2.659999999999858
 31
0.0
  0
LINE
  5
16D
330
15F
100
AcDbEntity
  8
MaSichtkante dünnFliese
370
     5
100
AcDbLine
 10
-0.664999999999978
 20
2.659999999999858
 30
0.0
 11
0.6649999999998713
 21
2.659999999999858
 31
0.0
  0
LINE
  5
16E
330
15F
100
AcDbEntity
  8
MaSichtkante dünnFliese
370
     5
100
AcDbLine
 10
0.6649999999998713
 20
2.659999999999858
 30
0.0
 11
0.6649999999998713
 21
0.6650000000002621
 31
0.0
  0
LINE
  5
16F
330
15F
100
AcDbEntity
  8
MaSichtkante dünnFliese
370
     5
100
AcDbLine
 10
2.327499999999833
 20
0.6650000000002621
 30
0.0
 11
0.0
 21
-2.659999999999874
 31
0.0
  0
LINE
  5
170
330
15F
100
AcDbEntity
  8
MaSichtkante dünnFliese
370
     5
100
AcDbLine
 10
0.6649999999998713
 20
0.6650000000002621
 30
0.0
 11
2.327499999999833
 21
0.6650000000002621
 31
0.0
  0
ENDBLK
  5
161
330
15F
100
AcDbEntity
  8
0
100
AcDbBlockEnd
  0
BLOCK
  5
172
330
171
100
AcDbEntity
  8
0
100
AcDbBlockBegin
  2
TWK 1_1
 70
     0
 10
0.0
 20
0.0
 30
0.0
  3
TWK 1_1
  1

  0
ARC
  5
174
102
{ACAD_REACTORS
330
176
102
}
330
171
100
AcDbEntity
  8
0
100
AcDbCircle
 10
0.0
 20
-3.324999949999316
 30
0.0
 40
2.659999999999999
100
AcDbArc
 50
148.4507563219767
 51
31.54924367803084
  0
LINE
  5
175
102
{ACAD_REACTORS
330
176
102
}
330
171
100
AcDbEntity
  8
0
100
AcDbLine
 10
2.266827476457925
 20
-1.933204996720494
 30
0.0
 11
-2.266827476458601
 21
-1.933204996720494
 31
0.0
  0
HATCH
  5
176
330
171
100
AcDbEntity
  8
Hatch
100
AcDbHatch
 10
0.0
 20
0.0
 30
0.0
210
0.0
220
0.0
230
1.0
  2
ANSI31
 70
     0
 71
     1
 91
        1
 92
        1
 93
        2
 72
     2
 10
0.0
 20
-3.324999949999316
 40
2.659999999999999
 50
148.4507563219767
 51
391.5492436780309
 73
     1
 72
     1
 10
2.266827476457925
 20
-1.933204996720494
 11
-2.2668274764586
 21
-1.933204996720494
 97
        2
330
174
330
175
 75
     0
 76
     1
 52
0.0
 41
0.0254
 77
     0
 78
     1
 53
45.0
 43
0.0
 44
0.0
 45
-0.0022450640302673
 46
0.0022450640302673
 79
     0
 98
        1
 10
0.0
 20
0.0
  0
LINE
  5
177
330
171
100
AcDbEntity
  8
MaSichtkante dünnFliese
100
AcDbLine
 10
-2.266827476458601
 20
-1.933204996720494
 30
0.0
 11
2.266827476457925
 21
-1.933204996720494
 31
0.0
  0
ARC
  5
178
330
171
100
AcDbEntity
  8
MaSichtkante dünnFliese
100
AcDbCircle
 10
0.0
 20
-3.324999949999316
 30
0.0
 40
2.66
100
AcDbArc
 50
112.0243128370458
 51
67.97568716296805
  0
LINE
  5
179
330
171
100
AcDbEntity
  8
MaSichtkante dünnFliese
100
AcDbLine
 10
-0.9975000000001619
 20
-0.8591139530400582
 30
0.0
 11
-0.9975000000001619
 21
5.985000049999325
 31
0.0
  0
LINE
  5
17A
330
171
100
AcDbEntity
  8
MaSichtkante dünnFliese
100
AcDbLine
 10
0.9974999999994691
 20
5.985000049999325
 30
0.0
 11
0.9974999999994691
 21
-0.8591139530400582
 31
0.0
  0
LINE
  5
17B
330
171
100
AcDbEntity
  8
MaSichtkante dünnFliese
100
AcDbLine
 10
0.9974999999994873
 20
2.827327836441567
 30
0.0
 11
2.194499999999254
 21
2.827327836441567
 31
0.0
  0
LINE
  5
17C
330
171
100
AcDbEntity
  8
MaSichtkante dünnFliese
100
AcDbLine
 10
-0.9975000000001619
 20
5.985000049999325
 30
0.0
 11
0.9974999999994691
 21
5.985000049999325
 31
0.0
  0
LINE
  5
17D
330
171
100
AcDbEntity
  8
MaSichtkante dünnFliese
100
AcDbLine
 10
0.9974999999994691
 20
4.932451836441167
 30
0.0
 11
2.194499999999236
 21
4.932451836441167
 31
0.0
  0
LINE
  5
17E
330
171
100
AcDbEntity
  8
MaSichtkante dünnFliese
100
AcDbLine
 10
0.9974999999994691
 20
0.7222038364418637
 30
0.0
 11
2.194499999999236
 21
0.7222038364418637
 31
0.0
  0
ENDBLK
  5
173
330
171
100
AcDbEntity
  8
0
100
AcDbBlockEnd
  0
BLOCK
  5
180
330
17F
100
AcDbEntity
  8
0
100
AcDbBlockBegin
  2
TWW 1_1
 70
     0
 10
0.0
 20
0.0
 30
0.0
  3
TWW 1_1
  1

  0
LINE
  5
182
102
{ACAD_REACTORS
330
186
102
}
330
17F
100
AcDbEntity
  8
0
100
AcDbLine
 10
0.9974999999997892
 20
4.796219377687264
 30
0.0
 11
-0.9975000000000909
 21
4.796219377687264
 31
0.0
  0
LINE
  5
183
102
{ACAD_REACTORS
330
186
102
}
330
17F
100
AcDbEntity
  8
0
100
AcDbLine
 10
0.9974999999997892
 20
-0.8591139530402891
 30
0.0
 11
0.9974999999997892
 21
4.796219377687264
 31
0.0
  0
ARC
  5
184
102
{ACAD_REACTORS
330
186
102
}
330
17F
100
AcDbEntity
  8
0
100
AcDbCircle
 10
0.0
 20
-3.324999950000062
 30
0.0
 40
2.659999999999827
100
AcDbArc
 50
112.0243128370403
 51
67.9756871629658
  0
LINE
  5
185
102
{ACAD_REACTORS
330
186
102
}
330
17F
100
AcDbEntity
  8
0
100
AcDbLine
 10
-0.9975000000000909
 20
4.796219377687264
 30
0.0
 11
-0.9975000000000909
 21
-0.8591139530402891
 31
0.0
  0
HATCH
  5
186
330
17F
100
AcDbEntity
  8
Hatch
100
AcDbHatch
 10
0.0
 20
0.0
 30
0.0
210
0.0
220
0.0
230
1.0
  2
ANSI31
 70
     0
 71
     1
 91
        1
 92
        1
 93
        4
 72
     1
 10
0.9974999999997892
 20
4.796219377687264
 11
-0.9975000000000909
 21
4.796219377687264
 72
     1
 10
-0.9975000000000909
 20
4.796219377687264
 11
-0.9975000000000909
 21
-0.8591139530402891
 72
     2
 10
0.0
 20
-3.324999950000062
 40
2.659999999999827
 50
112.0243128370403
 51
427.9756871629657
 73
     1
 72
     1
 10
0.9974999999997892
 20
-0.8591139530402891
 11
0.9974999999997892
 21
4.796219377687264
 97
        4
330
182
330
185
330
184
330
183
 75
     0
 76
     1
 52
0.0
 41
0.0254
 77
     0
 78
     1
 53
45.0
 43
0.0
 44
0.0
 45
-0.0022450640302673
 46
0.0022450640302673
 79
     0
 98
        1
 10
0.0
 20
0.0
  0
LINE
  5
187
330
17F
100
AcDbEntity
  8
MaSichtkante dünnFliese
370
    18
100
AcDbLine
 10
0.9974999999997892
 20
4.893283779707643
 30
0.0
 11
2.194499999999734
 21
4.893283779707643
 31
0.0
  0
LINE
  5
188
330
17F
100
AcDbEntity
  8
MaSichtkante dünnFliese
370
    18
100
AcDbLine
 10
0.9974999999997892
 20
0.8330332774134241
 30
0.0
 11
2.194499999999734
 21
0.8330332774134241
 31
0.0
  0
LINE
  5
189
330
17F
100
AcDbEntity
  8
MaSichtkante dünnFliese
370
    18
100
AcDbLine
 10
0.9974999999997892
 20
2.863158528560525
 30
0.0
 11
2.194499999999734
 21
2.863158528560525
 31
0.0
  0
LINE
  5
18A
330
17F
100
AcDbEntity
  8
Sketch Geometry(DIN)
370
    18
100
AcDbLine
 10
0.9974999999997892
 20
5.98500004999991
 30
0.0
 11
0.9974999999997892
 21
-0.8591139530402891
 31
0.0
  0
LINE
  5
18B
330
17F
100
AcDbEntity
  8
MaSichtkante dünnFliese
100
AcDbLine
 10
-0.9975000000000909
 20
5.98500004999991
 30
0.0
 11
0.9974999999997892
 21
5.98500004999991
 31
0.0
  0
LINE
  5
18C
330
17F
100
AcDbEntity
  8
MaSichtkante dünnFliese
100
AcDbLine
 10
-0.9975000000000909
 20
-0.8591139530402891
 30
0.0
 11
-0.9975000000000909
 21
5.98500004999991
 31
0.0
  0
LINE
  5
18D
330
17F
100
AcDbEntity
  8
MaSichtkante dünnFliese
370
    18
100
AcDbLine
 10
-0.9975000000000909
 20
4.796219377687264
 30
0.0
 11
0.9974999999997892
 21
4.796219377687264
 31
0.0
  0
ARC
  5
18E
330
17F
100
AcDbEntity
  8
MaSichtkante dünnFliese
370
    18
100
AcDbCircle
 10
0.0
 20
-3.324999950000062
 30
0.0
 40
2.659999999999829
100
AcDbArc
 50
112.0243128370402
 51
67.9756871629658
  0
ENDBLK
  5
181
330
17F
100
AcDbEntity
  8
0
100
AcDbBlockEnd
  0
BLOCK
  5
190
330
18F
100
AcDbEntity
  8
0
100
AcDbBlockBegin
  2
Title Blocks WS-Marketing-FUN
 70
     2
 10
0.0
 20
0.0
 30
0.0
  3
Title Blocks WS-Marketing-FUN
  1

  0
LINE
  5
192
330
18F
100
AcDbEntity
  8
Visible Edges(DIN)
100
AcDbLine
 10
89.59999999999997
 20
100.2741925130958
 30
0.0
 11
289.6
 21
100.2741925130958
 31
0.0
  0
LINE
  5
193
330
18F
100
AcDbEntity
  8
Visible Edges(DIN)
100
AcDbLine
 10
289.6
 20
100.2741925130958
 30
0.0
 11
289.6
 21
146.0241925130958
 31
0.0
  0
LINE
  5
194
330
18F
100
AcDbEntity
  8
Visible Edges(DIN)
100
AcDbLine
 10
289.6
 20
146.0241925130958
 30
0.0
 11
89.59999999999999
 21
146.0241925130958
 31
0.0
  0
LINE
  5
195
330
18F
100
AcDbEntity
  8
Visible Edges(DIN)
100
AcDbLine
 10
89.59999999999999
 20
146.0241925130958
 30
0.0
 11
89.59999999999997
 21
100.2741925130958
 31
0.0
  0
LINE
  5
196
330
18F
100
AcDbEntity
  8
Visible Edges(DIN)
100
AcDbLine
 10
154.6
 20
100.2741925130958
 30
0.0
 11
154.6
 21
146.0241925130958
 31
0.0
  0
LINE
  5
197
330
18F
100
AcDbEntity
  8
Visible Edges(DIN)
100
AcDbLine
 10
204.6
 20
100.2741925130958
 30
0.0
 11
204.6
 21
146.0241925130958
 31
0.0
  0
LINE
  5
198
330
18F
100
AcDbEntity
  8
Sketch Geometry(ISO)
  6
Continuous
 62
     7
370
    25
100
AcDbLine
 10
109.6
 20
131.0241925130958
 30
0.0
 11
109.6
 21
146.0241925130958
 31
0.0
  0
LINE
  5
199
330
18F
100
AcDbEntity
  8
Sketch Geometry(ISO)
  6
Continuous
 62
     7
370
    25
100
AcDbLine
 10
89.59999999999999
 20
138.5241925130958
 30
0.0
 11
154.6
 21
138.5241925130958
 31
0.0
  0
LINE
  5
19A
330
18F
100
AcDbEntity
  8
Sketch Geometry(ISO)
  6
Continuous
 62
     7
370
    25
100
AcDbLine
 10
89.59999999999999
 20
131.0241925130958
 30
0.0
 11
154.6
 21
131.0241925130958
 31
0.0
  0
LINE
  5
19B
330
18F
100
AcDbEntity
  8
Sketch Geometry(ISO)
  6
Continuous
 62
     7
370
    25
100
AcDbLine
 10
289.6
 20
110.2741925130957
 30
0.0
 11
204.6
 21
110.2741925130957
 31
0.0
  0
LINE
  5
19C
330
18F
100
AcDbEntity
  8
Sketch Geometry(ISO)
  6
Continuous
 62
     7
370
    25
100
AcDbLine
 10
216.6
 20
100.2741925130958
 30
0.0
 11
216.6
 21
110.2741925130957
 31
0.0
  0
LINE
  5
19D
330
18F
100
AcDbEntity
  8
Sketch Geometry(ISO)
  6
Continuous
 62
     7
370
    25
100
AcDbLine
 10
282.1
 20
110.2741925130957
 30
0.0
 11
282.1
 21
100.2741925130958
 31
0.0
  0
LINE
  5
19E
330
18F
100
AcDbEntity
  8
Sketch Geometry(ISO)
  6
Continuous
 62
     7
370
    25
100
AcDbLine
 10
274.6
 20
110.2741925130957
 30
0.0
 11
274.6
 21
100.2741925130958
 31
0.0
  0
LINE
  5
19F
330
18F
100
AcDbEntity
  8
Sketch Geometry(ISO)
  6
Continuous
 62
     7
370
    25
100
AcDbLine
 10
220.7048524866916
 20
143.6616925130957
 30
0.0
 11
226.2048524866916
 21
144.4616925130956
 31
0.0
  0
LINE
  5
1A0
330
18F
100
AcDbEntity
  8
Centerline(ISO)
  6
LONG_DASH_DOTTED
 62
     7
 48
10.16328048706053
370
    18
100
AcDbLine
 10
227.2048524866917
 20
142.4616925130957
 30
0.0
 11
219.7048524866915
 21
142.4616925130957
 31
0.0
  0
LINE
  5
1A1
330
18F
100
AcDbEntity
  8
Sketch Geometry(ISO)
  6
Continuous
 62
     7
370
    25
100
AcDbLine
 10
220.7048524866916
 20
143.6616925130957
 30
0.0
 11
220.7048524866916
 21
141.2616925130957
 31
0.0
  0
LINE
  5
1A2
330
18F
100
AcDbEntity
  8
Sketch Geometry(ISO)
  6
Continuous
 62
     7
370
    25
100
AcDbLine
 10
220.7048524866916
 20
141.2616925130957
 30
0.0
 11
226.2048524866916
 21
140.4616925130957
 31
0.0
  0
LINE
  5
1A3
330
18F
100
AcDbEntity
  8
Centerline(ISO)
  6
LONG_DASH_DOTTED
 62
     7
 48
5.081640243530273
370
    18
100
AcDbLine
 10
227.7048524866915
 20
142.4616925130957
 30
0.0
 11
233.7048524866915
 21
142.4616925130957
 31
0.0
  0
LINE
  5
1A4
330
18F
100
AcDbEntity
  8
Sketch Geometry(ISO)
  6
Continuous
 62
     7
370
    25
100
AcDbLine
 10
226.2048524866916
 20
144.4616925130956
 30
0.0
 11
226.2048524866916
 21
140.4616925130957
 31
0.0
  0
CIRCLE
  5
1A5
330
18F
100
AcDbEntity
  8
Sketch Geometry(ISO)
  6
Continuous
 62
     7
370
    25
100
AcDbCircle
 10
230.7048524866915
 20
142.4616925130957
 30
0.0
 40
1.199999999999999
  0
LINE
  5
1A6
330
18F
100
AcDbEntity
  8
Centerline(ISO)
  6
LONG_DASH_DOTTED
 62
     7
 48
5.081640243530273
370
    18
100
AcDbLine
 10
230.7048524866914
 20
145.4616925130956
 30
0.0
 11
230.7048524866914
 21
139.4616925130957
 31
0.0
  0
CIRCLE
  5
1A7
330
18F
100
AcDbEntity
  8
Sketch Geometry(ISO)
  6
Continuous
 62
     7
370
    25
100
AcDbCircle
 10
230.7048524866915
 20
142.4616925130957
 30
0.0
 40
2.0
  0
LINE
  5
1A8
330
18F
100
AcDbEntity
  8
Sketch Geometry(ISO)
  6
Continuous
 62
     7
370
    25
100
AcDbLine
 10
134.6
 20
131.0241925130958
 30
0.0
 11
134.6
 21
146.0241925130958
 31
0.0
  0
LINE
  5
1A9
330
18F
100
AcDbEntity
  8
Sketch Geometry(ISO)
  6
Continuous
 62
     7
370
    35
100
AcDbLine
 10
204.6
 20
138.5241925130958
 30
0.0
 11
289.6
 21
138.5241925130958
 31
0.0
  0
LINE
  5
1AA
330
18F
100
AcDbEntity
  8
Sketch Geometry(ISO)
  6
Continuous
 62
     7
370
    25
100
AcDbLine
 10
204.6
 20
131.0241925130958
 30
0.0
 11
289.6
 21
131.0241925130958
 31
0.0
  0
LINE
  5
1AB
330
18F
100
AcDbEntity
  8
Sketch Geometry(ISO)
  6
Continuous
 62
     7
370
    25
100
AcDbLine
 10
247.1
 20
146.0241925130956
 30
0.0
 11
247.1
 21
131.0241925130958
 31
0.0
  0
LINE
  5
1AC
330
18F
100
AcDbEntity
  8
Sketch Geometry(ISO)
  6
Continuous
 62
     7
370
    25
100
AcDbLine
 10
263.6
 20
110.2741925130957
 30
0.0
 11
263.6
 21
100.2741925130958
 31
0.0
  0
LINE
  5
1AD
330
18F
100
AcDbEntity
  8
Sketch Geometry(DIN)
  6
Continuous
 62
     7
370
    18
100
AcDbLine
 10
104.8419687591776
 20
126.4474596613701
 30
0.0
 11
104.708542955785
 21
126.4474596613701
 31
0.0
  0
LINE
  5
1AE
330
18F
100
AcDbEntity
  8
Sketch Geometry(DIN)
  6
Continuous
 62
     7
370
    18
100
AcDbLine
 10
104.8419687591776
 20
125.9871380380973
 30
0.0
 11
104.8419687591776
 21
126.4474596613701
 31
0.0
  0
LINE
  5
1AF
330
18F
100
AcDbEntity
  8
Sketch Geometry(DIN)
  6
Continuous
 62
     7
370
    18
100
AcDbLine
 10
105.032169470591
 20
126.4492027126165
 30
0.0
 11
105.032169470591
 21
125.9888377298602
 31
0.0
  0
LINE
  5
1B0
330
18F
100
AcDbEntity
  8
Sketch Geometry(DIN)
  6
Continuous
 62
     7
370
    18
100
AcDbLine
 10
106.9469156010504
 20
125.9888377298602
 30
0.0
 11
106.9469156010504
 21
126.6493414177054
 31
0.0
  0
LINE
  5
1B1
330
18F
100
AcDbEntity
  8
Sketch Geometry(DIN)
  6
Continuous
 62
     7
370
    18
100
AcDbLine
 10
105.032169470591
 20
125.9888377298602
 30
0.0
 11
106.9469156010504
 21
125.9888377298602
 31
0.0
  0
LINE
  5
1B2
330
18F
100
AcDbEntity
  8
Sketch Geometry(DIN)
  6
Continuous
 62
     7
370
    18
100
AcDbLine
 10
102.420185497654
 20
128.0753567911394
 30
0.0
 11
102.420185497654
 21
127.6550386275736
 31
0.0
  0
LINE
  5
1B3
330
18F
100
AcDbEntity
  8
Sketch Geometry(DIN)
  6
Continuous
 62
     7
370
    18
100
AcDbLine
 10
103.5743629236721
 20
128.0753567911394
 30
0.0
 11
102.420185497654
 21
128.0753567911394
 31
0.0
  0
LINE
  5
1B4
330
18F
100
AcDbEntity
  8
Sketch Geometry(DIN)
  6
Continuous
 62
     7
370
    18
100
AcDbLine
 10
103.4275910711816
 20
127.1946823167133
 30
0.0
 11
103.4275910711816
 21
127.6550386275736
 31
0.0
  0
LINE
  5
1B5
330
18F
100
AcDbEntity
  8
Sketch Geometry(DIN)
  6
Continuous
 62
     7
370
    18
100
AcDbLine
 10
103.4275910711816
 20
127.6550386275736
 30
0.0
 11
103.5743629236721
 21
127.6550386275736
 31
0.0
  0
LINE
  5
1B6
330
18F
100
AcDbEntity
  8
Sketch Geometry(DIN)
  6
Continuous
 62
     7
370
    18
100
AcDbLine
 10
103.5743629236721
 20
127.6550386275736
 30
0.0
 11
103.5743629236721
 21
128.0753567911394
 31
0.0
  0
LINE
  5
1B7
330
18F
100
AcDbEntity
  8
Sketch Geometry(DIN)
  6
Continuous
 62
     7
370
    18
100
AcDbLine
 10
103.7344894971573
 20
128.0753567911394
 30
0.0
 11
103.7344894971573
 21
127.6550386275736
 31
0.0
  0
LINE
  5
1B8
330
18F
100
AcDbEntity
  8
Sketch Geometry(DIN)
  6
Continuous
 62
     7
370
    18
100
AcDbLine
 10
103.8679153005499
 20
127.6550386275736
 30
0.0
 11
103.4275910711816
 21
127.1946823167133
 31
0.0
  0
LINE
  5
1B9
330
18F
100
AcDbEntity
  8
Sketch Geometry(DIN)
  6
Continuous
 62
     7
370
    18
100
AcDbLine
 10
103.7344894971573
 20
127.6550386275736
 30
0.0
 11
103.8679153005499
 21
127.6550386275736
 31
0.0
  0
LINE
  5
1BA
330
18F
100
AcDbEntity
  8
Sketch Geometry(DIN)
  6
Continuous
 62
     7
370
    18
100
AcDbLine
 10
104.0880947590273
 20
127.1813622833059
 30
0.0
 11
104.541765037493
 21
127.6616986442773
 31
0.0
  0
LINE
  5
1BB
330
18F
100
AcDbEntity
  8
Sketch Geometry(DIN)
  6
Continuous
 62
     7
370
    18
100
AcDbLine
 10
104.541765037493
 20
127.6616986442773
 30
0.0
 11
104.7152029724891
 21
127.6616986442773
 31
0.0
  0
LINE
  5
1BC
330
18F
100
AcDbEntity
  8
Sketch Geometry(DIN)
  6
Continuous
 62
     7
370
    18
100
AcDbLine
 10
104.7152029724891
 20
127.6616986442773
 30
0.0
 11
104.7152029724891
 21
128.0753567911394
 31
0.0
  0
LINE
  5
1BD
330
18F
100
AcDbEntity
  8
Sketch Geometry(DIN)
  6
Continuous
 62
     7
370
    18
100
AcDbLine
 10
104.7152029724891
 20
128.0753567911394
 30
0.0
 11
103.7344894971573
 21
128.0753567911394
 31
0.0
  0
LINE
  5
1BE
330
18F
100
AcDbEntity
  8
Sketch Geometry(DIN)
  6
Continuous
 62
     7
370
    18
100
AcDbLine
 10
106.466544552492
 20
126.8695208761829
 30
0.0
 11
106.466544552492
 21
127.2230827785689
 31
0.0
  0
LINE
  5
1BF
330
18F
100
AcDbEntity
  8
Sketch Geometry(DIN)
  6
Continuous
 62
     7
370
    18
100
AcDbLine
 10
106.5065913716826
 20
126.4492027126165
 30
0.0
 11
106.0462697484097
 21
126.4492027126165
 31
0.0
  0
LINE
  5
1C0
330
18F
100
AcDbEntity
  8
Sketch Geometry(DIN)
  6
Continuous
 62
     7
370
    18
100
AcDbLine
 10
106.0462697484097
 20
126.4492027126165
 30
0.0
 11
106.0462697484097
 21
126.8695208761829
 31
0.0
  0
LINE
  5
1C1
330
18F
100
AcDbEntity
  8
Sketch Geometry(DIN)
  6
Continuous
 62
     7
370
    18
100
AcDbLine
 10
106.0462697484097
 20
126.8695208761829
 30
0.0
 11
106.466544552492
 21
126.8695208761829
 31
0.0
  0
LINE
  5
1C2
330
18F
100
AcDbEntity
  8
Sketch Geometry(DIN)
  6
Continuous
 62
     7
370
    18
100
AcDbLine
 10
106.5065913716826
 20
127.4299161879484
 30
0.0
 11
106.9469156010504
 21
127.4299161879484
 31
0.0
  0
LINE
  5
1C3
330
18F
100
AcDbEntity
  8
Sketch Geometry(DIN)
  6
Continuous
 62
     7
370
    18
100
AcDbLine
 10
106.466544552492
 20
127.2230827785689
 30
0.0
 11
106.0462697484097
 21
127.2230827785689
 31
0.0
  0
LINE
  5
1C4
330
18F
100
AcDbEntity
  8
Sketch Geometry(DIN)
  6
Continuous
 62
     7
370
    18
100
AcDbLine
 10
106.5065913716826
 20
127.6500869745293
 30
0.0
 11
106.5065913716826
 21
127.4299161879484
 31
0.0
  0
LINE
  5
1C5
330
18F
100
AcDbEntity
  8
Sketch Geometry(DIN)
  6
Continuous
 62
     7
370
    18
100
AcDbLine
 10
106.0462697484097
 20
127.6500869745293
 30
0.0
 11
106.5065913716826
 21
127.6500869745293
 31
0.0
  0
LINE
  5
1C6
330
18F
100
AcDbEntity
  8
Sketch Geometry(DIN)
  6
Continuous
 62
     7
370
    18
100
AcDbLine
 10
106.0462697484097
 20
127.2230827785689
 30
0.0
 11
106.0462697484097
 21
127.6500869745293
 31
0.0
  0
LINE
  5
1C7
330
18F
100
AcDbEntity
  8
Sketch Geometry(DIN)
  6
Continuous
 62
     7
370
    18
100
AcDbLine
 10
105.2323081756798
 20
126.4492027126165
 30
0.0
 11
105.032169470591
 21
126.4492027126165
 31
0.0
  0
LINE
  5
1C8
330
18F
100
AcDbEntity
  8
Sketch Geometry(DIN)
  6
Continuous
 62
     7
370
    18
100
AcDbLine
 10
105.2323081756798
 20
127.6500869745293
 30
0.0
 11
105.2323081756798
 21
126.4492027126165
 31
0.0
  0
LINE
  5
1C9
330
18F
100
AcDbEntity
  8
Sketch Geometry(DIN)
  6
Continuous
 62
     7
370
    18
100
AcDbLine
 10
106.9469156010504
 20
127.4299161879484
 30
0.0
 11
106.9469156010504
 21
128.0770651547993
 31
0.0
  0
LINE
  5
1CA
330
18F
100
AcDbEntity
  8
Sketch Geometry(DIN)
  6
Continuous
 62
     7
370
    18
100
AcDbLine
 10
106.9469156010504
 20
128.0770651547993
 30
0.0
 11
105.032169470591
 21
128.0770651547993
 31
0.0
  0
LINE
  5
1CB
330
18F
100
AcDbEntity
  8
Sketch Geometry(DIN)
  6
Continuous
 62
     7
370
    18
100
AcDbLine
 10
105.032169470591
 20
128.0770651547993
 30
0.0
 11
105.032169470591
 21
127.6500869745293
 31
0.0
  0
LINE
  5
1CC
330
18F
100
AcDbEntity
  8
Sketch Geometry(DIN)
  6
Continuous
 62
     7
370
    18
100
AcDbLine
 10
102.0646377309122
 20
124.5375774404595
 30
0.0
 11
102.0646377309122
 21
129.533943808766
 31
0.0
  0
LINE
  5
1CD
330
18F
100
AcDbEntity
  8
Sketch Geometry(DIN)
  6
Continuous
 62
     7
370
    18
100
AcDbLine
 10
102.2772726392172
 20
124.5367536102683
 30
0.0
 11
107.2676023428579
 21
124.5375774404595
 31
0.0
  0
LINE
  5
1CE
330
18F
100
AcDbEntity
  8
Sketch Geometry(DIN)
  6
Continuous
 62
     7
370
    18
100
AcDbLine
 10
107.2676023428579
 20
124.5375774404595
 30
0.0
 11
107.2676023428579
 21
129.533943808766
 31
0.0
  0
LINE
  5
1CF
330
18F
100
AcDbEntity
  8
Sketch Geometry(DIN)
  6
Continuous
 62
     7
370
    18
100
AcDbLine
 10
107.2676023428579
 20
129.533943808766
 30
0.0
 11
102.2772726392172
 21
129.533943808766
 31
0.0
  0
LINE
  5
1D0
330
18F
100
AcDbEntity
  8
Sketch Geometry(DIN)
  6
Continuous
 62
     7
370
    18
100
AcDbLine
 10
104.708542955785
 20
126.4474596613701
 30
0.0
 11
104.0880947590273
 21
127.1813622833059
 31
0.0
  0
LINE
  5
1D1
330
18F
100
AcDbEntity
  8
Sketch Geometry(DIN)
  6
Continuous
 62
     7
370
    18
100
AcDbLine
 10
103.7344894971573
 20
125.9871380380973
 30
0.0
 11
104.8419687591776
 21
125.9871380380973
 31
0.0
  0
LINE
  5
1D2
330
18F
100
AcDbEntity
  8
Sketch Geometry(DIN)
  6
Continuous
 62
     7
370
    18
100
AcDbLine
 10
103.8679153005499
 20
126.4474596613701
 30
0.0
 11
103.7344894971573
 21
126.4474596613701
 31
0.0
  0
LINE
  5
1D3
330
18F
100
AcDbEntity
  8
Sketch Geometry(DIN)
  6
Continuous
 62
     7
370
    18
100
AcDbLine
 10
103.7344894971573
 20
126.4474596613701
 30
0.0
 11
103.7344894971573
 21
125.9871380380973
 31
0.0
  0
LINE
  5
1D4
330
18F
100
AcDbEntity
  8
Sketch Geometry(DIN)
  6
Continuous
 62
     7
370
    18
100
AcDbLine
 10
103.5810229403762
 20
125.9871380380973
 30
0.0
 11
103.5810229403762
 21
126.4474596613701
 31
0.0
  0
LINE
  5
1D5
330
18F
100
AcDbEntity
  8
Sketch Geometry(DIN)
  6
Continuous
 62
     7
370
    18
100
AcDbLine
 10
103.4275910711816
 20
126.9478367757306
 30
0.0
 11
103.8679153005499
 21
126.4474596613701
 31
0.0
  0
LINE
  5
1D6
330
18F
100
AcDbEntity
  8
Sketch Geometry(DIN)
  6
Continuous
 62
     7
370
    18
100
AcDbLine
 10
103.5810229403762
 20
126.4474596613701
 30
0.0
 11
103.4275910711816
 21
126.4474596613701
 31
0.0
  0
LINE
  5
1D7
330
18F
100
AcDbEntity
  8
Sketch Geometry(DIN)
  6
Continuous
 62
     7
370
    18
100
AcDbLine
 10
103.4275910711816
 20
126.4474596613701
 30
0.0
 11
103.4275910711816
 21
126.9478367757306
 31
0.0
  0
LINE
  5
1D8
330
18F
100
AcDbEntity
  8
Sketch Geometry(DIN)
  6
Continuous
 62
     7
370
    18
100
AcDbLine
 10
102.420185497654
 20
125.9871380380973
 30
0.0
 11
103.5810229403762
 21
125.9871380380973
 31
0.0
  0
LINE
  5
1D9
330
18F
100
AcDbEntity
  8
Sketch Geometry(DIN)
  6
Continuous
 62
     7
370
    18
100
AcDbLine
 10
102.420185497654
 20
126.4474596613701
 30
0.0
 11
102.420185497654
 21
125.9871380380973
 31
0.0
  0
LINE
  5
1DA
330
18F
100
AcDbEntity
  8
Sketch Geometry(DIN)
  6
Continuous
 62
     7
370
    18
100
AcDbLine
 10
102.6403649561314
 20
126.4474596613701
 30
0.0
 11
102.420185497654
 21
126.4474596613701
 31
0.0
  0
LINE
  5
1DB
330
18F
100
AcDbEntity
  8
Sketch Geometry(DIN)
  6
Continuous
 62
     7
370
    18
100
AcDbLine
 10
102.6403649561314
 20
127.6550386275736
 30
0.0
 11
102.6403649561314
 21
126.4474596613701
 31
0.0
  0
LINE
  5
1DC
330
18F
100
AcDbEntity
  8
Sketch Geometry(DIN)
  6
Continuous
 62
     7
370
    18
100
AcDbLine
 10
102.2772726392172
 20
129.533943808766
 30
0.0
 11
102.2772726392172
 21
124.5367536102683
 31
0.0
  0
LINE
  5
1DD
330
18F
100
AcDbEntity
  8
Sketch Geometry(DIN)
  6
Continuous
 62
     7
370
    18
100
AcDbLine
 10
102.420185497654
 20
127.6550386275736
 30
0.0
 11
102.6403649561314
 21
127.6550386275736
 31
0.0
  0
LINE
  5
1DE
330
18F
100
AcDbEntity
  8
Sketch Geometry(DIN)
  6
Continuous
 62
     7
370
    18
100
AcDbLine
 10
101.0907923978064
 20
127.656746991233
 30
0.0
 11
101.2509102993947
 21
127.656746991233
 31
0.0
  0
LINE
  5
1DF
330
18F
100
AcDbEntity
  8
Sketch Geometry(DIN)
  6
Continuous
 62
     7
370
    18
100
AcDbLine
 10
101.0907923978064
 20
128.0770651547993
 30
0.0
 11
101.0907923978064
 21
127.656746991233
 31
0.0
  0
LINE
  5
1E0
330
18F
100
AcDbEntity
  8
Sketch Geometry(DIN)
  6
Continuous
 62
     7
370
    18
100
AcDbLine
 10
101.6845398244714
 20
127.656746991233
 30
0.0
 11
101.9113792996529
 21
127.656746991233
 31
0.0
  0
LINE
  5
1E1
330
18F
100
AcDbEntity
  8
Sketch Geometry(DIN)
  6
Continuous
 62
     7
370
    18
100
AcDbLine
 10
101.9113792996529
 20
128.0770651547993
 30
0.0
 11
101.0907923978064
 21
128.0770651547993
 31
0.0
  0
LINE
  5
1E2
330
18F
100
AcDbEntity
  8
Sketch Geometry(DIN)
  6
Continuous
 62
     7
370
    18
100
AcDbLine
 10
101.9113792996529
 20
127.656746991233
 30
0.0
 11
101.9113792996529
 21
128.0770651547993
 31
0.0
  0
LINE
  5
1E3
330
18F
100
AcDbEntity
  8
Sketch Geometry(DIN)
  6
Continuous
 62
     7
370
    18
100
AcDbLine
 10
97.58174406558607
 20
127.6521422140591
 30
0.0
 11
97.58174406558607
 21
128.0791117224321
 31
0.0
  0
LINE
  5
1E4
330
18F
100
AcDbEntity
  8
Sketch Geometry(DIN)
  6
Continuous
 62
     7
370
    18
100
AcDbLine
 10
98.25965225020826
 20
127.6715672627784
 30
0.0
 11
98.08617962762555
 21
126.9844061643244
 31
0.0
  0
LINE
  5
1E5
330
18F
100
AcDbEntity
  8
Sketch Geometry(DIN)
  6
Continuous
 62
     7
370
    18
100
AcDbLine
 10
98.08617962762555
 20
126.9844061643244
 30
0.0
 11
98.43978488949517
 21
126.9844061643244
 31
0.0
  0
LINE
  5
1E6
330
18F
100
AcDbEntity
  8
Sketch Geometry(DIN)
  6
Continuous
 62
     7
370
    18
100
AcDbLine
 10
98.43978488949517
 20
126.9844061643244
 30
0.0
 11
98.25965225020826
 21
127.6715672627784
 31
0.0
  0
LINE
  5
1E7
330
18F
100
AcDbEntity
  8
Sketch Geometry(DIN)
  6
Continuous
 62
     7
370
    18
100
AcDbLine
 10
97.58174406558607
 20
128.0791117224321
 30
0.0
 11
99.11619283597985
 21
128.0791117224321
 31
0.0
  0
LINE
  5
1E8
330
18F
100
AcDbEntity
  8
Sketch Geometry(DIN)
  6
Continuous
 62
     7
370
    18
100
AcDbLine
 10
99.11619283597985
 20
127.6521422140591
 30
0.0
 11
98.94272021339665
 21
127.6521422140591
 31
0.0
  0
LINE
  5
1E9
330
18F
100
AcDbEntity
  8
Sketch Geometry(DIN)
  6
Continuous
 62
     7
370
    18
100
AcDbLine
 10
99.11619283597985
 20
128.0791117224321
 30
0.0
 11
99.11619283597985
 21
127.6587935588663
 31
0.0
  0
LINE
  5
1EA
330
18F
100
AcDbEntity
  8
Sketch Geometry(DIN)
  6
Continuous
 62
     7
370
    18
100
AcDbLine
 10
98.94272021339665
 20
127.6521422140591
 30
0.0
 11
99.30297682007379
 21
126.4512492802498
 31
0.0
  0
LINE
  5
1EB
330
18F
100
AcDbEntity
  8
Sketch Geometry(DIN)
  6
Continuous
 62
     7
370
    18
100
AcDbLine
 10
99.30297682007379
 20
126.4512492802498
 30
0.0
 11
99.49645550845856
 21
126.4512492802498
 31
0.0
  0
LINE
  5
1EC
330
18F
100
AcDbEntity
  8
Sketch Geometry(DIN)
  6
Continuous
 62
     7
370
    18
100
AcDbLine
 10
99.49645550845856
 20
126.4512492802498
 30
0.0
 11
99.49645550845856
 21
125.990927656977
 31
0.0
  0
LINE
  5
1ED
330
18F
100
AcDbEntity
  8
Sketch Geometry(DIN)
  6
Continuous
 62
     7
370
    18
100
AcDbLine
 10
99.49645550845856
 20
125.990927656977
 30
0.0
 11
98.36231883582909
 21
125.990927656977
 31
0.0
  0
LINE
  5
1EE
330
18F
100
AcDbEntity
  8
Sketch Geometry(DIN)
  6
Continuous
 62
     7
370
    18
100
AcDbLine
 10
98.36231883582909
 20
125.990927656977
 30
0.0
 11
98.36231883582909
 21
126.4512492802498
 31
0.0
  0
LINE
  5
1EF
330
18F
100
AcDbEntity
  8
Sketch Geometry(DIN)
  6
Continuous
 62
     7
370
    18
100
AcDbLine
 10
98.36231883582909
 20
126.4512492802498
 30
0.0
 11
98.56910888572512
 21
126.4512492802498
 31
0.0
  0
LINE
  5
1F0
330
18F
100
AcDbEntity
  8
Sketch Geometry(DIN)
  6
Continuous
 62
     7
370
    18
100
AcDbLine
 10
98.52241072172736
 20
126.6447279686345
 30
0.0
 11
98.00202754156529
 21
126.6447279686345
 31
0.0
  0
LINE
  5
1F1
330
18F
100
AcDbEntity
  8
Sketch Geometry(DIN)
  6
Continuous
 62
     7
370
    18
100
AcDbLine
 10
98.56910888572512
 20
126.4512492802498
 30
0.0
 11
98.52241072172736
 21
126.6447279686345
 31
0.0
  0
LINE
  5
1F2
330
18F
100
AcDbEntity
  8
Sketch Geometry(DIN)
  6
Continuous
 62
     7
370
    18
100
AcDbLine
 10
98.00202754156529
 20
126.6447279686345
 30
0.0
 11
97.94200067226325
 21
126.4512492802498
 31
0.0
  0
LINE
  5
1F3
330
18F
100
AcDbEntity
  8
Sketch Geometry(DIN)
  6
Continuous
 62
     7
370
    18
100
AcDbLine
 10
97.94200067226325
 20
126.4512492802498
 30
0.0
 11
98.12879332825378
 21
126.4512492802498
 31
0.0
  0
LINE
  5
1F4
330
18F
100
AcDbEntity
  8
Sketch Geometry(DIN)
  6
Continuous
 62
     7
370
    18
100
AcDbLine
 10
98.12879332825378
 20
126.4512492802498
 30
0.0
 11
98.12879332825378
 21
125.990927656977
 31
0.0
  0
LINE
  5
1F5
330
18F
100
AcDbEntity
  8
Sketch Geometry(DIN)
  6
Continuous
 62
     7
370
    18
100
AcDbLine
 10
97.3682246238124
 20
126.4512492802498
 30
0.0
 11
97.74852198387852
 21
127.6521422140591
 31
0.0
  0
LINE
  5
1F6
330
18F
100
AcDbEntity
  8
Sketch Geometry(DIN)
  6
Continuous
 62
     7
370
    18
100
AcDbLine
 10
97.22814747561304
 20
126.4512492802498
 30
0.0
 11
97.3682246238124
 21
126.4512492802498
 31
0.0
  0
LINE
  5
1F7
330
18F
100
AcDbEntity
  8
Sketch Geometry(DIN)
  6
Continuous
 62
     7
370
    18
100
AcDbLine
 10
98.12879332825378
 20
125.990927656977
 30
0.0
 11
97.22814747561304
 21
125.990927656977
 31
0.0
  0
LINE
  5
1F8
330
18F
100
AcDbEntity
  8
Sketch Geometry(DIN)
  6
Continuous
 62
     7
370
    18
100
AcDbLine
 10
97.22814747561304
 20
125.990927656977
 30
0.0
 11
97.22814747561304
 21
126.4512492802498
 31
0.0
  0
LINE
  5
1F9
330
18F
100
AcDbEntity
  8
Sketch Geometry(DIN)
  6
Continuous
 62
     7
370
    18
100
AcDbLine
 10
97.74852198387852
 20
127.6521422140591
 30
0.0
 11
97.58174406558607
 21
127.6521422140591
 31
0.0
  0
LINE
  5
1FA
330
18F
100
AcDbEntity
  8
Sketch Geometry(DIN)
  6
Continuous
 62
     7
370
    18
100
AcDbLine
 10
101.0707863320044
 20
125.9888377298602
 30
0.0
 11
101.6845398244714
 21
125.9888377298602
 31
0.0
  0
LINE
  5
1FB
330
18F
100
AcDbEntity
  8
Sketch Geometry(DIN)
  6
Continuous
 62
     7
370
    18
100
AcDbLine
 10
100.5036963159481
 20
125.9888377298602
 30
0.0
 11
100.5036963159481
 21
126.4492027126165
 31
0.0
  0
LINE
  5
1FC
330
18F
100
AcDbEntity
  8
Sketch Geometry(DIN)
  6
Continuous
 62
     7
370
    18
100
AcDbLine
 10
100.5036963159481
 20
126.4492027126165
 30
0.0
 11
100.330223693365
 21
126.4492027126165
 31
0.0
  0
LINE
  5
1FD
330
18F
100
AcDbEntity
  8
Sketch Geometry(DIN)
  6
Continuous
 62
     7
370
    18
100
AcDbLine
 10
99.6497226116147
 20
125.9888377298602
 30
0.0
 11
100.5036963159481
 21
125.9888377298602
 31
0.0
  0
LINE
  5
1FE
330
18F
100
AcDbEntity
  8
Sketch Geometry(DIN)
  6
Continuous
 62
     7
370
    18
100
AcDbLine
 10
99.85654734909729
 20
126.4492027126165
 30
0.0
 11
99.6497226116147
 21
126.4492027126165
 31
0.0
  0
LINE
  5
1FF
330
18F
100
AcDbEntity
  8
Sketch Geometry(DIN)
  6
Continuous
 62
     7
370
    18
100
AcDbLine
 10
99.6497226116147
 20
126.4492027126165
 30
0.0
 11
99.6497226116147
 21
125.9888377298602
 31
0.0
  0
LINE
  5
200
330
18F
100
AcDbEntity
  8
Sketch Geometry(DIN)
  6
Continuous
 62
     7
370
    18
100
AcDbLine
 10
101.6845398244714
 20
125.9888377298602
 30
0.0
 11
101.6845398244714
 21
127.656746991233
 31
0.0
  0
LINE
  5
201
330
18F
100
AcDbEntity
  8
Sketch Geometry(DIN)
  6
Continuous
 62
     7
370
    18
100
AcDbLine
 10
100.330223693365
 20
126.4492027126165
 30
0.0
 11
100.330223693365
 21
127.2364374995637
 31
0.0
  0
LINE
  5
202
330
18F
100
AcDbEntity
  8
Sketch Geometry(DIN)
  6
Continuous
 62
     7
370
    18
100
AcDbLine
 10
100.330223693365
 20
127.2364374995637
 30
0.0
 11
101.0707863320044
 21
125.9888377298602
 31
0.0
  0
LINE
  5
203
330
18F
100
AcDbEntity
  8
Sketch Geometry(DIN)
  6
Continuous
 62
     7
370
    18
100
AcDbLine
 10
101.2509102993947
 20
127.656746991233
 30
0.0
 11
101.2509102993947
 21
126.9762459094827
 31
0.0
  0
LINE
  5
204
330
18F
100
AcDbEntity
  8
Sketch Geometry(DIN)
  6
Continuous
 62
     7
370
    18
100
AcDbLine
 10
99.85654734909729
 20
127.656746991233
 30
0.0
 11
99.85654734909729
 21
126.4492027126165
 31
0.0
  0
LINE
  5
205
330
18F
100
AcDbEntity
  8
Sketch Geometry(DIN)
  6
Continuous
 62
     7
370
    18
100
AcDbLine
 10
101.2509102993947
 20
126.9762459094827
 30
0.0
 11
100.5904152834459
 21
128.0770651547993
 31
0.0
  0
LINE
  5
206
330
18F
100
AcDbEntity
  8
Sketch Geometry(DIN)
  6
Continuous
 62
     7
370
    18
100
AcDbLine
 10
99.6497226116147
 20
127.656746991233
 30
0.0
 11
99.85654734909729
 21
127.656746991233
 31
0.0
  0
LINE
  5
207
330
18F
100
AcDbEntity
  8
Sketch Geometry(DIN)
  6
Continuous
 62
     7
370
    18
100
AcDbLine
 10
100.5904152834459
 20
128.0770651547993
 30
0.0
 11
99.6497226116147
 21
128.0770651547993
 31
0.0
  0
LINE
  5
208
330
18F
100
AcDbEntity
  8
Sketch Geometry(DIN)
  6
Continuous
 62
     7
370
    18
100
AcDbLine
 10
99.6497226116147
 20
128.0770651547993
 30
0.0
 11
99.6497226116147
 21
127.656746991233
 31
0.0
  0
LINE
  5
209
330
18F
100
AcDbEntity
  8
Sketch Geometry(DIN)
  6
Continuous
 62
     7
370
    18
100
AcDbLine
 10
99.11619283597985
 20
127.6587935588663
 30
0.0
 11
99.11619283597985
 21
127.6521422140591
 31
0.0
  0
LINE
  5
20A
330
18F
100
AcDbEntity
  8
Sketch Geometry(DIN)
  6
Continuous
 62
     7
370
    18
100
AcDbLine
 10
97.07429935537462
 20
124.5375774404595
 30
0.0
 11
102.0646377309122
 21
124.5375774404595
 31
0.0
  0
LINE
  5
20B
330
18F
100
AcDbEntity
  8
Sketch Geometry(DIN)
  6
Continuous
 62
     7
370
    18
100
AcDbLine
 10
97.07429935537462
 20
129.533943808766
 30
0.0
 11
97.07429935537462
 21
124.5375774404595
 31
0.0
  0
LINE
  5
20C
330
18F
100
AcDbEntity
  8
Sketch Geometry(DIN)
  6
Continuous
 62
     7
370
    18
100
AcDbLine
 10
102.0646377309122
 20
129.533943808766
 30
0.0
 11
97.07429935537462
 21
129.533943808766
 31
0.0
  0
LINE
  5
20D
330
18F
100
AcDbEntity
  8
Sketch Geometry(DIN)
  6
Continuous
 62
     7
370
    18
100
AcDbLine
 10
96.56334252697977
 20
127.3913696068958
 30
0.0
 11
96.55003116546893
 21
127.3313167219032
 31
0.0
  0
LINE
  5
20E
330
18F
100
AcDbEntity
  8
Sketch Geometry(DIN)
  6
Continuous
 62
     7
370
    18
100
AcDbLine
 10
96.55003116546893
 20
127.3313167219032
 30
0.0
 11
96.52999041207987
 21
127.2779498693052
 31
0.0
  0
LINE
  5
20F
330
18F
100
AcDbEntity
  8
Sketch Geometry(DIN)
  6
Continuous
 62
     7
370
    18
100
AcDbLine
 10
96.52999041207987
 20
127.2779498693052
 30
0.0
 11
96.50332432957418
 21
127.2178969843126
 31
0.0
  0
LINE
  5
210
330
18F
100
AcDbEntity
  8
Sketch Geometry(DIN)
  6
Continuous
 62
     7
370
    18
100
AcDbLine
 10
96.4699635427778
 20
127.1711901484184
 30
0.0
 11
96.42991672358721
 21
127.1245180001105
 31
0.0
  0
LINE
  5
211
330
18F
100
AcDbEntity
  8
Sketch Geometry(DIN)
  6
Continuous
 62
     7
370
    18
100
AcDbLine
 10
96.42991672358721
 20
127.1245180001105
 30
0.0
 11
96.38990459198367
 21
127.0778111642164
 31
0.0
  0
LINE
  5
212
330
18F
100
AcDbEntity
  8
Sketch Geometry(DIN)
  6
Continuous
 62
     7
370
    18
100
AcDbLine
 10
96.38990459198367
 20
127.0778111642164
 30
0.0
 11
96.34319775608931
 21
127.0444590493165
 31
0.0
  0
LINE
  5
213
330
18F
100
AcDbEntity
  8
Sketch Geometry(DIN)
  6
Continuous
 62
     7
370
    18
100
AcDbLine
 10
96.34319775608931
 20
127.0444590493165
 30
0.0
 11
96.28983957538782
 21
127.0177582792238
 31
0.0
  0
LINE
  5
214
330
18F
100
AcDbEntity
  8
Sketch Geometry(DIN)
  6
Continuous
 62
     7
370
    18
100
AcDbLine
 10
96.28983957538782
 20
127.0177582792238
 30
0.0
 11
96.2631388052952
 21
126.9844061643244
 31
0.0
  0
LINE
  5
215
330
18F
100
AcDbEntity
  8
Sketch Geometry(DIN)
  6
Continuous
 62
     7
370
    18
100
AcDbLine
 10
96.50332432957418
 20
127.2178969843126
 30
0.0
 11
96.4699635427778
 21
127.1711901484184
 31
0.0
  0
LINE
  5
216
330
18F
100
AcDbEntity
  8
Sketch Geometry(DIN)
  6
Continuous
 62
     7
370
    18
100
AcDbLine
 10
96.50332432957418
 20
126.4440169183604
 30
0.0
 11
96.7034630346675
 21
126.4440169183604
 31
0.0
  0
LINE
  5
217
330
18F
100
AcDbEntity
  8
Sketch Geometry(DIN)
  6
Continuous
 62
     7
370
    18
100
AcDbLine
 10
96.2631388052952
 20
126.9844061643244
 30
0.0
 11
96.50332432957418
 21
126.4440169183604
 31
0.0
  0
LINE
  5
218
330
18F
100
AcDbEntity
  8
Sketch Geometry(DIN)
  6
Continuous
 62
     7
370
    18
100
AcDbLine
 10
96.7034630346675
 20
126.4440169183604
 30
0.0
 11
96.70346303466777
 21
125.9836519356054
 31
0.0
  0
LINE
  5
219
330
18F
100
AcDbEntity
  8
Sketch Geometry(DIN)
  6
Continuous
 62
     7
370
    18
100
AcDbLine
 10
96.70346303466777
 20
125.9836519356054
 30
0.0
 11
95.96959510031894
 21
125.9836519356054
 31
0.0
  0
LINE
  5
21A
330
18F
100
AcDbEntity
  8
Sketch Geometry(DIN)
  6
Continuous
 62
     7
370
    18
100
AcDbLine
 10
96.12302696951056
 20
128.0652106719415
 30
0.0
 11
96.1830798545032
 21
128.0385185737453
 31
0.0
  0
LINE
  5
21B
330
18F
100
AcDbEntity
  8
Sketch Geometry(DIN)
  6
Continuous
 62
     7
370
    18
100
AcDbLine
 10
96.0029472152188
 20
128.0718706886462
 30
0.0
 11
96.0630001002108
 21
128.0718706886462
 31
0.0
  0
LINE
  5
21C
330
18F
100
AcDbEntity
  8
Sketch Geometry(DIN)
  6
Continuous
 62
     7
370
    18
100
AcDbLine
 10
96.0630001002108
 20
128.0718706886462
 30
0.0
 11
96.12302696951056
 21
128.0652106719415
 31
0.0
  0
LINE
  5
21D
330
18F
100
AcDbEntity
  8
Sketch Geometry(DIN)
  6
Continuous
 62
     7
370
    18
100
AcDbLine
 10
95.74951970459784
 20
127.5380373966253
 30
0.0
 11
95.736164983603
 21
127.5580781500138
 31
0.0
  0
LINE
  5
21E
330
18F
100
AcDbEntity
  8
Sketch Geometry(DIN)
  6
Continuous
 62
     7
370
    18
100
AcDbLine
 10
91.85580337634979
 20
129.533943808766
 30
0.0
 11
91.85580337634979
 21
124.5375774404595
 31
0.0
  0
LINE
  5
21F
330
18F
100
AcDbEntity
  8
Sketch Geometry(DIN)
  6
Continuous
 62
     7
370
    18
100
AcDbLine
 10
91.85580337634979
 20
124.5375774404595
 30
0.0
 11
96.85282778428158
 21
124.5375774404595
 31
0.0
  0
LINE
  5
220
330
18F
100
AcDbEntity
  8
Sketch Geometry(DIN)
  6
Continuous
 62
     7
370
    18
100
AcDbLine
 10
96.85282778428158
 20
124.5375774404595
 30
0.0
 11
96.85282778428158
 21
129.533943808766
 31
0.0
  0
LINE
  5
221
330
18F
100
AcDbEntity
  8
Sketch Geometry(DIN)
  6
Continuous
 62
     7
370
    18
100
AcDbLine
 10
96.85282778428158
 20
129.533943808766
 30
0.0
 11
91.85580337634979
 21
129.533943808766
 31
0.0
  0
LINE
  5
222
330
18F
100
AcDbEntity
  8
Sketch Geometry(DIN)
  6
Continuous
 62
     7
370
    18
100
AcDbLine
 10
94.51517059313244
 20
127.6515611969787
 30
0.0
 11
94.295025822242
 21
127.6515611969787
 31
0.0
  0
LINE
  5
223
330
18F
100
AcDbEntity
  8
Sketch Geometry(DIN)
  6
Continuous
 62
     7
370
    18
100
AcDbLine
 10
94.295025822242
 20
127.6515611969787
 30
0.0
 11
94.295025822242
 21
128.0718706886462
 31
0.0
  0
LINE
  5
224
330
18F
100
AcDbEntity
  8
Sketch Geometry(DIN)
  6
Continuous
 62
     7
370
    18
100
AcDbLine
 10
94.295025822242
 20
128.0718706886462
 30
0.0
 11
96.0029472152188
 21
128.0718706886462
 31
0.0
  0
LINE
  5
225
330
18F
100
AcDbEntity
  8
Sketch Geometry(DIN)
  6
Continuous
 62
     7
370
    18
100
AcDbLine
 10
95.75617104940503
 20
127.5180313308232
 30
0.0
 11
95.74951970459784
 21
127.5380373966253
 31
0.0
  0
LINE
  5
226
330
18F
100
AcDbEntity
  8
Sketch Geometry(DIN)
  6
Continuous
 62
     7
370
    18
100
AcDbLine
 10
95.63609996700732
 20
127.65814316661
 30
0.0
 11
95.61609390120528
 21
127.6648031833137
 31
0.0
  0
LINE
  5
227
330
18F
100
AcDbEntity
  8
Sketch Geometry(DIN)
  6
Continuous
 62
     7
370
    18
100
AcDbLine
 10
95.736164983603
 20
127.5580781500138
 30
0.0
 11
95.72951363879587
 21
127.5780842158158
 31
0.0
  0
LINE
  5
228
330
18F
100
AcDbEntity
  8
Sketch Geometry(DIN)
  6
Continuous
 62
     7
370
    18
100
AcDbLine
 10
95.72951363879587
 20
127.5780842158158
 30
0.0
 11
95.70949890109728
 21
127.5980902816174
 31
0.0
  0
LINE
  5
229
330
18F
100
AcDbEntity
  8
Sketch Geometry(DIN)
  6
Continuous
 62
     7
370
    18
100
AcDbLine
 10
95.67614678619788
 20
127.638137100808
 30
0.0
 11
95.66280073710002
 21
127.6447971175117
 31
0.0
  0
LINE
  5
22A
330
18F
100
AcDbEntity
  8
Sketch Geometry(DIN)
  6
Continuous
 62
     7
370
    18
100
AcDbLine
 10
95.70949890109728
 20
127.5980902816174
 30
0.0
 11
95.69615285199942
 21
127.6180963474194
 31
0.0
  0
LINE
  5
22B
330
18F
100
AcDbEntity
  8
Sketch Geometry(DIN)
  6
Continuous
 62
     7
370
    18
100
AcDbLine
 10
95.69615285199942
 20
127.6180963474194
 30
0.0
 11
95.67614678619788
 21
127.638137100808
 31
0.0
  0
LINE
  5
22C
330
18F
100
AcDbEntity
  8
Sketch Geometry(DIN)
  6
Continuous
 62
     7
370
    18
100
AcDbLine
 10
105.032169470591
 20
127.6500869745293
 30
0.0
 11
105.2323081756798
 21
127.6500869745293
 31
0.0
  0
LINE
  5
22D
330
18F
100
AcDbEntity
  8
Sketch Geometry(DIN)
  6
Continuous
 62
     7
370
    18
100
AcDbLine
 10
96.1830798545032
 20
128.0385185737453
 30
0.0
 11
96.22978669039742
 21
128.0185125079437
 31
0.0
  0
LINE
  5
22E
330
18F
100
AcDbEntity
  8
Sketch Geometry(DIN)
  6
Continuous
 62
     7
370
    18
100
AcDbLine
 10
96.22978669039742
 20
128.0185125079437
 30
0.0
 11
96.2898395753897
 21
127.9918117378511
 31
0.0
  0
LINE
  5
22F
330
18F
100
AcDbEntity
  8
Sketch Geometry(DIN)
  6
Continuous
 62
     7
370
    18
100
AcDbLine
 10
96.2898395753897
 20
127.9918117378511
 30
0.0
 11
96.32985170699658
 21
127.9584509510524
 31
0.0
  0
LINE
  5
230
330
18F
100
AcDbEntity
  8
Sketch Geometry(DIN)
  6
Continuous
 62
     7
370
    18
100
AcDbLine
 10
96.32985170699658
 20
127.9584509510524
 30
0.0
 11
96.38320988769462
 21
127.9317588528585
 31
0.0
  0
LINE
  5
231
330
18F
100
AcDbEntity
  8
Sketch Geometry(DIN)
  6
Continuous
 62
     7
370
    18
100
AcDbLine
 10
96.38320988769462
 20
127.9317588528585
 30
0.0
 11
96.42326537878005
 21
127.8917467212558
 31
0.0
  0
LINE
  5
232
330
18F
100
AcDbEntity
  8
Sketch Geometry(DIN)
  6
Continuous
 62
     7
370
    18
100
AcDbLine
 10
96.42326537878005
 20
127.8917467212558
 30
0.0
 11
96.46327751038359
 21
127.8383798686578
 31
0.0
  0
LINE
  5
233
330
18F
100
AcDbEntity
  8
Sketch Geometry(DIN)
  6
Continuous
 62
     7
370
    18
100
AcDbLine
 10
96.5700372312704
 20
127.4514224918879
 30
0.0
 11
96.56334252697977
 21
127.3913696068958
 31
0.0
  0
LINE
  5
234
330
18F
100
AcDbEntity
  8
Sketch Geometry(DIN)
  6
Continuous
 62
     7
370
    18
100
AcDbLine
 10
96.57003723127045
 20
127.5114406892935
 30
0.0
 11
96.5700372312704
 21
127.4514224918879
 31
0.0
  0
LINE
  5
235
330
18F
100
AcDbEntity
  8
Sketch Geometry(DIN)
  6
Continuous
 62
     7
370
    18
100
AcDbLine
 10
96.57003723127049
 20
127.5714935742857
 30
0.0
 11
96.57003723127045
 21
127.5114406892935
 31
0.0
  0
LINE
  5
236
330
18F
100
AcDbEntity
  8
Sketch Geometry(DIN)
  6
Continuous
 62
     7
370
    18
100
AcDbLine
 10
96.56334252697977
 20
127.6315551311748
 30
0.0
 11
96.57003723127049
 21
127.5714935742857
 31
0.0
  0
LINE
  5
237
330
18F
100
AcDbEntity
  8
Sketch Geometry(DIN)
  6
Continuous
 62
     7
370
    18
100
AcDbLine
 10
96.54333646117777
 20
127.6916080161674
 30
0.0
 11
96.56334252697977
 21
127.6315551311748
 31
0.0
  0
LINE
  5
238
330
18F
100
AcDbEntity
  8
Sketch Geometry(DIN)
  6
Continuous
 62
     7
370
    18
100
AcDbLine
 10
96.52333039537621
 20
127.7382801644747
 30
0.0
 11
96.54333646117777
 21
127.6916080161674
 31
0.0
  0
LINE
  5
239
330
18F
100
AcDbEntity
  8
Sketch Geometry(DIN)
  6
Continuous
 62
     7
370
    18
100
AcDbLine
 10
96.48996960857985
 20
127.7916730327631
 30
0.0
 11
96.52333039537621
 21
127.7382801644747
 31
0.0
  0
LINE
  5
23A
330
18F
100
AcDbEntity
  8
Sketch Geometry(DIN)
  6
Continuous
 62
     7
370
    18
100
AcDbLine
 10
96.46327751038359
 20
127.8383798686578
 30
0.0
 11
96.48996960857985
 21
127.7916730327631
 31
0.0
  0
LINE
  5
23B
330
18F
100
AcDbEntity
  8
Sketch Geometry(DIN)
  6
Continuous
 62
     7
370
    18
100
AcDbLine
 10
93.22251164791238
 20
126.4511799050758
 30
0.0
 11
93.22251164791238
 21
126.864838051938
 31
0.0
  0
LINE
  5
23C
330
18F
100
AcDbEntity
  8
Sketch Geometry(DIN)
  6
Continuous
 62
     7
370
    18
100
AcDbLine
 10
93.40264428719921
 20
126.4511799050758
 30
0.0
 11
93.22251164791238
 21
126.4511799050758
 31
0.0
  0
LINE
  5
23D
330
18F
100
AcDbEntity
  8
Sketch Geometry(DIN)
  6
Continuous
 62
     7
370
    18
100
AcDbLine
 10
92.3685726311659
 20
127.6520728388851
 30
0.0
 11
92.3685726311659
 21
126.4511799050758
 31
0.0
  0
LINE
  5
23E
330
18F
100
AcDbEntity
  8
Sketch Geometry(DIN)
  6
Continuous
 62
     7
370
    18
100
AcDbLine
 10
92.16839923849006
 20
127.6520728388851
 30
0.0
 11
92.3685726311659
 21
127.6520728388851
 31
0.0
  0
LINE
  5
23F
330
18F
100
AcDbEntity
  8
Sketch Geometry(DIN)
  6
Continuous
 62
     7
370
    18
100
AcDbLine
 10
93.22251164791238
 20
126.864838051938
 30
0.0
 11
93.63616979477447
 21
126.864838051938
 31
0.0
  0
LINE
  5
240
330
18F
100
AcDbEntity
  8
Sketch Geometry(DIN)
  6
Continuous
 62
     7
370
    18
100
AcDbLine
 10
93.63616979477447
 20
126.864838051938
 30
0.0
 11
93.63616979477447
 21
127.2250946586152
 31
0.0
  0
LINE
  5
241
330
18F
100
AcDbEntity
  8
Sketch Geometry(DIN)
  6
Continuous
 62
     7
370
    18
100
AcDbLine
 10
93.22251164791238
 20
127.2250946586152
 30
0.0
 11
93.22251164791238
 21
127.6520728388851
 31
0.0
  0
LINE
  5
242
330
18F
100
AcDbEntity
  8
Sketch Geometry(DIN)
  6
Continuous
 62
     7
370
    18
100
AcDbLine
 10
92.16839923849006
 20
128.0857370515493
 30
0.0
 11
92.16839923849006
 21
127.6520728388851
 31
0.0
  0
LINE
  5
243
330
18F
100
AcDbEntity
  8
Sketch Geometry(DIN)
  6
Continuous
 62
     7
370
    18
100
AcDbLine
 10
94.12985220484378
 20
128.0857370515493
 30
0.0
 11
92.16839923849006
 21
128.0857370515493
 31
0.0
  0
LINE
  5
244
330
18F
100
AcDbEntity
  8
Sketch Geometry(DIN)
  6
Continuous
 62
     7
370
    18
100
AcDbLine
 10
93.22251164791238
 20
127.6520728388851
 30
0.0
 11
93.67618192637806
 21
127.6520728388851
 31
0.0
  0
LINE
  5
245
330
18F
100
AcDbEntity
  8
Sketch Geometry(DIN)
  6
Continuous
 62
     7
370
    18
100
AcDbLine
 10
93.67618192637806
 20
127.6520728388851
 30
0.0
 11
93.67618192637806
 21
127.4319280679947
 31
0.0
  0
LINE
  5
246
330
18F
100
AcDbEntity
  8
Sketch Geometry(DIN)
  6
Continuous
 62
     7
370
    18
100
AcDbLine
 10
94.51517059313244
 20
126.4440169183623
 30
0.0
 11
94.51517059313244
 21
127.6515611969787
 31
0.0
  0
LINE
  5
247
330
18F
100
AcDbEntity
  8
Sketch Geometry(DIN)
  6
Continuous
 62
     7
370
    18
100
AcDbLine
 10
93.67618192637806
 20
127.4319280679947
 30
0.0
 11
94.12985220484378
 21
127.4319280679947
 31
0.0
  0
LINE
  5
248
330
18F
100
AcDbEntity
  8
Sketch Geometry(DIN)
  6
Continuous
 62
     7
370
    18
100
AcDbLine
 10
94.12985220484378
 20
127.4319280679947
 30
0.0
 11
94.12985220484378
 21
128.0857370515493
 31
0.0
  0
LINE
  5
249
330
18F
100
AcDbEntity
  8
Sketch Geometry(DIN)
  6
Continuous
 62
     7
370
    18
100
AcDbLine
 10
93.63616979477447
 20
127.2250946586152
 30
0.0
 11
93.22251164791238
 21
127.2250946586152
 31
0.0
  0
LINE
  5
24A
330
18F
100
AcDbEntity
  8
Sketch Geometry(DIN)
  6
Continuous
 62
     7
370
    18
100
AcDbLine
 10
92.3685726311659
 20
126.4511799050758
 30
0.0
 11
92.16839923849006
 21
126.4511799050758
 31
0.0
  0
LINE
  5
24B
330
18F
100
AcDbEntity
  8
Sketch Geometry(DIN)
  6
Continuous
 62
     7
370
    18
100
AcDbLine
 10
93.40264428719921
 20
125.990858281803
 30
0.0
 11
93.40264428719921
 21
126.4511799050758
 31
0.0
  0
LINE
  5
24C
330
18F
100
AcDbEntity
  8
Sketch Geometry(DIN)
  6
Continuous
 62
     7
370
    18
100
AcDbLine
 10
92.16839923849006
 20
125.990858281803
 30
0.0
 11
93.40264428719921
 21
125.990858281803
 31
0.0
  0
LINE
  5
24D
330
18F
100
AcDbEntity
  8
Sketch Geometry(DIN)
  6
Continuous
 62
     7
370
    18
100
AcDbLine
 10
92.16839923849006
 20
126.4511799050758
 30
0.0
 11
92.16839923849006
 21
125.990858281803
 31
0.0
  0
LINE
  5
24E
330
18F
100
AcDbEntity
  8
Sketch Geometry(DIN)
  6
Continuous
 62
     7
370
    18
100
AcDbLine
 10
95.66280073710002
 20
127.6447971175117
 30
0.0
 11
95.63609996700732
 21
127.65814316661
 31
0.0
  0
LINE
  5
24F
330
18F
100
AcDbEntity
  8
Sketch Geometry(DIN)
  6
Continuous
 62
     7
370
    18
100
AcDbLine
 10
95.74285968789419
 20
127.3178926257348
 30
0.0
 11
95.74951970459784
 21
127.3378986915364
 31
0.0
  0
LINE
  5
250
330
18F
100
AcDbEntity
  8
Sketch Geometry(DIN)
  6
Continuous
 62
     7
370
    18
100
AcDbLine
 10
95.74951970459784
 20
127.3378986915364
 30
0.0
 11
95.76286575369572
 21
127.3645994616291
 31
0.0
  0
LINE
  5
251
330
18F
100
AcDbEntity
  8
Sketch Geometry(DIN)
  6
Continuous
 62
     7
370
    18
100
AcDbLine
 10
95.76286575369572
 20
127.3645994616291
 30
0.0
 11
95.76952577039945
 21
127.3846055274307
 31
0.0
  0
LINE
  5
252
330
18F
100
AcDbEntity
  8
Sketch Geometry(DIN)
  6
Continuous
 62
     7
370
    18
100
AcDbLine
 10
95.76952577039945
 20
127.3846055274307
 30
0.0
 11
95.78287181949781
 21
127.4179663142276
 31
0.0
  0
LINE
  5
253
330
18F
100
AcDbEntity
  8
Sketch Geometry(DIN)
  6
Continuous
 62
     7
370
    18
100
AcDbLine
 10
95.78287181949781
 20
127.4179663142276
 30
0.0
 11
95.78287181949781
 21
127.437972380029
 31
0.0
  0
LINE
  5
254
330
18F
100
AcDbEntity
  8
Sketch Geometry(DIN)
  6
Continuous
 62
     7
370
    18
100
AcDbLine
 10
95.78287181949781
 20
127.437972380029
 30
0.0
 11
95.78287181949781
 21
127.4646644782248
 31
0.0
  0
LINE
  5
255
330
18F
100
AcDbEntity
  8
Sketch Geometry(DIN)
  6
Continuous
 62
     7
370
    18
100
AcDbLine
 10
95.78287181949781
 20
127.4646644782248
 30
0.0
 11
95.76952577039945
 21
127.4846792159234
 31
0.0
  0
LINE
  5
256
330
18F
100
AcDbEntity
  8
Sketch Geometry(DIN)
  6
Continuous
 62
     7
370
    18
100
AcDbLine
 10
95.76952577039945
 20
127.4846792159234
 30
0.0
 11
95.75617104940503
 21
127.5180313308232
 31
0.0
  0
LINE
  5
257
330
18F
100
AcDbEntity
  8
Sketch Geometry(DIN)
  6
Continuous
 62
     7
370
    18
100
AcDbLine
 10
95.61609390120528
 20
127.6648031833137
 30
0.0
 11
95.58939313111256
 21
127.6781579043086
 31
0.0
  0
LINE
  5
258
330
18F
100
AcDbEntity
  8
Sketch Geometry(DIN)
  6
Continuous
 62
     7
370
    18
100
AcDbLine
 10
95.58939313111256
 20
127.6781579043086
 30
0.0
 11
95.569387065311
 21
127.6781579043086
 31
0.0
  0
LINE
  5
259
330
18F
100
AcDbEntity
  8
Sketch Geometry(DIN)
  6
Continuous
 62
     7
370
    18
100
AcDbLine
 10
95.569387065311
 20
127.6781579043086
 30
0.0
 11
95.549380999509
 21
127.6781579043086
 31
0.0
  0
LINE
  5
25A
330
18F
100
AcDbEntity
  8
Sketch Geometry(DIN)
  6
Continuous
 62
     7
370
    18
100
AcDbLine
 10
95.549380999509
 20
127.6781579043086
 30
0.0
 11
95.29584942613217
 21
127.6781579043086
 31
0.0
  0
LINE
  5
25B
330
18F
100
AcDbEntity
  8
Sketch Geometry(DIN)
  6
Continuous
 62
     7
370
    18
100
AcDbLine
 10
95.29584942613217
 20
127.6781579043086
 30
0.0
 11
95.29584942613217
 21
127.191126839046
 31
0.0
  0
LINE
  5
25C
330
18F
100
AcDbEntity
  8
Sketch Geometry(DIN)
  6
Continuous
 62
     7
370
    18
100
AcDbLine
 10
95.29584942613217
 20
127.191126839046
 30
0.0
 11
95.549380999509
 21
127.191126839046
 31
0.0
  0
LINE
  5
25D
330
18F
100
AcDbEntity
  8
Sketch Geometry(DIN)
  6
Continuous
 62
     7
370
    18
100
AcDbLine
 10
95.549380999509
 20
127.191126839046
 30
0.0
 11
95.569387065311
 21
127.191126839046
 31
0.0
  0
LINE
  5
25E
330
18F
100
AcDbEntity
  8
Sketch Geometry(DIN)
  6
Continuous
 62
     7
370
    18
100
AcDbLine
 10
95.72951363879587
 20
127.2978865599328
 30
0.0
 11
95.74285968789419
 21
127.3178926257348
 31
0.0
  0
LINE
  5
25F
330
18F
100
AcDbEntity
  8
Sketch Geometry(DIN)
  6
Continuous
 62
     7
370
    18
100
AcDbLine
 10
95.70949890109728
 20
127.2778458065443
 30
0.0
 11
95.72951363879587
 21
127.2978865599328
 31
0.0
  0
LINE
  5
260
330
18F
100
AcDbEntity
  8
Sketch Geometry(DIN)
  6
Continuous
 62
     7
370
    18
100
AcDbLine
 10
95.67614678619788
 20
127.2444936916444
 30
0.0
 11
95.69615285199942
 21
127.2645344450329
 31
0.0
  0
LINE
  5
261
330
18F
100
AcDbEntity
  8
Sketch Geometry(DIN)
  6
Continuous
 62
     7
370
    18
100
AcDbLine
 10
95.66280073710002
 20
127.2378336749407
 30
0.0
 11
95.67614678619788
 21
127.2444936916444
 31
0.0
  0
LINE
  5
262
330
18F
100
AcDbEntity
  8
Sketch Geometry(DIN)
  6
Continuous
 62
     7
370
    18
100
AcDbLine
 10
95.63609996700732
 20
127.2178276091387
 30
0.0
 11
95.66280073710002
 21
127.2378336749407
 31
0.0
  0
LINE
  5
263
330
18F
100
AcDbEntity
  8
Sketch Geometry(DIN)
  6
Continuous
 62
     7
370
    18
100
AcDbLine
 10
95.61609390120528
 20
127.2044815600408
 30
0.0
 11
95.63609996700732
 21
127.2178276091387
 31
0.0
  0
LINE
  5
264
330
18F
100
AcDbEntity
  8
Sketch Geometry(DIN)
  6
Continuous
 62
     7
370
    18
100
AcDbLine
 10
95.59608783540371
 20
127.1977868557497
 30
0.0
 11
95.61609390120528
 21
127.2044815600408
 31
0.0
  0
LINE
  5
265
330
18F
100
AcDbEntity
  8
Sketch Geometry(DIN)
  6
Continuous
 62
     7
370
    18
100
AcDbLine
 10
95.569387065311
 20
127.191126839046
 30
0.0
 11
95.59608783540371
 21
127.1977868557497
 31
0.0
  0
LINE
  5
266
330
18F
100
AcDbEntity
  8
Sketch Geometry(DIN)
  6
Continuous
 62
     7
370
    18
100
AcDbLine
 10
95.69615285199942
 20
127.2645344450329
 30
0.0
 11
95.70949890109728
 21
127.2778458065443
 31
0.0
  0
LINE
  5
267
330
18F
100
AcDbEntity
  8
Sketch Geometry(DIN)
  6
Continuous
 62
     7
370
    18
100
AcDbLine
 10
94.295025822242
 20
125.9836519356054
 30
0.0
 11
94.295025822242
 21
126.4440169183623
 31
0.0
  0
LINE
  5
268
330
18F
100
AcDbEntity
  8
Sketch Geometry(DIN)
  6
Continuous
 62
     7
370
    18
100
AcDbLine
 10
94.295025822242
 20
126.4440169183623
 30
0.0
 11
94.51517059313244
 21
126.4440169183623
 31
0.0
  0
LINE
  5
269
330
18F
100
AcDbEntity
  8
Sketch Geometry(DIN)
  6
Continuous
 62
     7
370
    18
100
AcDbLine
 10
95.48922405176055
 20
125.9836519356054
 30
0.0
 11
94.295025822242
 21
125.9836519356054
 31
0.0
  0
LINE
  5
26A
330
18F
100
AcDbEntity
  8
Sketch Geometry(DIN)
  6
Continuous
 62
     7
370
    18
100
AcDbLine
 10
95.30244006766656
 20
126.8776464434394
 30
0.0
 11
95.30244006766656
 21
126.4440169183623
 31
0.0
  0
LINE
  5
26B
330
18F
100
AcDbEntity
  8
Sketch Geometry(DIN)
  6
Continuous
 62
     7
370
    18
100
AcDbLine
 10
95.30244006766656
 20
126.4440169183623
 30
0.0
 11
95.48922405176055
 21
126.4440169183623
 31
0.0
  0
LINE
  5
26C
330
18F
100
AcDbEntity
  8
Sketch Geometry(DIN)
  6
Continuous
 62
     7
370
    18
100
AcDbLine
 10
95.5826377235491
 20
126.8776464434394
 30
0.0
 11
95.30244006766656
 21
126.8776464434394
 31
0.0
  0
LINE
  5
26D
330
18F
100
AcDbEntity
  8
Sketch Geometry(DIN)
  6
Continuous
 62
     7
370
    18
100
AcDbLine
 10
95.48922405176055
 20
126.4440169183623
 30
0.0
 11
95.48922405176055
 21
125.9836519356054
 31
0.0
  0
LINE
  5
26E
330
18F
100
AcDbEntity
  8
Sketch Geometry(DIN)
  6
Continuous
 62
     7
370
    18
100
AcDbLine
 10
95.96959510031894
 20
125.9836519356054
 30
0.0
 11
95.5826377235491
 21
126.8776464434394
 31
0.0
  0
LINE
  5
26F
330
18F
100
AcDbEntity
  8
Sketch Geometry(DIN)
  6
Continuous
 62
     7
370
    18
100
AcDbLine
 10
106.5065913716826
 20
126.6493414177054
 30
0.0
 11
106.5065913716826
 21
126.4492027126165
 31
0.0
  0
LINE
  5
270
330
18F
100
AcDbEntity
  8
Sketch Geometry(DIN)
  6
Continuous
 62
     7
370
    18
100
AcDbLine
 10
106.9469156010504
 20
126.6493414177054
 30
0.0
 11
106.5065913716826
 21
126.6493414177054
 31
0.0
  0
LINE
  5
271
330
18F
100
AcDbEntity
  8
Sketch Geometry(ISO)
  6
Continuous
 62
     7
370
    25
100
AcDbLine
 10
89.59999999999999
 20
110.2741925130958
 30
0.0
 11
154.6
 21
110.2741925130957
 31
0.0
  0
MTEXT
  5
272
330
18F
100
AcDbEntity
  8
Symbols(ISO)
 62
     7
100
AcDbMText
 10
155.6
 20
144.5241925130958
 30
0.0
 40
1.49859994649887
 41
23.77876622243585
 71
     4
 72
     1
  1
Revision Description:
  7
Text__1.5mm
 73
     1
 44
1.0
1001
ACAD
1000
MTEXTBEGIN
1070
    73
1070
     1
1070
    44
1040
1.0
1070
    74
1070
     0
1000
MTEXTEND
  0
MTEXT
  5
273
330
18F
100
AcDbEntity
  8
Symbols(ISO)
 62
     7
100
AcDbMText
 10
91.09999999999997
 20
105.2368704004262
 30
0.0
 40
1.299999952316284
 41
62.47629165649414
 71
     4
 72
     1
  1
\fArial|b0|i0;These drawings and specifications are the property of NIRO-Plan AG and shall not be reproduced, copied or transfered to any third party without the prior written permission of NIRO-Plan AG, Aarburg, Switzerland
  7
Text__1.3mm
 73
     2
 44
0.9442214369773862
1001
ACAD
1000
MTEXTBEGIN
1070
    73
1070
     2
1070
    44
1040
0.9442214369773862
1070
    74
1070
     0
1000
MTEXTEND
  0
MTEXT
  5
274
330
18F
100
AcDbEntity
  8
Symbols(ISO)
 62
     7
100
AcDbMText
 10
264.6
 20
108.7741925130957
 30
0.0
 40
1.49859994649887
 41
6.687050822926429
 71
     4
 72
     1
  1
\fArial|b0|i0;Rev.
  7
Text__1.5mm
 73
     1
 44
1.0
1001
ACAD
1000
MTEXTBEGIN
1070
    73
1070
     1
1070
    44
1040
1.0
1070
    74
1070
     0
1000
MTEXTEND
  0
MTEXT
  5
275
330
18F
100
AcDbEntity
  8
Symbols(ISO)
 62
     7
100
AcDbMText
 10
275.6
 20
108.7741925130957
 30
0.0
 40
1.49859994649887
 41
6.687050822926429
 71
     4
 72
     1
  1
\fArial|b0|i0;Sheet
  7
Text__1.5mm
 73
     1
 44
1.0
1001
ACAD
1000
MTEXTBEGIN
1070
    73
1070
     1
1070
    44
1040
1.0
1070
    74
1070
     0
1000
MTEXTEND
  0
MTEXT
  5
276
330
18F
100
AcDbEntity
  8
Symbols(ISO)
 62
     7
100
AcDbMText
 10
205.6
 20
108.7741925130957
 30
0.0
 40
1.49859994649887
 41
6.629477143287657
 71
     4
 72
     1
  1
\fArial|b0|i0;Format
  7
Text__1.5mm
 73
     1
 44
1.0
1001
ACAD
1000
MTEXTBEGIN
1070
    73
1070
     1
1070
    44
1040
1.0
1070
    74
1070
     0
1000
MTEXTEND
  0
MTEXT
  5
277
330
18F
100
AcDbEntity
  8
Symbols(ISO)
 62
     7
100
AcDbMText
 10
248.1
 20
137.0241925130958
 30
0.0
 40
1.49859994649887
 41
9.419934749603273
 71
     4
 72
     1
  1
EAN / UPC
  7
Text__1.5mm
 73
     1
 44
1.0
1001
ACAD
1000
MTEXTBEGIN
1070
    73
1070
     1
1070
    44
1040
1.0
1070
    74
1070
     0
1000
MTEXTEND
  0
MTEXT
  5
278
330
18F
100
AcDbEntity
  8
Symbols(ISO)
 62
     7
100
AcDbMText
 10
205.6
 20
144.3687682948396
 30
0.0
 40
1.49859994649887
 41
8.959617614746091
 71
     4
 72
     1
  1
Projection
  7
Text__1.5mm
 73
     1
 44
1.0
1001
ACAD
1000
MTEXTBEGIN
1070
    73
1070
     1
1070
    44
1040
1.0
1070
    74
1070
     0
1000
MTEXTEND
  0
MTEXT
  5
279
330
18F
100
AcDbEntity
  8
Symbols(ISO)
 62
     7
100
AcDbMText
 10
248.1
 20
144.3687682948396
 30
0.0
 40
1.49859994649887
 41
41.00067758866361
 71
     4
 72
     1
  1
Local part number (producing site)
  7
Text__1.5mm
 73
     1
 44
1.0
1001
ACAD
1000
MTEXTBEGIN
1070
    73
1070
     1
1070
    44
1040
1.0
1070
    74
1070
     0
1000
MTEXTEND
  0
MTEXT
  5
27A
330
18F
100
AcDbEntity
  8
Symbols(ISO)
 62
     7
100
AcDbMText
 10
218.1
 20
108.7741925130957
 30
0.0
 40
1.49859994649887
 41
13.84170077910116
 71
     4
 72
     1
  1
Drawing number
  7
Text__1.5mm
 73
     1
 44
1.0
1001
ACAD
1000
MTEXTBEGIN
1070
    73
1070
     1
1070
    44
1040
1.0
1070
    74
1070
     0
1000
MTEXTEND
  0
MTEXT
  5
27B
330
18F
100
AcDbEntity
  8
Symbols(ISO)
 62
     7
100
AcDbMText
 10
205.6
 20
137.0241925130958
 30
0.0
 40
1.49859994649887
 41
16.71329739486093
 71
     4
 72
     1
  1
WS global number
  7
Text__1.5mm
 73
     1
 44
1.0
1001
ACAD
1000
MTEXTBEGIN
1070
    73
1070
     1
1070
    44
1040
1.0
1070
    74
1070
     0
1000
MTEXTEND
  0
MTEXT
  5
27C
330
18F
100
AcDbEntity
  8
Symbols(ISO)
 62
     7
100
AcDbMText
 10
283.1
 20
108.7741925130957
 30
0.0
 40
1.49859994649887
 41
6.687050822926429
 71
     4
 72
     1
  1
Sheets
  7
Text__1.5mm
 73
     1
 44
1.0
1001
ACAD
1000
MTEXTBEGIN
1070
    73
1070
     1
1070
    44
1040
1.0
1070
    74
1070
     0
1000
MTEXTEND
  0
MTEXT
  5
27D
330
18F
100
AcDbEntity
  8
Symbols(ISO)
 62
     7
100
AcDbMText
 10
91.09999999999997
 20
116.4337326665147
 30
0.0
 40
2.000000029802321
 41
51.58130403925818
 71
     4
 72
     1
  1
\fArial|b0|i0;\H2.0000;Franke Washroom Systems\PE-Mail: ws-info.int@franke.com\PInternet: www.franke.com
  7
Text__1.3mm
 73
     2
 44
0.9442214369773862
1001
ACAD
1000
MTEXTBEGIN
1070
    73
1070
     2
1070
    44
1040
0.9442214369773862
1070
    74
1070
     0
1000
MTEXTEND
  0
MTEXT
  5
27E
330
18F
100
AcDbEntity
  8
Symbols(ISO)
 62
     7
100
AcDbMText
 10
90.6
 20
144.5241925130958
 30
0.0
 40
1.49859994649887
 41
8.959617614746091
 71
     4
 72
     1
  1
Drawn by
  7
Text__1.5mm
 73
     1
 44
1.0
1001
ACAD
1000
MTEXTBEGIN
1070
    73
1070
     1
1070
    44
1040
1.0
1070
    74
1070
     0
1000
MTEXTEND
  0
MTEXT
  5
27F
330
18F
100
AcDbEntity
  8
Symbols(ISO)
 62
     7
100
AcDbMText
 10
90.6
 20
137.0241925130958
 30
0.0
 40
1.49859994649887
 41
9.318276643753053
 71
     4
 72
     1
  1
Revised by
  7
Text__1.5mm
 73
     1
 44
1.0
1001
ACAD
1000
MTEXTBEGIN
1070
    73
1070
     1
1070
    44
1040
1.0
1070
    74
1070
     0
1000
MTEXTEND
  0
MTEXT
  5
280
330
18F
100
AcDbEntity
  8
Symbols(ISO)
 62
     7
100
AcDbMText
 10
135.6
 20
137.0241925130958
 30
0.0
 40
1.49859994649887
 41
12.0866436953507
 71
     4
 72
     1
  1
Revision date
  7
Text__1.5mm
 73
     1
 44
1.0
1001
ACAD
1000
MTEXTBEGIN
1070
    73
1070
     1
1070
    44
1040
1.0
1070
    74
1070
     0
1000
MTEXTEND
  0
MTEXT
  5
281
330
18F
100
AcDbEntity
  8
Symbols(ISO)
 62
     7
100
AcDbMText
 10
135.6
 20
144.5241925130958
 30
0.0
 40
1.49859994649887
 41
12.73810746214334
 71
     4
 72
     1
  1
Creation date
  7
Text__1.5mm
 73
     1
 44
1.0
1001
ACAD
1000
MTEXTBEGIN
1070
    73
1070
     1
1070
    44
1040
1.0
1070
    74
1070
     0
1000
MTEXTEND
  0
MTEXT
  5
282
330
18F
100
AcDbEntity
  8
Symbols(ISO)
 62
     7
100
AcDbMText
 10
110.6
 20
144.5241925130958
 30
0.0
 40
1.49859994649887
 41
10.88769435882568
 71
     4
 72
     1
  1
Departement
  7
Text__1.5mm
 73
     1
 44
1.0
1001
ACAD
1000
MTEXTBEGIN
1070
    73
1070
     1
1070
    44
1040
1.0
1070
    74
1070
     0
1000
MTEXTEND
  0
MTEXT
  5
283
330
18F
100
AcDbEntity
  8
Symbols(ISO)
 62
     7
100
AcDbMText
 10
110.6
 20
137.0241925130958
 30
0.0
 40
1.49859994649887
 41
13.53864551460898
 71
     4
 72
     1
  1
Departement
  7
Text__1.5mm
 73
     1
 44
1.0
1001
ACAD
1000
MTEXTBEGIN
1070
    73
1070
     1
1070
    44
1040
1.0
1070
    74
1070
     0
1000
MTEXTEND
  0
ATTDEF
  5
284
330
18F
100
AcDbEntity
  8
Symbols(ISO)
 62
     7
100
AcDbText
 10
206.6
 20
123.5241925130958
 30
0.0
 40
5.0
  1
Franke Plaster sink LH
  7
Parts-List_2.0mm
 11
206.6
 21
126.0241925130958
 31
0.0
100
AcDbAttributeDefinition
  3
Title
  2
Title
 70
     0
 74
     2
  0
ATTDEF
  5
285
330
18F
100
AcDbEntity
  8
Symbols(ISO)
 62
     7
100
AcDbText
 10
206.6000000000001
 20
117.7741925428981
 30
0.0
 40
3.499999940395355
  1

  7
Parts-List_2.0mm
 11
206.6000000000001
 21
119.5241925130958
 31
0.0
100
AcDbAttributeDefinition
  3
Auxiliary_Remark1
  2
Auxiliary_Remark1
 70
     0
 74
     2
  0
ATTDEF
  5
286
330
18F
100
AcDbEntity
  8
Symbols(ISO)
 62
     7
100
AcDbText
 10
206.6
 20
111.2741925428981
 30
0.0
 40
3.499999940395355
  1

  7
Parts-List_2.0mm
 11
206.6
 21
113.0241925130958
 31
0.0
100
AcDbAttributeDefinition
  3
Auxiliary_Remark2
  2
Auxiliary_Remark2
 70
     0
 74
     2
  0
ATTDEF
  5
287
330
18F
100
AcDbEntity
  8
Symbols(ISO)
 62
     7
100
AcDbText
 10
248.1
 20
139.7741925130958
 30
0.0
 40
2.5
  1
SIRX835
  7
Parts-List_2.0mm
 11
248.1
 21
141.0241925130958
 31
0.0
100
AcDbAttributeDefinition
  3
Part_number
  2
Part_number
 70
     0
 74
     2
  0
ATTDEF
  5
288
330
18F
100
AcDbEntity
  8
Symbols(ISO)
 62
     7
100
AcDbText
 10
218.1
 20
101.7741925130957
 30
0.0
 40
5.0
  1
0093-122457
  7
Parts-List_2.0mm
 11
218.1
 21
104.2741925130957
 31
0.0
100
AcDbAttributeDefinition
  3
Document_Number
  2
Document_Number
 70
     0
 74
     2
  0
ATTDEF
  5
289
330
18F
100
AcDbEntity
  8
Symbols(ISO)
 62
     7
100
AcDbText
 10
155.6
 20
136.0241924832935
 30
0.0
 40
2.000000029802321
  1

  7
Parts-List_2.0mm
 11
155.6
 21
138.0241925130958
 31
0.0
100
AcDbAttributeDefinition
  3
Revision_Memo_1
  2
Revision_Memo_1
 70
     0
 74
     3
  0
ATTDEF
  5
28A
330
18F
100
AcDbEntity
  8
Symbols(ISO)
 62
     7
100
AcDbText
 10
264.6
 20
101.7741925130957
 30
0.0
 40
5.0
  1
F
  7
Parts-List_2.0mm
 11
264.6
 21
104.2741925130957
 31
0.0
100
AcDbAttributeDefinition
  3
Revision_Index_1
  2
Revision_Index_1
 70
     0
 74
     2
  0
ATTDEF
  5
28B
330
18F
100
AcDbEntity
  8
Symbols(ISO)
 62
     7
100
AcDbText
 10
205.6
 20
101.7741925130957
 30
0.0
 40
5.0
  1
A4
  7
Parts-List_2.0mm
 11
205.6
 21
104.2741925130957
 31
0.0
100
AcDbAttributeDefinition
  3
Sheet Size
  2
Sheet_Size
 70
     0
 74
     2
  0
ATTDEF
  5
28C
330
18F
100
AcDbEntity
  8
Symbols(ISO)
 62
     7
100
AcDbText
 10
90.6
 20
140.0241924981946
 30
0.0
 40
2.000000029802321
  1
HK034
  7
Parts-List_2.0mm
 11
90.6
 21
141.0241925130958
 31
0.0
100
AcDbAttributeDefinition
  3
Drawn_By
  2
Drawn_By
 70
     0
 74
     2
  0
ATTDEF
  5
28D
330
18F
100
AcDbEntity
  8
Symbols(ISO)
 62
     7
100
AcDbText
 10
90.6
 20
132.5241924981946
 30
0.0
 40
2.000000029802321
  1
CJ036
  7
Parts-List_2.0mm
 11
90.6
 21
133.5241925130958
 31
0.0
100
AcDbAttributeDefinition
  3
Modified_By
  2
Modified_By
 70
     0
 74
     2
  0
ATTDEF
  5
28E
330
18F
100
AcDbEntity
  8
Symbols(ISO)
 62
     7
100
AcDbText
 10
135.6
 20
140.0241924981946
 30
0.0
 40
2.000000029802321
  1
18/01/2010
  7
Parts-List_2.0mm
 11
135.6
 21
141.0241925130958
 31
0.0
100
AcDbAttributeDefinition
  3
Drawn_Date
  2
Drawn_Date
 70
     0
 74
     2
  0
ATTDEF
  5
28F
330
18F
100
AcDbEntity
  8
Symbols(ISO)
 62
     7
100
AcDbText
 10
135.6
 20
132.5241924981946
 30
0.0
 40
2.000000029802321
  1
08/03/2010
  7
Parts-List_2.0mm
 11
135.6
 21
133.5241925130958
 31
0.0
100
AcDbAttributeDefinition
  3
Modified_Date
  2
Modified_Date
 70
     0
 74
     2
  0
ATTDEF
  5
290
330
18F
100
AcDbEntity
  8
Symbols(ISO)
 62
     7
100
AcDbText
 10
155.6
 20
140.0241924981946
 30
0.0
 40
2.000000029802321
  1

  7
Parts-List_2.0mm
 11
155.6
 21
141.0241925130958
 31
0.0
100
AcDbAttributeDefinition
  3
Revision_Titel_1
  2
Revision_Titel_1
 70
     0
 74
     2
  0
ATTDEF
  5
291
330
18F
100
AcDbEntity
  8
Symbols(ISO)
 62
     7
100
AcDbText
 10
275.7285812427045
 20
101.7741925130957
 30
0.0
 40
5.0
  1
1 
 41
0.899999976158142
  7
Text__5.0mm
 72
     1
 11
278.35
 21
104.2741925130957
 31
0.0
100
AcDbAttributeDefinition
  3
Sheet number
  2
Sheet_number
 70
     0
 74
     2
  0
ATTDEF
  5
292
330
18F
100
AcDbEntity
  8
Symbols(ISO)
 62
     7
100
AcDbText
 10
283.2285812427045
 20
101.7741925130957
 30
0.0
 40
5.0
  1
4 
 41
0.899999976158142
  7
Text__5.0mm
 72
     1
 11
285.85
 21
104.2741925130957
 31
0.0
100
AcDbAttributeDefinition
  3
Number of sheets
  2
Number_of_sheets
 70
     0
 74
     2
  0
ATTDEF
  5
293
330
18F
100
AcDbEntity
  8
Symbols(ISO)
 62
     7
100
AcDbText
 10
205.6
 20
132.2741925130958
 30
0.0
 40
2.5
  1

  7
Parts-List_2.0mm
 11
205.6
 21
133.5241925130958
 31
0.0
100
AcDbAttributeDefinition
  3
FUN
  2
FUN
 70
     0
 74
     2
  0
ATTDEF
  5
294
330
18F
100
AcDbEntity
  8
Symbols(ISO)
 62
     7
100
AcDbText
 10
248.1
 20
132.2741925130958
 30
0.0
 40
2.5
  1
7612210016974
  7
Parts-List_2.0mm
 11
248.1
 21
133.5241925130958
 31
0.0
100
AcDbAttributeDefinition
  3
EAN
  2
EAN
 70
     0
 74
     2
  0
ATTDEF
  5
295
330
18F
100
AcDbEntity
  8
Symbols(ISO)
 62
     7
100
AcDbText
 10
110.6
 20
132.5241924981946
 30
0.0
 40
2.000000029802321
  1
FSI-Marketing
  7
Parts-List_2.0mm
 11
110.6
 21
133.5241925130958
 31
0.0
100
AcDbAttributeDefinition
  3
Departement
  2
Departement
 70
     0
 74
     2
  0
ATTDEF
  5
296
330
18F
100
AcDbEntity
  8
Symbols(ISO)
 62
     7
100
AcDbText
 10
110.6
 20
140.0241924981946
 30
0.0
 40
2.000000029802321
  1
FSI-Marketing
  7
Parts-List_2.0mm
 11
110.6
 21
141.0241925130958
 31
0.0
100
AcDbAttributeDefinition
  3
Departement
  2
Departement
 70
     0
 74
     2
  0
ENDBLK
  5
191
330
18F
100
AcDbEntity
  8
0
100
AcDbBlockEnd
  0
BLOCK
  5
2AD
330
2AC
100
AcDbEntity
  8
0
100
AcDbBlockBegin
  2
Borders Verkauf Border_85x80
 70
     0
 10
0.0
 20
0.0
 30
0.0
  3
Borders Verkauf Border_85x80
  1

  0
LINE
  5
2AF
330
2AC
100
AcDbEntity
  8
Phantom Lines(ISO)
 48
27.41272354125977
100
AcDbLine
 10
20.00000000000014
 20
228.0000000000001
 30
0.0
 11
190.0
 21
228.0000000000001
 31
0.0
  0
LINE
  5
2B0
330
2AC
100
AcDbEntity
  8
Phantom Lines(ISO)
 48
25.80020904541016
100
AcDbLine
 10
190.0
 20
228.0000000000001
 30
0.0
 11
190.0
 21
68.00000000000004
 31
0.0
  0
LINE
  5
2B1
330
2AC
100
AcDbEntity
  8
Phantom Lines(ISO)
 48
27.41272354125977
100
AcDbLine
 10
190.0
 20
68.00000000000003
 30
0.0
 11
20.0
 21
68.00000000000003
 31
0.0
  0
LINE
  5
2B2
330
2AC
100
AcDbEntity
  8
Phantom Lines(ISO)
 48
25.80020904541016
100
AcDbLine
 10
20.0
 20
68.00000000000003
 30
0.0
 11
20.00000000000014
 21
228.0000000000001
 31
0.0
  0
LINE
  5
2B3
330
2AC
100
AcDbEntity
  8
Sketch Geometry(ISO)
100
AcDbLine
 10
204.9999999999999
 20
292.0
 30
0.0
 11
5.0
 21
292.0
 31
0.0
  0
LINE
  5
2B4
330
2AC
100
AcDbEntity
  8
Sketch Geometry(ISO)
100
AcDbLine
 10
4.999999999999981
 20
292.0
 30
0.0
 11
5.000000000000006
 21
5.0
 31
0.0
  0
LINE
  5
2B5
330
2AC
100
AcDbEntity
  8
Sketch Geometry(ISO)
100
AcDbLine
 10
5.000000000000006
 20
5.0
 30
0.0
 11
205.0
 21
5.0
 31
0.0
  0
LINE
  5
2B6
330
2AC
100
AcDbEntity
  8
Sketch Geometry(ISO)
100
AcDbLine
 10
205.0
 20
5.0
 30
0.0
 11
204.9999999999999
 21
292.0
 31
0.0
  0
ENDBLK
  5
2AE
330
2AC
100
AcDbEntity
  8
0
100
AcDbBlockEnd
  0
BLOCK
  5
3A5
330
3A4
100
AcDbEntity
  8
0
100
AcDbBlockBegin
  2
*D11
 70
     1
 10
0.0
 20
0.0
 30
0.0
  3
*D11
  1

  0
LINE
  5
10F8
330
3A4
100
AcDbEntity
  8
Bemaßungen(DIN)
  6
Continuous
 62
     7
370
    25
100
AcDbLine
 10
373.8209556127277
 20
2616.810086133393
 30
0.0
 11
262.7732335364499
 21
2616.810086133393
 31
0.0
  0
LINE
  5
10F9
330
3A4
100
AcDbEntity
  8
Bemaßungen(DIN)
  6
Continuous
 62
     7
370
    25
100
AcDbLine
 10
373.8209556127277
 20
2566.810086133393
 30
0.0
 11
262.7732335364499
 21
2566.810086133393
 31
0.0
  0
LINE
  5
10FA
330
3A4
100
AcDbEntity
  8
Bemaßungen(DIN)
  6
Continuous
 62
     7
370
    25
100
AcDbLine
 10
288.7732335364499
 20
2514.810086133393
 30
0.0
 11
288.7732335364499
 21
2462.810086133393
 31
0.0
  0
LINE
  5
10FB
330
3A4
100
AcDbEntity
  8
Bemaßungen(DIN)
  6
Continuous
 62
     7
370
    25
100
AcDbLine
 10
288.7732335364499
 20
2668.810086133393
 30
0.0
 11
288.77323353645
 21
2747.612678048169
 31
0.0
  0
LINE
  5
10FC
330
3A4
100
AcDbEntity
  8
Bemaßungen(DIN)
  6
Continuous
 62
     7
370
    25
100
AcDbLine
 10
288.77323353645
 20
2747.612678048169
 30
0.0
 11
340.7732335364499
 21
2747.612678048169
 31
0.0
  0
SOLID
  5
10FD
330
3A4
100
AcDbEntity
  8
Bemaßungen(DIN)
  6
Continuous
 62
     7
100
AcDbTrace
 10
280.1065668697832
 20
2514.810086133393
 30
0.0
 11
297.4399002031166
 21
2514.810086133393
 31
0.0
 12
288.7732335364499
 22
2566.810086133393
 32
0.0
 13
288.7732335364499
 23
2566.810086133393
 33
0.0
  0
SOLID
  5
10FE
330
3A4
100
AcDbEntity
  8
Bemaßungen(DIN)
  6
Continuous
 62
     7
100
AcDbTrace
 10
280.1065668697832
 20
2668.810086133393
 30
0.0
 11
297.4399002031166
 21
2668.810086133393
 31
0.0
 12
288.7732335364499
 22
2616.810086133393
 32
0.0
 13
288.7732335364499
 23
2616.810086133393
 33
0.0
  0
MTEXT
  5
10FF
330
3A4
100
AcDbEntity
  8
Bemaßungen(DIN)
  6
Continuous
 62
     7
370
    30
100
AcDbMText
 10
353.7732335364495
 20
2747.612678048169
 30
0.0
 40
52.0
 41
0.0
 71
     4
 72
     1
  1
\A1;50
  7
Text__4.0mm
 73
     1
 44
1.0
1001
ACAD
1000
MTEXTBEGIN
1070
    73
1070
     1
1070
    44
1040
1.0
1070
    74
1070
     0
1000
MTEXTEND
  0
POINT
  5
1100
330
3A4
100
AcDbEntity
  8
Defpoints
  6
Continuous
 62
     0
100
AcDbPoint
 10
399.8209556127277
 20
2616.810086133393
 30
0.0
  0
POINT
  5
1101
330
3A4
100
AcDbEntity
  8
Defpoints
  6
Continuous
 62
     0
100
AcDbPoint
 10
399.8209556127277
 20
2566.810086133393
 30
0.0
  0
POINT
  5
1102
330
3A4
100
AcDbEntity
  8
Defpoints
  6
Continuous
 62
     0
100
AcDbPoint
 10
288.7732335364499
 20
2566.810086133393
 30
0.0
  0
ENDBLK
  5
3A6
330
3A4
100
AcDbEntity
  8
0
100
AcDbBlockEnd
  0
BLOCK
  5
48D
330
48C
100
AcDbEntity
  8
0
100
AcDbBlockBegin
  2
*D12
 70
     1
 10
0.0
 20
0.0
 30
0.0
  3
*D12
  1

  0
LINE
  5
561
330
48C
100
AcDbEntity
  8
Bemaßungen(DIN)
  6
Continuous
 62
     7
370
    25
100
AcDbLine
 10
399.8209556121035
 20
1629.957534935748
 30
0.0
 11
399.8209556121035
 21
1868.679131175423
 31
0.0
  0
LINE
  5
562
330
48C
100
AcDbEntity
  8
Bemaßungen(DIN)
  6
Continuous
 62
     7
370
    25
100
AcDbLine
 10
1399.820955612103
 20
1629.957534935748
 30
0.0
 11
1399.820955612103
 21
1868.679131175423
 31
0.0
  0
LINE
  5
563
330
48C
100
AcDbEntity
  8
Bemaßungen(DIN)
  6
Continuous
 62
     7
370
    25
100
AcDbLine
 10
451.8209556121035
 20
1842.679131175423
 30
0.0
 11
819.2227309362692
 21
1842.679131175423
 31
0.0
  0
LINE
  5
564
330
48C
100
AcDbEntity
  8
Bemaßungen(DIN)
  6
Continuous
 62
     7
370
    25
100
AcDbLine
 10
1347.820955612103
 20
1842.679131175423
 30
0.0
 11
980.4191802879376
 21
1842.679131175423
 31
0.0
  0
SOLID
  5
565
330
48C
100
AcDbEntity
  8
Bemaßungen(DIN)
  6
Continuous
 62
     7
100
AcDbTrace
 10
451.8209556121035
 20
1851.34579784209
 30
0.0
 11
451.8209556121035
 21
1834.012464508757
 31
0.0
 12
399.8209556121035
 22
1842.679131175423
 32
0.0
 13
399.8209556121035
 23
1842.679131175423
 33
0.0
  0
SOLID
  5
566
330
48C
100
AcDbEntity
  8
Bemaßungen(DIN)
  6
Continuous
 62
     7
100
AcDbTrace
 10
1347.820955612103
 20
1851.34579784209
 30
0.0
 11
1347.820955612103
 21
1834.012464508757
 31
0.0
 12
1399.820955612103
 22
1842.679131175423
 32
0.0
 13
1399.820955612103
 23
1842.679131175423
 33
0.0
  0
MTEXT
  5
567
330
48C
100
AcDbEntity
  8
Bemaßungen(DIN)
  6
Continuous
 62
     7
370
    30
100
AcDbMText
 10
832.2227309362693
 20
1842.679131175423
 30
0.0
 40
52.0
 41
0.0
 71
     4
 72
     1
  1
\A1;1000
  7
Text__4.0mm
 73
     1
 44
1.0
1001
ACAD
1000
MTEXTBEGIN
1070
    73
1070
     1
1070
    44
1040
1.0
1070
    74
1070
     0
1000
MTEXTEND
  0
POINT
  5
568
330
48C
100
AcDbEntity
  8
Defpoints
  6
Continuous
 62
     0
100
AcDbPoint
 10
399.8209556121035
 20
1603.957534935747
 30
0.0
  0
POINT
  5
569
330
48C
100
AcDbEntity
  8
Defpoints
  6
Continuous
 62
     0
100
AcDbPoint
 10
1399.820955612103
 20
1603.957534935748
 30
0.0
  0
POINT
  5
56A
330
48C
100
AcDbEntity
  8
Defpoints
  6
Continuous
 62
     0
100
AcDbPoint
 10
1399.820955612103
 20
1842.679131175423
 30
0.0
  0
ENDBLK
  5
48E
330
48C
100
AcDbEntity
  8
0
100
AcDbBlockEnd
  0
BLOCK
  5
56D
330
56C
100
AcDbEntity
  8
0
100
AcDbBlockBegin
  2
*D13
 70
     1
 10
0.0
 20
0.0
 30
0.0
  3
*D13
  1

  0
LINE
  5
63C
330
56C
100
AcDbEntity
  8
Bemaßungen(DIN)
  6
Continuous
 62
     7
370
    25
100
AcDbLine
 10
1424.320955612103
 20
1602.457534935747
 30
0.0
 11
1710.320955612104
 21
1602.457534935747
 31
0.0
  0
LINE
  5
63D
330
56C
100
AcDbEntity
  8
Bemaßungen(DIN)
  6
Continuous
 62
     7
370
    25
100
AcDbLine
 10
1425.820955612103
 20
1003.957534935748
 30
0.0
 11
1710.320955612103
 21
1003.957534935748
 31
0.0
  0
LINE
  5
63E
330
56C
100
AcDbEntity
  8
Bemaßungen(DIN)
  6
Continuous
 62
     7
370
    25
100
AcDbLine
 10
1684.320955612104
 20
1550.457534935747
 30
0.0
 11
1684.320955612104
 21
1342.757330297275
 31
0.0
  0
LINE
  5
63F
330
56C
100
AcDbEntity
  8
Bemaßungen(DIN)
  6
Continuous
 62
     7
370
    25
100
AcDbLine
 10
1684.320955612104
 20
1055.957534935748
 30
0.0
 11
1684.320955612104
 21
1263.657739574219
 31
0.0
  0
SOLID
  5
640
330
56C
100
AcDbEntity
  8
Bemaßungen(DIN)
  6
Continuous
 62
     7
100
AcDbTrace
 10
1675.654288945437
 20
1550.457534935747
 30
0.0
 11
1692.987622278771
 21
1550.457534935747
 31
0.0
 12
1684.320955612104
 22
1602.457534935747
 32
0.0
 13
1684.320955612104
 23
1602.457534935747
 33
0.0
  0
SOLID
  5
641
330
56C
100
AcDbEntity
  8
Bemaßungen(DIN)
  6
Continuous
 62
     7
100
AcDbTrace
 10
1675.654288945437
 20
1055.957534935748
 30
0.0
 11
1692.98762227877
 21
1055.957534935748
 31
0.0
 12
1684.320955612104
 22
1003.957534935748
 32
0.0
 13
1684.320955612104
 23
1003.957534935748
 33
0.0
  0
MTEXT
  5
642
330
56C
100
AcDbEntity
  8
Bemaßungen(DIN)
  6
Continuous
 62
     7
370
    30
100
AcDbMText
 10
1632.57279872921
 20
1303.207534935748
 30
0.0
 40
52.0
 41
0.0
 71
     4
 72
     1
  1
\A1;598
  7
Text__4.0mm
 73
     1
 44
1.0
1001
ACAD
1000
MTEXTBEGIN
1070
    73
1070
     1
1070
    44
1040
1.0
1070
    74
1070
     0
1000
MTEXTEND
  0
POINT
  5
643
330
56C
100
AcDbEntity
  8
Defpoints
  6
Continuous
 62
     0
100
AcDbPoint
 10
1398.320955612103
 20
1602.457534935747
 30
0.0
  0
POINT
  5
644
330
56C
100
AcDbEntity
  8
Defpoints
  6
Continuous
 62
     0
100
AcDbPoint
 10
1399.820955612103
 20
1003.957534935748
 30
0.0
  0
POINT
  5
645
330
56C
100
AcDbEntity
  8
Defpoints
  6
Continuous
 62
     0
100
AcDbPoint
 10
1684.320955612104
 20
1003.957534935748
 30
0.0
  0
ENDBLK
  5
56E
330
56C
100
AcDbEntity
  8
0
100
AcDbBlockEnd
  0
BLOCK
  5
648
330
647
100
AcDbEntity
  8
0
100
AcDbBlockBegin
  2
*D14
 70
     1
 10
0.0
 20
0.0
 30
0.0
  3
*D14
  1

  0
LINE
  5
71C
330
647
100
AcDbEntity
  8
Bemaßungen(DIN)
  6
Continuous
 62
     7
370
    25
100
AcDbLine
 10
929.8209556127275
 20
2196.810086133393
 30
0.0
 11
929.8209556127275
 21
2066.810086133393
 31
0.0
  0
LINE
  5
71D
330
647
100
AcDbEntity
  8
Bemaßungen(DIN)
  6
Continuous
 62
     7
370
    25
100
AcDbLine
 10
1229.820955612727
 20
2196.810086133393
 30
0.0
 11
1229.820955612727
 21
2066.810086133393
 31
0.0
  0
LINE
  5
71E
330
647
100
AcDbEntity
  8
Bemaßungen(DIN)
  6
Continuous
 62
     7
370
    25
100
AcDbLine
 10
981.8209556127277
 20
2092.810086133393
 30
0.0
 11
1177.820955612727
 21
2092.810086133393
 31
0.0
  0
LINE
  5
71F
330
647
100
AcDbEntity
  8
Bemaßungen(DIN)
  6
Continuous
 62
     7
370
    25
100
AcDbLine
 10
1229.820955612727
 20
2092.810086133393
 30
0.0
 11
1414.118173493832
 21
2092.810086133393
 31
0.0
  0
SOLID
  5
720
330
647
100
AcDbEntity
  8
Bemaßungen(DIN)
  6
Continuous
 62
     7
100
AcDbTrace
 10
981.8209556127277
 20
2101.476752800059
 30
0.0
 11
981.8209556127277
 21
2084.143419466727
 31
0.0
 12
929.8209556127275
 22
2092.810086133393
 32
0.0
 13
929.8209556127275
 23
2092.810086133393
 33
0.0
  0
SOLID
  5
721
330
647
100
AcDbEntity
  8
Bemaßungen(DIN)
  6
Continuous
 62
     7
100
AcDbTrace
 10
1177.820955612727
 20
2101.476752800059
 30
0.0
 11
1177.820955612727
 21
2084.143419466727
 31
0.0
 12
1229.820955612727
 22
2092.810086133393
 32
0.0
 13
1229.820955612727
 23
2092.810086133393
 33
0.0
  0
MTEXT
  5
722
330
647
100
AcDbEntity
  8
Bemaßungen(DIN)
  6
Continuous
 62
     7
370
    30
100
AcDbMText
 10
1427.118173493832
 20
2092.810086133393
 30
0.0
 40
52.0
 41
0.0
 71
     4
 72
     1
  1
\A1;\fArial|b0|i0;\H52.0000;Ø300
  7
Text__4.0mm
 73
     1
 44
1.0
1001
ACAD
1000
MTEXTBEGIN
1070
    73
1070
     1
1070
    44
1040
1.0
1070
    74
1070
     0
1000
MTEXTEND
  0
POINT
  5
723
330
647
100
AcDbEntity
  8
Defpoints
  6
Continuous
 62
     0
100
AcDbPoint
 10
929.8209556127275
 20
2222.810086133393
 30
0.0
  0
POINT
  5
724
330
647
100
AcDbEntity
  8
Defpoints
  6
Continuous
 62
     0
100
AcDbPoint
 10
1229.820955612727
 20
2222.810086133393
 30
0.0
  0
POINT
  5
725
330
647
100
AcDbEntity
  8
Defpoints
  6
Continuous
 62
     0
100
AcDbPoint
 10
1229.820955612727
 20
2092.810086133393
 30
0.0
  0
ENDBLK
  5
649
330
647
100
AcDbEntity
  8
0
100
AcDbBlockEnd
  0
BLOCK
  5
728
330
727
100
AcDbEntity
  8
0
100
AcDbBlockBegin
  2
*D15
 70
     1
 10
0.0
 20
0.0
 30
0.0
  3
*D15
  1

  0
LINE
  5
7FD
330
727
100
AcDbEntity
  8
Bemaßungen(DIN)
  6
Continuous
 62
     7
370
    25
100
AcDbLine
 10
1329.820955612727
 20
2396.810086133393
 30
0.0
 11
1329.820955612727
 21
1954.810086133393
 31
0.0
  0
LINE
  5
7FE
330
727
100
AcDbEntity
  8
Bemaßungen(DIN)
  6
Continuous
 62
     7
370
    25
100
AcDbLine
 10
829.8209556127275
 20
2396.810086133393
 30
0.0
 11
829.8209556127275
 21
1954.810086133393
 31
0.0
  0
LINE
  5
7FF
330
727
100
AcDbEntity
  8
Bemaßungen(DIN)
  6
Continuous
 62
     7
370
    25
100
AcDbLine
 10
1277.820955612728
 20
1980.810086133393
 30
0.0
 11
881.8209556127275
 21
1980.810086133393
 31
0.0
  0
LINE
  5
800
330
727
100
AcDbEntity
  8
Bemaßungen(DIN)
  6
Continuous
 62
     7
370
    25
100
AcDbLine
 10
829.8209556127275
 20
1980.810086133393
 30
0.0
 11
777.8209556127275
 21
1980.810086133393
 31
0.0
  0
SOLID
  5
801
330
727
100
AcDbEntity
  8
Bemaßungen(DIN)
  6
Continuous
 62
     7
100
AcDbTrace
 10
1277.820955612728
 20
1989.476752800059
 30
0.0
 11
1277.820955612728
 21
1972.143419466726
 31
0.0
 12
1329.820955612727
 22
1980.810086133393
 32
0.0
 13
1329.820955612727
 23
1980.810086133393
 33
0.0
  0
SOLID
  5
802
330
727
100
AcDbEntity
  8
Bemaßungen(DIN)
  6
Continuous
 62
     7
100
AcDbTrace
 10
881.8209556127275
 20
1989.476752800059
 30
0.0
 11
881.8209556127275
 21
1972.143419466726
 31
0.0
 12
829.8209556127275
 22
1980.810086133393
 32
0.0
 13
829.8209556127275
 23
1980.810086133393
 33
0.0
  0
MTEXT
  5
803
330
727
100
AcDbEntity
  8
Bemaßungen(DIN)
  6
Continuous
 62
     7
370
    30
100
AcDbMText
 10
607.1466836433622
 20
1980.810086133393
 30
0.0
 40
52.0
 41
0.0
 71
     4
 72
     1
  1
\A1;\fAIGDT|b0|i0;\H52.0000;o\fArial|b0|i0;\H52.0000;500
  7
Text__4.0mm
 73
     1
 44
1.0
1001
ACAD
1000
MTEXTBEGIN
1070
    73
1070
     1
1070
    44
1040
1.0
1070
    74
1070
     0
1000
MTEXTEND
  0
POINT
  5
804
330
727
100
AcDbEntity
  8
Defpoints
  6
Continuous
 62
     0
100
AcDbPoint
 10
1329.820955612727
 20
2422.810086133393
 30
0.0
  0
POINT
  5
805
330
727
100
AcDbEntity
  8
Defpoints
  6
Continuous
 62
     0
100
AcDbPoint
 10
829.8209556127275
 20
2422.810086133393
 30
0.0
  0
POINT
  5
806
330
727
100
AcDbEntity
  8
Defpoints
  6
Continuous
 62
     0
100
AcDbPoint
 10
829.8209556127275
 20
1980.810086133393
 30
0.0
  0
ENDBLK
  5
729
330
727
100
AcDbEntity
  8
0
100
AcDbBlockEnd
  0
BLOCK
  5
809
330
808
100
AcDbEntity
  8
0
100
AcDbBlockBegin
  2
*D16
 70
     1
 10
0.0
 20
0.0
 30
0.0
  3
*D16
  1

  0
LINE
  5
8DD
330
808
100
AcDbEntity
  8
Bemaßungen(DIN)
  6
Continuous
 62
     7
370
    25
100
AcDbLine
 10
419.8209556127276
 20
2642.810086133393
 30
0.0
 11
419.8209556127276
 21
2881.63313447175
 31
0.0
  0
LINE
  5
8DE
330
808
100
AcDbEntity
  8
Bemaßungen(DIN)
  6
Continuous
 62
     7
370
    25
100
AcDbLine
 10
1379.820955612727
 20
2642.810086133393
 30
0.0
 11
1379.820955612727
 21
2881.63313447175
 31
0.0
  0
LINE
  5
8DF
330
808
100
AcDbEntity
  8
Bemaßungen(DIN)
  6
Continuous
 62
     7
370
    25
100
AcDbLine
 10
471.8209556127276
 20
2855.633134471749
 30
0.0
 11
835.2004931329997
 21
2855.633134471749
 31
0.0
  0
LINE
  5
8E0
330
808
100
AcDbEntity
  8
Bemaßungen(DIN)
  6
Continuous
 62
     7
370
    25
100
AcDbLine
 10
1327.820955612727
 20
2855.633134471749
 30
0.0
 11
964.4414180924556
 21
2855.633134471749
 31
0.0
  0
SOLID
  5
8E1
330
808
100
AcDbEntity
  8
Bemaßungen(DIN)
  6
Continuous
 62
     7
100
AcDbTrace
 10
471.8209556127276
 20
2864.299801138415
 30
0.0
 11
471.8209556127276
 21
2846.966467805082
 31
0.0
 12
419.8209556127276
 22
2855.633134471749
 32
0.0
 13
419.8209556127276
 23
2855.633134471749
 33
0.0
  0
SOLID
  5
8E2
330
808
100
AcDbEntity
  8
Bemaßungen(DIN)
  6
Continuous
 62
     7
100
AcDbTrace
 10
1327.820955612727
 20
2864.299801138415
 30
0.0
 11
1327.820955612727
 21
2846.966467805082
 31
0.0
 12
1379.820955612727
 22
2855.633134471749
 32
0.0
 13
1379.820955612727
 23
2855.633134471749
 33
0.0
  0
MTEXT
  5
8E3
330
808
100
AcDbEntity
  8
Bemaßungen(DIN)
  6
Continuous
 62
     7
370
    30
100
AcDbMText
 10
848.2004931329996
 20
2855.633134471749
 30
0.0
 40
52.0
 41
0.0
 71
     4
 72
     1
  1
\A1;960
  7
Text__4.0mm
 73
     1
 44
1.0
1001
ACAD
1000
MTEXTBEGIN
1070
    73
1070
     1
1070
    44
1040
1.0
1070
    74
1070
     0
1000
MTEXTEND
  0
POINT
  5
8E4
330
808
100
AcDbEntity
  8
Defpoints
  6
Continuous
 62
     0
100
AcDbPoint
 10
419.8209556127276
 20
2616.810086133393
 30
0.0
  0
POINT
  5
8E5
330
808
100
AcDbEntity
  8
Defpoints
  6
Continuous
 62
     0
100
AcDbPoint
 10
1379.820955612727
 20
2616.810086133393
 30
0.0
  0
POINT
  5
8E6
330
808
100
AcDbEntity
  8
Defpoints
  6
Continuous
 62
     0
100
AcDbPoint
 10
1379.820955612727
 20
2855.633134471749
 30
0.0
  0
ENDBLK
  5
80A
330
808
100
AcDbEntity
  8
0
100
AcDbBlockEnd
  0
BLOCK
  5
8E9
330
8E8
100
AcDbEntity
  8
0
100
AcDbBlockBegin
  2
*D17
 70
     1
 10
0.0
 20
0.0
 30
0.0
  3
*D17
  1

  0
LINE
  5
9BD
330
8E8
100
AcDbEntity
  8
Bemaßungen(DIN)
  6
Continuous
 62
     7
370
    25
100
AcDbLine
 10
2386.683621914249
 20
2642.810086133394
 30
0.0
 11
2386.683621914249
 21
2866.025648542519
 31
0.0
  0
LINE
  5
9BE
330
8E8
100
AcDbEntity
  8
Bemaßungen(DIN)
  6
Continuous
 62
     7
370
    25
100
AcDbLine
 10
1846.68362191425
 20
2642.810086133394
 30
0.0
 11
1846.68362191425
 21
2866.025648542519
 31
0.0
  0
LINE
  5
9BF
330
8E8
100
AcDbEntity
  8
Bemaßungen(DIN)
  6
Continuous
 62
     7
370
    25
100
AcDbLine
 10
2334.683621914249
 20
2840.025648542519
 30
0.0
 11
2188.702145203768
 21
2840.025648542519
 31
0.0
  0
LINE
  5
9C0
330
8E8
100
AcDbEntity
  8
Bemaßungen(DIN)
  6
Continuous
 62
     7
370
    25
100
AcDbLine
 10
1898.68362191425
 20
2840.025648542519
 30
0.0
 11
2059.461220244313
 21
2840.025648542519
 31
0.0
  0
SOLID
  5
9C1
330
8E8
100
AcDbEntity
  8
Bemaßungen(DIN)
  6
Continuous
 62
     7
100
AcDbTrace
 10
2334.683621914249
 20
2848.692315209186
 30
0.0
 11
2334.683621914249
 21
2831.358981875852
 31
0.0
 12
2386.683621914249
 22
2840.025648542519
 32
0.0
 13
2386.683621914249
 23
2840.025648542519
 33
0.0
  0
SOLID
  5
9C2
330
8E8
100
AcDbEntity
  8
Bemaßungen(DIN)
  6
Continuous
 62
     7
100
AcDbTrace
 10
1898.68362191425
 20
2848.692315209186
 30
0.0
 11
1898.68362191425
 21
2831.358981875852
 31
0.0
 12
1846.68362191425
 22
2840.025648542519
 32
0.0
 13
1846.68362191425
 23
2840.025648542519
 33
0.0
  0
MTEXT
  5
9C3
330
8E8
100
AcDbEntity
  8
Bemaßungen(DIN)
  6
Continuous
 62
     7
370
    30
100
AcDbMText
 10
2072.461220244314
 20
2840.025648542519
 30
0.0
 40
52.0
 41
0.0
 71
     4
 72
     1
  1
\A1;540
  7
Text__4.0mm
 73
     1
 44
1.0
1001
ACAD
1000
MTEXTBEGIN
1070
    73
1070
     1
1070
    44
1040
1.0
1070
    74
1070
     0
1000
MTEXTEND
  0
POINT
  5
9C4
330
8E8
100
AcDbEntity
  8
Defpoints
  6
Continuous
 62
     0
100
AcDbPoint
 10
2386.683621914249
 20
2616.810086133393
 30
0.0
  0
POINT
  5
9C5
330
8E8
100
AcDbEntity
  8
Defpoints
  6
Continuous
 62
     0
100
AcDbPoint
 10
1846.68362191425
 20
2616.810086133393
 30
0.0
  0
POINT
  5
9C6
330
8E8
100
AcDbEntity
  8
Defpoints
  6
Continuous
 62
     0
100
AcDbPoint
 10
1846.68362191425
 20
2840.025648542519
 30
0.0
  0
ENDBLK
  5
8EA
330
8E8
100
AcDbEntity
  8
0
100
AcDbBlockEnd
  0
BLOCK
  5
9C9
330
9C8
100
AcDbEntity
  8
0
100
AcDbBlockBegin
  2
*D18
 70
     1
 10
0.0
 20
0.0
 30
0.0
  3
*D18
  1

  0
LINE
  5
A98
330
9C8
100
AcDbEntity
  8
Bemaßungen(DIN)
  6
Continuous
 62
     7
370
    25
100
AcDbLine
 10
1425.820955612727
 20
2616.810086133393
 30
0.0
 11
1555.820955612728
 21
2616.810086133393
 31
0.0
  0
LINE
  5
A99
330
9C8
100
AcDbEntity
  8
Bemaßungen(DIN)
  6
Continuous
 62
     7
370
    25
100
AcDbLine
 10
1315.820955612728
 20
2402.810086133393
 30
0.0
 11
1555.820955612728
 21
2402.810086133393
 31
0.0
  0
LINE
  5
A9A
330
9C8
100
AcDbEntity
  8
Bemaßungen(DIN)
  6
Continuous
 62
     7
370
    25
100
AcDbLine
 10
1529.820955612728
 20
2564.810086133392
 30
0.0
 11
1529.820955612728
 21
2548.916498138849
 31
0.0
  0
LINE
  5
A9B
330
9C8
100
AcDbEntity
  8
Bemaßungen(DIN)
  6
Continuous
 62
     7
370
    25
100
AcDbLine
 10
1529.820955612728
 20
2454.810086133393
 30
0.0
 11
1529.820955612728
 21
2470.703674127936
 31
0.0
  0
SOLID
  5
A9C
330
9C8
100
AcDbEntity
  8
Bemaßungen(DIN)
  6
Continuous
 62
     7
100
AcDbTrace
 10
1521.154288946061
 20
2564.810086133392
 30
0.0
 11
1538.487622279395
 21
2564.810086133392
 31
0.0
 12
1529.820955612728
 22
2616.810086133393
 32
0.0
 13
1529.820955612728
 23
2616.810086133393
 33
0.0
  0
SOLID
  5
A9D
330
9C8
100
AcDbEntity
  8
Bemaßungen(DIN)
  6
Continuous
 62
     7
100
AcDbTrace
 10
1521.154288946061
 20
2454.810086133393
 30
0.0
 11
1538.487622279395
 21
2454.810086133393
 31
0.0
 12
1529.820955612728
 22
2402.810086133393
 32
0.0
 13
1529.820955612728
 23
2402.810086133393
 33
0.0
  0
MTEXT
  5
A9E
330
9C8
100
AcDbEntity
  8
Bemaßungen(DIN)
  6
Continuous
 62
     7
370
    30
100
AcDbMText
 10
1477.817409923502
 20
2509.810086133393
 30
0.0
 40
52.0
 41
0.0
 71
     4
 72
     1
  1
\A1;214
  7
Text__4.0mm
 73
     1
 44
1.0
1001
ACAD
1000
MTEXTBEGIN
1070
    73
1070
     1
1070
    44
1040
1.0
1070
    74
1070
     0
1000
MTEXTEND
  0
POINT
  5
A9F
330
9C8
100
AcDbEntity
  8
Defpoints
  6
Continuous
 62
     0
100
AcDbPoint
 10
1399.820955612727
 20
2616.810086133393
 30
0.0
  0
POINT
  5
AA0
330
9C8
100
AcDbEntity
  8
Defpoints
  6
Continuous
 62
     0
100
AcDbPoint
 10
1289.820955612728
 20
2402.810086133393
 30
0.0
  0
POINT
  5
AA1
330
9C8
100
AcDbEntity
  8
Defpoints
  6
Continuous
 62
     0
100
AcDbPoint
 10
1529.820955612728
 20
2402.810086133393
 30
0.0
  0
ENDBLK
  5
9CA
330
9C8
100
AcDbEntity
  8
0
100
AcDbBlockEnd
  0
BLOCK
  5
AA4
330
AA3
100
AcDbEntity
  8
0
100
AcDbBlockBegin
  2
*D19
 70
     1
 10
0.0
 20
0.0
 30
0.0
  3
*D19
  1

  0
LINE
  5
B73
330
AA3
100
AcDbEntity
  8
Bemaßungen(DIN)
  6
Continuous
 62
     7
370
    25
100
AcDbLine
 10
1425.820955612727
 20
2616.810086133393
 30
0.0
 11
1677.820955612728
 21
2616.810086133393
 31
0.0
  0
LINE
  5
B74
330
AA3
100
AcDbEntity
  8
Bemaßungen(DIN)
  6
Continuous
 62
     7
370
    25
100
AcDbLine
 10
1235.820955612727
 20
2202.810086133393
 30
0.0
 11
1677.820955612728
 21
2202.810086133393
 31
0.0
  0
LINE
  5
B75
330
AA3
100
AcDbEntity
  8
Bemaßungen(DIN)
  6
Continuous
 62
     7
370
    25
100
AcDbLine
 10
1651.820955612728
 20
2564.810086133392
 30
0.0
 11
1651.820955612728
 21
2448.91649813885
 31
0.0
  0
LINE
  5
B76
330
AA3
100
AcDbEntity
  8
Bemaßungen(DIN)
  6
Continuous
 62
     7
370
    25
100
AcDbLine
 10
1651.820955612728
 20
2254.810086133393
 30
0.0
 11
1651.820955612728
 21
2370.703674127935
 31
0.0
  0
SOLID
  5
B77
330
AA3
100
AcDbEntity
  8
Bemaßungen(DIN)
  6
Continuous
 62
     7
100
AcDbTrace
 10
1643.154288946061
 20
2564.810086133392
 30
0.0
 11
1660.487622279395
 21
2564.810086133392
 31
0.0
 12
1651.820955612728
 22
2616.810086133393
 32
0.0
 13
1651.820955612728
 23
2616.810086133393
 33
0.0
  0
SOLID
  5
B78
330
AA3
100
AcDbEntity
  8
Bemaßungen(DIN)
  6
Continuous
 62
     7
100
AcDbTrace
 10
1643.154288946061
 20
2254.810086133393
 30
0.0
 11
1660.487622279395
 21
2254.810086133393
 31
0.0
 12
1651.820955612728
 22
2202.810086133393
 32
0.0
 13
1651.820955612728
 23
2202.810086133393
 33
0.0
  0
MTEXT
  5
B79
330
AA3
100
AcDbEntity
  8
Bemaßungen(DIN)
  6
Continuous
 62
     7
370
    30
100
AcDbMText
 10
1599.274708710048
 20
2409.810086133393
 30
0.0
 40
52.0
 41
0.0
 71
     4
 72
     1
  1
\A1;414
  7
Text__4.0mm
 73
     1
 44
1.0
1001
ACAD
1000
MTEXTBEGIN
1070
    73
1070
     1
1070
    44
1040
1.0
1070
    74
1070
     0
1000
MTEXTEND
  0
POINT
  5
B7A
330
AA3
100
AcDbEntity
  8
Defpoints
  6
Continuous
 62
     0
100
AcDbPoint
 10
1399.820955612727
 20
2616.810086133393
 30
0.0
  0
POINT
  5
B7B
330
AA3
100
AcDbEntity
  8
Defpoints
  6
Continuous
 62
     0
100
AcDbPoint
 10
1209.820955612727
 20
2202.810086133393
 30
0.0
  0
POINT
  5
B7C
330
AA3
100
AcDbEntity
  8
Defpoints
  6
Continuous
 62
     0
100
AcDbPoint
 10
1651.820955612728
 20
2202.810086133393
 30
0.0
  0
ENDBLK
  5
AA5
330
AA3
100
AcDbEntity
  8
0
100
AcDbBlockEnd
  0
BLOCK
  5
B7F
330
B7E
100
AcDbEntity
  8
0
100
AcDbBlockBegin
  2
*D20
 70
     1
 10
0.0
 20
0.0
 30
0.0
  3
*D20
  1

  0
LINE
  5
C53
330
B7E
100
AcDbEntity
  8
Bemaßungen(DIN)
  6
Continuous
 62
     7
370
    25
100
AcDbLine
 10
2122.633621914434
 20
2172.163882649025
 30
0.0
 11
2122.633621914434
 21
2010.367928130231
 31
0.0
  0
LINE
  5
C54
330
B7E
100
AcDbEntity
  8
Bemaßungen(DIN)
  6
Continuous
 62
     7
370
    25
100
AcDbLine
 10
2160.733621914435
 20
2172.163882649025
 30
0.0
 11
2160.733621914435
 21
2010.367928130231
 31
0.0
  0
LINE
  5
C55
330
B7E
100
AcDbEntity
  8
Bemaßungen(DIN)
  6
Continuous
 62
     7
370
    25
100
AcDbLine
 10
2212.733621914435
 20
2036.367928130232
 30
0.0
 11
2264.733621914435
 21
2036.367928130232
 31
0.0
  0
LINE
  5
C56
330
B7E
100
AcDbEntity
  8
Bemaßungen(DIN)
  6
Continuous
 62
     7
370
    25
100
AcDbLine
 10
2070.633621914434
 20
2036.367928130232
 30
0.0
 11
2018.633621914434
 21
2036.367928130232
 31
0.0
  0
SOLID
  5
C57
330
B7E
100
AcDbEntity
  8
Bemaßungen(DIN)
  6
Continuous
 62
     7
100
AcDbTrace
 10
2212.733621914435
 20
2045.034594796898
 30
0.0
 11
2212.733621914435
 21
2027.701261463565
 31
0.0
 12
2160.733621914435
 22
2036.367928130232
 32
0.0
 13
2160.733621914435
 23
2036.367928130232
 33
0.0
  0
SOLID
  5
C58
330
B7E
100
AcDbEntity
  8
Bemaßungen(DIN)
  6
Continuous
 62
     7
100
AcDbTrace
 10
2070.633621914434
 20
2045.034594796898
 30
0.0
 11
2070.633621914434
 21
2027.701261463565
 31
0.0
 12
2122.633621914434
 22
2036.367928130232
 32
0.0
 13
2122.633621914434
 23
2036.367928130232
 33
0.0
  0
MTEXT
  5
C59
330
B7E
100
AcDbEntity
  8
Bemaßungen(DIN)
  6
Continuous
 62
     7
370
    30
100
AcDbMText
 10
1938.530213050867
 20
2036.367928130232
 30
0.0
 40
52.0
 41
0.0
 71
     4
 72
     1
  1
\A1;38
  7
Text__4.0mm
 73
     1
 44
1.0
1001
ACAD
1000
MTEXTBEGIN
1070
    73
1070
     1
1070
    44
1040
1.0
1070
    74
1070
     0
1000
MTEXTEND
  0
POINT
  5
C5A
330
B7E
100
AcDbEntity
  8
Defpoints
  6
Continuous
 62
     0
100
AcDbPoint
 10
2122.633621914434
 20
2198.163882649025
 30
0.0
  0
POINT
  5
C5B
330
B7E
100
AcDbEntity
  8
Defpoints
  6
Continuous
 62
     0
100
AcDbPoint
 10
2160.733621914435
 20
2198.163882649025
 30
0.0
  0
POINT
  5
C5C
330
B7E
100
AcDbEntity
  8
Defpoints
  6
Continuous
 62
     0
100
AcDbPoint
 10
2160.733621914435
 20
2036.367928130232
 30
0.0
  0
ENDBLK
  5
B80
330
B7E
100
AcDbEntity
  8
0
100
AcDbBlockEnd
  0
BLOCK
  5
C5F
330
C5E
100
AcDbEntity
  8
0
100
AcDbBlockBegin
  2
*D21
 70
     1
 10
0.0
 20
0.0
 30
0.0
  3
*D21
  1

  0
LINE
  5
D3B
330
C5E
100
AcDbEntity
  8
Bemaßungen(DIN)
  6
Continuous
 62
     7
370
    25
100
AcDbLine
 10
1425.820955612103
 20
1603.957534935748
 30
0.0
 11
1670.079071633267
 21
1603.957534935747
 31
0.0
  0
LINE
  5
D3C
330
C5E
100
AcDbEntity
  8
Bemaßungen(DIN)
  6
Continuous
 62
     7
370
    25
100
AcDbLine
 10
1315.820955612103
 20
1502.457534935744
 30
0.0
 11
1670.079071633266
 21
1502.457534935744
 31
0.0
  0
LINE
  5
D3D
330
C5E
100
AcDbEntity
  8
Bemaßungen(DIN)
  6
Continuous
 62
     7
370
    25
100
AcDbLine
 10
1644.079071633267
 20
1655.957534935748
 30
0.0
 11
1644.079071633267
 21
1707.957534935748
 31
0.0
  0
LINE
  5
D3E
330
C5E
100
AcDbEntity
  8
Bemaßungen(DIN)
  6
Continuous
 62
     7
370
    25
100
AcDbLine
 10
1644.079071633266
 20
1450.457534935743
 30
0.0
 11
1644.079071633266
 21
1381.727720669004
 31
0.0
  0
LINE
  5
D3F
330
C5E
100
AcDbEntity
  8
Bemaßungen(DIN)
  6
Continuous
 62
     7
370
    25
100
AcDbLine
 10
1644.079071633266
 20
1381.727720669004
 30
0.0
 11
1592.079071633266
 21
1381.727720669004
 31
0.0
  0
SOLID
  5
D40
330
C5E
100
AcDbEntity
  8
Bemaßungen(DIN)
  6
Continuous
 62
     7
100
AcDbTrace
 10
1635.4124049666
 20
1655.957534935748
 30
0.0
 11
1652.745738299932
 21
1655.957534935748
 31
0.0
 12
1644.079071633267
 22
1603.957534935747
 32
0.0
 13
1644.079071633267
 23
1603.957534935747
 33
0.0
  0
SOLID
  5
D41
330
C5E
100
AcDbEntity
  8
Bemaßungen(DIN)
  6
Continuous
 62
     7
100
AcDbTrace
 10
1635.4124049666
 20
1450.457534935743
 30
0.0
 11
1652.745738299932
 21
1450.457534935743
 31
0.0
 12
1644.079071633266
 22
1502.457534935744
 32
0.0
 13
1644.079071633266
 23
1502.457534935744
 33
0.0
  0
MTEXT
  5
D42
330
C5E
100
AcDbEntity
  8
Bemaßungen(DIN)
  6
Continuous
 62
     7
370
    30
100
AcDbMText
 10
1480.56283959094
 20
1381.727720669005
 30
0.0
 40
52.0
 41
0.0
 71
     4
 72
     1
  1
\A1;102
  7
Text__4.0mm
 73
     1
 44
1.0
1001
ACAD
1000
MTEXTBEGIN
1070
    73
1070
     1
1070
    44
1040
1.0
1070
    74
1070
     0
1000
MTEXTEND
  0
POINT
  5
D43
330
C5E
100
AcDbEntity
  8
Defpoints
  6
Continuous
 62
     0
100
AcDbPoint
 10
1399.820955612103
 20
1603.957534935748
 30
0.0
  0
POINT
  5
D44
330
C5E
100
AcDbEntity
  8
Defpoints
  6
Continuous
 62
     0
100
AcDbPoint
 10
1289.820955612103
 20
1502.457534935744
 30
0.0
  0
POINT
  5
D45
330
C5E
100
AcDbEntity
  8
Defpoints
  6
Continuous
 62
     0
100
AcDbPoint
 10
1644.079071633266
 20
1502.457534935744
 30
0.0
  0
ENDBLK
  5
C60
330
C5E
100
AcDbEntity
  8
0
100
AcDbBlockEnd
  0
BLOCK
  5
D48
330
D47
100
AcDbEntity
  8
0
100
AcDbBlockBegin
  2
*D22
 70
     1
 10
0.0
 20
0.0
 30
0.0
  3
*D22
  1

  0
LINE
  5
E1C
330
D47
100
AcDbEntity
  8
Bemaßungen(DIN)
  6
Continuous
 62
     7
370
    25
100
AcDbLine
 10
1329.820955612103
 20
1489.957534935743
 30
0.0
 11
1329.820955612103
 21
1775.975992528273
 31
0.0
  0
LINE
  5
E1D
330
D47
100
AcDbEntity
  8
Bemaßungen(DIN)
  6
Continuous
 62
     7
370
    25
100
AcDbLine
 10
1399.820955612103
 20
1629.957534935748
 30
0.0
 11
1399.820955612103
 21
1775.975992528273
 31
0.0
  0
LINE
  5
E1E
330
D47
100
AcDbEntity
  8
Bemaßungen(DIN)
  6
Continuous
 62
     7
370
    25
100
AcDbLine
 10
1451.820955612103
 20
1749.975992528274
 30
0.0
 11
1503.820955612103
 21
1749.975992528274
 31
0.0
  0
LINE
  5
E1F
330
D47
100
AcDbEntity
  8
Bemaßungen(DIN)
  6
Continuous
 62
     7
370
    25
100
AcDbLine
 10
1277.820955612103
 20
1749.975992528274
 30
0.0
 11
1225.820955612103
 21
1749.975992528274
 31
0.0
  0
SOLID
  5
E20
330
D47
100
AcDbEntity
  8
Bemaßungen(DIN)
  6
Continuous
 62
     7
100
AcDbTrace
 10
1451.820955612103
 20
1758.64265919494
 30
0.0
 11
1451.820955612103
 21
1741.309325861607
 31
0.0
 12
1399.820955612103
 22
1749.975992528274
 32
0.0
 13
1399.820955612103
 23
1749.975992528274
 33
0.0
  0
SOLID
  5
E21
330
D47
100
AcDbEntity
  8
Bemaßungen(DIN)
  6
Continuous
 62
     7
100
AcDbTrace
 10
1277.820955612103
 20
1758.64265919494
 30
0.0
 11
1277.820955612103
 21
1741.309325861607
 31
0.0
 12
1329.820955612103
 22
1749.975992528274
 32
0.0
 13
1329.820955612103
 23
1749.975992528274
 33
0.0
  0
MTEXT
  5
E22
330
D47
100
AcDbEntity
  8
Bemaßungen(DIN)
  6
Continuous
 62
     7
370
    30
100
AcDbMText
 10
1146.324095163573
 20
1749.975992528274
 30
0.0
 40
52.0
 41
0.0
 71
     4
 72
     1
  1
\A1;70
  7
Text__4.0mm
 73
     1
 44
1.0
1001
ACAD
1000
MTEXTBEGIN
1070
    73
1070
     1
1070
    44
1040
1.0
1070
    74
1070
     0
1000
MTEXTEND
  0
POINT
  5
E23
330
D47
100
AcDbEntity
  8
Defpoints
  6
Continuous
 62
     0
100
AcDbPoint
 10
1329.820955612103
 20
1463.957534935743
 30
0.0
  0
POINT
  5
E24
330
D47
100
AcDbEntity
  8
Defpoints
  6
Continuous
 62
     0
100
AcDbPoint
 10
1399.820955612103
 20
1603.957534935748
 30
0.0
  0
POINT
  5
E25
330
D47
100
AcDbEntity
  8
Defpoints
  6
Continuous
 62
     0
100
AcDbPoint
 10
1399.820955612103
 20
1749.975992528274
 30
0.0
  0
ENDBLK
  5
D49
330
D47
100
AcDbEntity
  8
0
100
AcDbBlockEnd
  0
BLOCK
  5
E2C
330
E2B
100
AcDbEntity
  8
0
100
AcDbBlockBegin
  2
*D23
 70
     1
 10
0.0
 20
0.0
 30
0.0
  3
*D23
  1

  0
LINE
  5
F00
330
E2B
100
AcDbEntity
  8
Bemaßungen(DIN)
  6
Continuous
 62
     7
370
    25
100
AcDbLine
 10
426.8209556127275
 20
2635.310086133393
 30
0.0
 11
426.8209556127275
 21
2765.310086133393
 31
0.0
  0
LINE
  5
F01
330
E2B
100
AcDbEntity
  8
Bemaßungen(DIN)
  6
Continuous
 62
     7
370
    25
100
AcDbLine
 10
1372.820955612727
 20
2635.310086133393
 30
0.0
 11
1372.820955612727
 21
2765.310086133393
 31
0.0
  0
LINE
  5
F02
330
E2B
100
AcDbEntity
  8
Bemaßungen(DIN)
  6
Continuous
 62
     7
370
    25
100
AcDbLine
 10
478.8209556127275
 20
2739.310086133393
 30
0.0
 11
835.1366459314165
 21
2739.310086133393
 31
0.0
  0
LINE
  5
F03
330
E2B
100
AcDbEntity
  8
Bemaßungen(DIN)
  6
Continuous
 62
     7
370
    25
100
AcDbLine
 10
1320.820955612727
 20
2739.310086133393
 30
0.0
 11
964.5052652940382
 21
2739.310086133393
 31
0.0
  0
SOLID
  5
F04
330
E2B
100
AcDbEntity
  8
Bemaßungen(DIN)
  6
Continuous
 62
     7
100
AcDbTrace
 10
478.8209556127275
 20
2747.97675280006
 30
0.0
 11
478.8209556127275
 21
2730.643419466727
 31
0.0
 12
426.8209556127275
 22
2739.310086133393
 32
0.0
 13
426.8209556127275
 23
2739.310086133393
 33
0.0
  0
SOLID
  5
F05
330
E2B
100
AcDbEntity
  8
Bemaßungen(DIN)
  6
Continuous
 62
     7
100
AcDbTrace
 10
1320.820955612727
 20
2747.97675280006
 30
0.0
 11
1320.820955612727
 21
2730.643419466727
 31
0.0
 12
1372.820955612727
 22
2739.310086133393
 32
0.0
 13
1372.820955612727
 23
2739.310086133393
 33
0.0
  0
MTEXT
  5
F06
330
E2B
100
AcDbEntity
  8
Bemaßungen(DIN)
  6
Continuous
 62
     7
370
    30
100
AcDbMText
 10
848.1366459314163
 20
2739.310086133393
 30
0.0
 40
52.0
 41
0.0
 71
     4
 72
     1
  1
\A1;946
  7
Text__4.0mm
 73
     1
 44
1.0
1001
ACAD
1000
MTEXTBEGIN
1070
    73
1070
     1
1070
    44
1040
1.0
1070
    74
1070
     0
1000
MTEXTEND
  0
POINT
  5
F07
330
E2B
100
AcDbEntity
  8
Defpoints
  6
Continuous
 62
     0
100
AcDbPoint
 10
426.8209556127275
 20
2609.310086133393
 30
0.0
  0
POINT
  5
F08
330
E2B
100
AcDbEntity
  8
Defpoints
  6
Continuous
 62
     0
100
AcDbPoint
 10
1372.820955612727
 20
2609.310086133393
 30
0.0
  0
POINT
  5
F09
330
E2B
100
AcDbEntity
  8
Defpoints
  6
Continuous
 62
     0
100
AcDbPoint
 10
1372.820955612727
 20
2739.310086133393
 30
0.0
  0
ENDBLK
  5
E2D
330
E2B
100
AcDbEntity
  8
0
100
AcDbBlockEnd
  0
BLOCK
  5
F0C
330
F0B
100
AcDbEntity
  8
0
100
AcDbBlockBegin
  2
*D24
 70
     1
 10
0.0
 20
0.0
 30
0.0
  3
*D24
  1

  0
LINE
  5
FE0
330
F0B
100
AcDbEntity
  8
Bemaßungen(DIN)
  6
Continuous
 62
     7
370
    25
100
AcDbLine
 10
1903.183621914241
 20
2635.310086133393
 30
0.0
 11
1903.183621914241
 21
2765.310086133393
 31
0.0
  0
LINE
  5
FE1
330
F0B
100
AcDbEntity
  8
Bemaßungen(DIN)
  6
Continuous
 62
     7
370
    25
100
AcDbLine
 10
2335.183621914242
 20
2635.310086133393
 30
0.0
 11
2335.183621914242
 21
2765.310086133393
 31
0.0
  0
LINE
  5
FE2
330
F0B
100
AcDbEntity
  8
Bemaßungen(DIN)
  6
Continuous
 62
     7
370
    25
100
AcDbLine
 10
1955.183621914241
 20
2739.310086133393
 30
0.0
 11
2053.781031215123
 21
2739.310086133393
 31
0.0
  0
LINE
  5
FE3
330
F0B
100
AcDbEntity
  8
Bemaßungen(DIN)
  6
Continuous
 62
     7
370
    25
100
AcDbLine
 10
2283.183621914242
 20
2739.310086133393
 30
0.0
 11
2184.586212613359
 21
2739.310086133393
 31
0.0
  0
SOLID
  5
FE4
330
F0B
100
AcDbEntity
  8
Bemaßungen(DIN)
  6
Continuous
 62
     7
100
AcDbTrace
 10
1955.183621914241
 20
2747.97675280006
 30
0.0
 11
1955.183621914241
 21
2730.643419466727
 31
0.0
 12
1903.183621914241
 22
2739.310086133393
 32
0.0
 13
1903.183621914241
 23
2739.310086133393
 33
0.0
  0
SOLID
  5
FE5
330
F0B
100
AcDbEntity
  8
Bemaßungen(DIN)
  6
Continuous
 62
     7
100
AcDbTrace
 10
2283.183621914242
 20
2747.97675280006
 30
0.0
 11
2283.183621914242
 21
2730.643419466727
 31
0.0
 12
2335.183621914242
 22
2739.310086133393
 32
0.0
 13
2335.183621914242
 23
2739.310086133393
 33
0.0
  0
MTEXT
  5
FE6
330
F0B
100
AcDbEntity
  8
Bemaßungen(DIN)
  6
Continuous
 62
     7
370
    30
100
AcDbMText
 10
2066.781031215123
 20
2739.310086133393
 30
0.0
 40
52.0
 41
0.0
 71
     4
 72
     1
  1
\A1;432
  7
Text__4.0mm
 73
     1
 44
1.0
1001
ACAD
1000
MTEXTBEGIN
1070
    73
1070
     1
1070
    44
1040
1.0
1070
    74
1070
     0
1000
MTEXTEND
  0
POINT
  5
FE7
330
F0B
100
AcDbEntity
  8
Defpoints
  6
Continuous
 62
     0
100
AcDbPoint
 10
1903.183621914241
 20
2609.310086133393
 30
0.0
  0
POINT
  5
FE8
330
F0B
100
AcDbEntity
  8
Defpoints
  6
Continuous
 62
     0
100
AcDbPoint
 10
2335.183621914242
 20
2609.310086133393
 30
0.0
  0
POINT
  5
FE9
330
F0B
100
AcDbEntity
  8
Defpoints
  6
Continuous
 62
     0
100
AcDbPoint
 10
2335.183621914242
 20
2739.310086133393
 30
0.0
  0
ENDBLK
  5
F0D
330
F0B
100
AcDbEntity
  8
0
100
AcDbBlockEnd
  0
BLOCK
  5
FEC
330
FEB
100
AcDbEntity
  8
0
100
AcDbBlockBegin
  2
*D25
 70
     1
 10
0.0
 20
0.0
 30
0.0
  3
*D25
  1

  0
LINE
  5
10C0
330
FEB
100
AcDbEntity
  8
Bemaßungen(DIN)
  6
Continuous
 62
     7
370
    25
100
AcDbLine
 10
422.8209556127275
 20
2540.810086133393
 30
0.0
 11
422.8209556127275
 21
2410.810086133393
 31
0.0
  0
LINE
  5
10C1
330
FEB
100
AcDbEntity
  8
Bemaßungen(DIN)
  6
Continuous
 62
     7
370
    25
100
AcDbLine
 10
430.8209556127277
 20
2540.810086133393
 30
0.0
 11
430.8209556127277
 21
2410.810086133393
 31
0.0
  0
LINE
  5
10C2
330
FEB
100
AcDbEntity
  8
Bemaßungen(DIN)
  6
Continuous
 62
     7
370
    25
100
AcDbLine
 10
370.8209556127275
 20
2436.810086133393
 30
0.0
 11
318.8209556127275
 21
2436.810086133393
 31
0.0
  0
LINE
  5
10C3
330
FEB
100
AcDbEntity
  8
Bemaßungen(DIN)
  6
Continuous
 62
     7
370
    25
100
AcDbLine
 10
482.8209556127275
 20
2436.810086133393
 30
0.0
 11
535.3737601133647
 21
2436.810086133393
 31
0.0
  0
SOLID
  5
10C4
330
FEB
100
AcDbEntity
  8
Bemaßungen(DIN)
  6
Continuous
 62
     7
100
AcDbTrace
 10
370.8209556127275
 20
2445.47675280006
 30
0.0
 11
370.8209556127275
 21
2428.143419466727
 31
0.0
 12
422.8209556127275
 22
2436.810086133393
 32
0.0
 13
422.8209556127275
 23
2436.810086133393
 33
0.0
  0
SOLID
  5
10C5
330
FEB
100
AcDbEntity
  8
Bemaßungen(DIN)
  6
Continuous
 62
     7
100
AcDbTrace
 10
482.8209556127275
 20
2445.47675280006
 30
0.0
 11
482.8209556127275
 21
2428.143419466727
 31
0.0
 12
430.8209556127277
 22
2436.810086133393
 32
0.0
 13
430.8209556127277
 23
2436.810086133393
 33
0.0
  0
MTEXT
  5
10C6
330
FEB
100
AcDbEntity
  8
Bemaßungen(DIN)
  6
Continuous
 62
     7
370
    30
100
AcDbMText
 10
548.3737601133647
 20
2436.810086133393
 30
0.0
 40
52.0
 41
0.0
 71
     4
 72
     1
  1
\A1;\fArial|b0|i0;\H52.0000;M8
  7
Text__4.0mm
 73
     1
 44
1.0
1001
ACAD
1000
MTEXTBEGIN
1070
    73
1070
     1
1070
    44
1040
1.0
1070
    74
1070
     0
1000
MTEXTEND
  0
POINT
  5
10C7
330
FEB
100
AcDbEntity
  8
Defpoints
  6
Continuous
 62
     0
100
AcDbPoint
 10
422.8209556127275
 20
2566.810086133393
 30
0.0
  0
POINT
  5
10C8
330
FEB
100
AcDbEntity
  8
Defpoints
  6
Continuous
 62
     0
100
AcDbPoint
 10
430.8209556127277
 20
2566.810086133393
 30
0.0
  0
POINT
  5
10C9
330
FEB
100
AcDbEntity
  8
Defpoints
  6
Continuous
 62
     0
100
AcDbPoint
 10
430.8209556127277
 20
2436.810086133393
 30
0.0
  0
ENDBLK
  5
FED
330
FEB
100
AcDbEntity
  8
0
100
AcDbBlockEnd
  0
ENDSEC
  0
SECTION
  2
ENTITIES
  0
INSERT
  5
297
330
75
100
AcDbEntity
  8
0
100
AcDbBlockReference
 66
     1
  2
Title Blocks WS-Marketing-FUN
 10
-1099.8
 20
-1238.564502670245
 30
0.0
 41
13.0
 42
13.0
 43
13.0
  0
ATTRIB
  5
299
330
297
100
AcDbEntity
  8
Symbols(ISO)
 62
     7
100
AcDbText
 10
1586.0
 20
367.2500000000009
 30
0.0
 40
65.0
  1
Franke Plaster sink LH
  7
Parts-List_2.0mm
 11
1586.0
 21
399.7500000000009
 31
0.0
100
AcDbAttribute
  2
Title
 70
     0
 74
     2
  0
ATTRIB
  5
29A
330
297
100
AcDbEntity
  8
Symbols(ISO)
 62
     7
100
AcDbText
 10
1586.000000000001
 20
292.500000387431
 30
0.0
 40
45.4999992251396
  1

  7
Parts-List_2.0mm
 11
1586.000000000001
 21
315.2500000000008
 31
0.0
100
AcDbAttribute
  2
Auxiliary_Remark1
 70
     0
 74
     2
  0
ATTRIB
  5
29B
330
297
100
AcDbEntity
  8
Symbols(ISO)
 62
     7
100
AcDbText
 10
1586.0
 20
208.0000003874312
 30
0.0
 40
45.4999992251396
  1

  7
Parts-List_2.0mm
 11
1586.0
 21
230.750000000001
 31
0.0
100
AcDbAttribute
  2
Auxiliary_Remark2
 70
     0
 74
     2
  0
ATTRIB
  5
29C
330
297
100
AcDbEntity
  8
Symbols(ISO)
 62
     7
100
AcDbText
 10
2125.5
 20
578.5000000000008
 30
0.0
 40
32.5
  1
SIRX835
  7
Parts-List_2.0mm
 11
2125.5
 21
594.7500000000007
 31
0.0
100
AcDbAttribute
  2
Part_number
 70
     0
 74
     2
  0
ATTRIB
  5
29D
330
297
100
AcDbEntity
  8
Symbols(ISO)
 62
     7
100
AcDbText
 10
1735.5
 20
84.50000000000001
 30
0.0
 40
65.0
  1
0093-122457
  7
Parts-List_2.0mm
 11
1735.5
 21
117.0
 31
0.0
100
AcDbAttribute
  2
Document_Number
 70
     0
 74
     2
  0
ATTRIB
  5
29E
330
297
100
AcDbEntity
  8
Symbols(ISO)
 62
     7
100
AcDbText
 10
923.0
 20
529.7499996125703
 30
0.0
 40
26.00000038743019
  1

  7
Parts-List_2.0mm
 11
923.0
 21
555.7500000000005
 31
0.0
100
AcDbAttribute
  2
Revision_Memo_1
 70
     0
 74
     3
  0
ATTRIB
  5
29F
330
297
100
AcDbEntity
  8
Symbols(ISO)
 62
     7
100
AcDbText
 10
2340.0
 20
84.4999999999993
 30
0.0
 40
65.0
  1
F
  7
Parts-List_2.0mm
 11
2340.0
 21
116.9999999999993
 31
0.0
100
AcDbAttribute
  2
Revision_Index_1
 70
     0
 74
     2
  0
ATTRIB
  5
2A0
330
297
100
AcDbEntity
  8
Symbols(ISO)
 62
     7
100
AcDbText
 10
1573.0
 20
84.50000000000001
 30
0.0
 40
65.0
  1
A4
  7
Parts-List_2.0mm
 11
1573.0
 21
117.0
 31
0.0
100
AcDbAttribute
  2
Sheet_Size
 70
     0
 74
     2
  0
ATTRIB
  5
2A1
330
297
100
AcDbEntity
  8
Symbols(ISO)
 62
     7
100
AcDbText
 10
77.99999999999973
 20
581.7499998062857
 30
0.0
 40
26.00000038743019
  1
HK034
  7
Parts-List_2.0mm
 11
77.99999999999973
 21
594.7500000000007
 31
0.0
100
AcDbAttribute
  2
Drawn_By
 70
     0
 74
     2
  0
ATTRIB
  5
2A2
330
297
100
AcDbEntity
  8
Symbols(ISO)
 62
     7
100
AcDbText
 10
77.99999999999973
 20
484.2499998062859
 30
0.0
 40
26.00000038743019
  1
CJ036
  7
Parts-List_2.0mm
 11
77.99999999999973
 21
497.2500000000009
 31
0.0
100
AcDbAttribute
  2
Modified_By
 70
     0
 74
     2
  0
ATTRIB
  5
2A3
330
297
100
AcDbEntity
  8
Symbols(ISO)
 62
     7
100
AcDbText
 10
663.0
 20
581.7499998062857
 30
0.0
 40
26.00000038743019
  1
18/01/2010
  7
Parts-List_2.0mm
 11
663.0
 21
594.7500000000007
 31
0.0
100
AcDbAttribute
  2
Drawn_Date
 70
     0
 74
     2
  0
ATTRIB
  5
2A4
330
297
100
AcDbEntity
  8
Symbols(ISO)
 62
     7
100
AcDbText
 10
663.0
 20
484.2499998062859
 30
0.0
 40
26.00000038743019
  1
08/03/2010
  7
Parts-List_2.0mm
 11
663.0
 21
497.2500000000009
 31
0.0
100
AcDbAttribute
  2
Modified_Date
 70
     0
 74
     2
  0
ATTRIB
  5
2A5
330
297
100
AcDbEntity
  8
Symbols(ISO)
 62
     7
100
AcDbText
 10
923.0
 20
581.7499998062851
 30
0.0
 40
26.00000038743019
  1

  7
Parts-List_2.0mm
 11
923.0
 21
594.7500000000002
 31
0.0
100
AcDbAttribute
  2
Revision_Titel_1
 70
     0
 74
     2
  0
ATTRIB
  5
2A6
330
297
100
AcDbEntity
  8
Symbols(ISO)
 62
     7
100
AcDbText
 10
2484.671556155158
 20
84.4999999999993
 30
0.0
 40
65.0
  1
1 
 41
0.899999976158142
  7
Text__5.0mm
 72
     1
 11
2518.75
 21
116.9999999999993
 31
0.0
100
AcDbAttribute
  2
Sheet_number
 70
     0
 74
     2
  0
ATTRIB
  5
2A7
330
297
100
AcDbEntity
  8
Symbols(ISO)
 62
     7
100
AcDbText
 10
2582.171556155158
 20
84.4999999999993
 30
0.0
 40
65.0
  1
4 
 41
0.899999976158142
  7
Text__5.0mm
 72
     1
 11
2616.25
 21
116.9999999999993
 31
0.0
100
AcDbAttribute
  2
Number_of_sheets
 70
     0
 74
     2
  0
ATTRIB
  5
2A8
330
297
100
AcDbEntity
  8
Symbols(ISO)
 62
     7
100
AcDbText
 10
1573.0
 20
481.0000000000008
 30
0.0
 40
32.5
  1

  7
Parts-List_2.0mm
 11
1573.0
 21
497.2500000000009
 31
0.0
100
AcDbAttribute
  2
FUN
 70
     0
 74
     2
  0
ATTRIB
  5
2A9
330
297
100
AcDbEntity
  8
Symbols(ISO)
 62
     7
100
AcDbText
 10
2125.5
 20
481.0000000000008
 30
0.0
 40
32.5
  1
7612210016974
  7
Parts-List_2.0mm
 11
2125.5
 21
497.2500000000009
 31
0.0
100
AcDbAttribute
  2
EAN
 70
     0
 74
     2
  0
ATTRIB
  5
2AA
330
297
100
AcDbEntity
  8
Symbols(ISO)
 62
     7
100
AcDbText
 10
337.9999999999997
 20
484.2499998062859
 30
0.0
 40
26.00000038743019
  1
FSI-Marketing
  7
Parts-List_2.0mm
 11
337.9999999999997
 21
497.2500000000009
 31
0.0
100
AcDbAttribute
  2
Departement
 70
     0
 74
     2
  0
ATTRIB
  5
2AB
330
297
100
AcDbEntity
  8
Symbols(ISO)
 62
     7
100
AcDbText
 10
337.9999999999997
 20
581.7499998062857
 30
0.0
 40
26.00000038743019
  1
FSI-Marketing
  7
Parts-List_2.0mm
 11
337.9999999999997
 21
594.7500000000007
 31
0.0
100
AcDbAttribute
  2
Departement
 70
     0
 74
     2
  0
SEQEND
  5
298
330
297
100
AcDbEntity
  8
0
  0
INSERT
  5
2B7
330
75
100
AcDbEntity
  8
0
100
AcDbBlockReference
  2
Borders Verkauf Border_85x80
 10
0.0
 20
0.0
 30
0.0
 41
13.0
 42
13.0
 43
13.0
  0
LINE
  5
2B8
330
75
100
AcDbEntity
  8
MaHiddenEdge
100
AcDbLine
 10
1367.820955612727
 20
2576.810086133393
 30
0.0
 11
1377.820955612727
 21
2576.810086133393
 31
0.0
  0
LINE
  5
2B9
330
75
100
AcDbEntity
  8
MaHiddenEdge
100
AcDbLine
 10
421.8209556127275
 20
2576.810086133392
 30
0.0
 11
431.8209556127275
 21
2576.810086133392
 31
0.0
  0
LINE
  5
2BA
330
75
100
AcDbEntity
  8
MaHiddenEdge
100
AcDbLine
 10
1367.820955612727
 20
2567.810086133393
 30
0.0
 11
1367.820955612727
 21
2576.810086133393
 31
0.0
  0
LINE
  5
2BB
330
75
100
AcDbEntity
  8
MaHiddenEdge
100
AcDbLine
 10
1377.820955612727
 20
2567.810086133393
 30
0.0
 11
1377.820955612727
 21
2576.810086133393
 31
0.0
  0
LINE
  5
2BC
330
75
100
AcDbEntity
  8
MaHiddenEdge
100
AcDbLine
 10
421.8209556127275
 20
2567.810086133393
 30
0.0
 11
421.8209556127275
 21
2576.810086133392
 31
0.0
  0
LINE
  5
2BD
330
75
100
AcDbEntity
  8
MaHiddenEdge
100
AcDbLine
 10
431.8209556127277
 20
2567.810086133393
 30
0.0
 11
431.8209556127277
 21
2576.810086133392
 31
0.0
  0
LINE
  5
2BE
330
75
100
AcDbEntity
  8
MaHiddenEdge
100
AcDbLine
 10
1398.320955612727
 20
2567.810086133393
 30
0.0
 11
1359.820955612727
 21
2567.810086133393
 31
0.0
  0
LINE
  5
2BF
330
75
100
AcDbEntity
  8
MaHiddenEdge
100
AcDbLine
 10
1359.820955612727
 20
2567.810086133393
 30
0.0
 11
1359.820955612727
 21
2566.810086133393
 31
0.0
  0
LINE
  5
2C0
330
75
100
AcDbEntity
  8
MaHiddenEdge
100
AcDbLine
 10
439.8209556127277
 20
2567.810086133393
 30
0.0
 11
401.3209556127277
 21
2567.810086133393
 31
0.0
  0
LINE
  5
2C1
330
75
100
AcDbEntity
  8
MaHiddenEdge
100
AcDbLine
 10
439.8209556127277
 20
2566.810086133393
 30
0.0
 11
439.8209556127277
 21
2567.810086133393
 31
0.0
  0
LINE
  5
2C2
330
75
100
AcDbEntity
  8
MaVisibleEdge
100
AcDbLine
 10
1399.820955612728
 20
2616.810086133393
 30
0.0
 11
1399.820955612728
 21
2566.810086133393
 31
0.0
  0
LINE
  5
2C3
330
75
100
AcDbEntity
  8
MaVisibleEdge
100
AcDbLine
 10
399.8209556127278
 20
2616.810086133393
 30
0.0
 11
399.8209556127278
 21
2566.810086133393
 31
0.0
  0
LINE
  5
2C4
330
75
100
AcDbEntity
  8
MaVisibleEdge
100
AcDbLine
 10
1399.820955612728
 20
2566.810086133393
 30
0.0
 11
399.8209556127278
 21
2566.810086133393
 31
0.0
  0
LINE
  5
2C5
330
75
100
AcDbEntity
  8
MaVisibleEdge
100
AcDbLine
 10
1399.820955612728
 20
2616.810086133393
 30
0.0
 11
399.8209556127278
 21
2616.810086133393
 31
0.0
  0
LINE
  5
2C6
330
75
100
AcDbEntity
  8
MaVisibleEdge
100
AcDbLine
 10
829.8209556127275
 20
2422.810086133392
 30
0.0
 11
829.8209556127275
 21
2566.810086133393
 31
0.0
  0
LINE
  5
2C7
330
75
100
AcDbEntity
  8
MaVisibleEdge
100
AcDbLine
 10
1289.820955612728
 20
2402.810086133392
 30
0.0
 11
869.8209556127274
 21
2402.810086133392
 31
0.0
  0
LINE
  5
2C8
330
75
100
AcDbEntity
  8
MaVisibleEdge
100
AcDbLine
 10
849.8209556127275
 20
2402.810086133392
 30
0.0
 11
869.8209556127274
 21
2402.810086133392
 31
0.0
  0
LINE
  5
2C9
330
75
100
AcDbEntity
  8
MaVisibleEdge
100
AcDbLine
 10
1289.820955612728
 20
2402.810086133392
 30
0.0
 11
1309.820955612728
 21
2402.810086133392
 31
0.0
  0
LINE
  5
2CA
330
75
100
AcDbEntity
  8
MaVisibleEdge
100
AcDbLine
 10
1329.820955612727
 20
2422.810086133392
 30
0.0
 11
1329.820955612727
 21
2566.810086133393
 31
0.0
  0
ARC
  5
2CB
330
75
100
AcDbEntity
  8
MaVisibleEdge
100
AcDbCircle
 10
849.8209556127275
 20
2422.810086133392
 30
0.0
 40
20.0
100
AcDbArc
 50
180.0
 51
270.0
  0
ARC
  5
2CC
330
75
100
AcDbEntity
  8
MaVisibleEdge
100
AcDbCircle
 10
1309.820955612728
 20
2422.810086133392
 30
0.0
 40
20.0
100
AcDbArc
 50
270.0
 51
0.0
  0
LINE
  5
2CD
330
75
100
AcDbEntity
  8
MaVisibleEdge
100
AcDbLine
 10
949.8209556127276
 20
2202.810086133393
 30
0.0
 11
1209.820955612727
 21
2202.810086133393
 31
0.0
  0
LINE
  5
2CE
330
75
100
AcDbEntity
  8
MaVisibleEdge
100
AcDbLine
 10
1099.820955612727
 20
2198.163882649024
 30
0.0
 11
1059.820955612727
 21
2198.163882649024
 31
0.0
  0
LINE
  5
2CF
330
75
100
AcDbEntity
  8
MaVisibleEdge
100
AcDbLine
 10
929.8209556127275
 20
2222.810086133393
 30
0.0
 11
929.8209556127275
 21
2402.810086133392
 31
0.0
  0
LINE
  5
2D0
330
75
100
AcDbEntity
  8
MaVisibleEdge
100
AcDbLine
 10
1229.820955612727
 20
2222.810086133393
 30
0.0
 11
1229.820955612727
 21
2402.810086133392
 31
0.0
  0
ARC
  5
2D1
330
75
100
AcDbEntity
  8
MaVisibleEdge
100
AcDbCircle
 10
1209.820955612727
 20
2222.810086133393
 30
0.0
 40
20.0
100
AcDbArc
 50
270.0
 51
0.0
  0
ARC
  5
2D2
330
75
100
AcDbEntity
  8
MaVisibleEdge
100
AcDbCircle
 10
949.8209556127276
 20
2222.810086133393
 30
0.0
 40
20.0
100
AcDbArc
 50
180.0
 51
270.0
  0
ARC
  5
2D3
330
75
100
AcDbEntity
  8
MaVisibleEdge
100
AcDbCircle
 10
1059.820955612727
 20
2205.163882649024
 30
0.0
 40
7.0
100
AcDbArc
 50
214.6807461734163
 51
270.0
  0
ARC
  5
2D4
330
75
100
AcDbEntity
  8
MaVisibleEdge
100
AcDbCircle
 10
1099.820955612727
 20
2205.163882649024
 30
0.0
 40
7.0
100
AcDbArc
 50
270.0
 51
325.3192538265836
  0
ARC
  5
2D5
330
75
100
AcDbEntity
  8
MaVisibleEdge
100
AcDbCircle
 10
1045.018920270029
 20
2194.921824764326
 30
0.0
 40
11.0
100
AcDbArc
 50
34.68074617341417
 51
45.81677316716534
  0
ARC
  5
2D6
330
75
100
AcDbEntity
  8
MaVisibleEdge
100
AcDbCircle
 10
1114.622990955425
 20
2194.921824764326
 30
0.0
 40
11.0
100
AcDbArc
 50
134.183226832833
 51
145.3192538265838
  0
LINE
  5
2D7
330
75
100
AcDbEntity
  8
MaHiddenEdge
100
AcDbLine
 10
401.3209556127275
 20
2615.310086133393
 30
0.0
 11
401.3209556127277
 21
2567.810086133393
 31
0.0
  0
LINE
  5
2D8
330
75
100
AcDbEntity
  8
MaHiddenEdge
100
AcDbLine
 10
1398.320955612727
 20
2615.310086133393
 30
0.0
 11
401.3209556127275
 21
2615.310086133393
 31
0.0
  0
LINE
  5
2D9
330
75
100
AcDbEntity
  8
MaHiddenEdge
100
AcDbLine
 10
1398.320955612727
 20
2615.310086133393
 30
0.0
 11
1398.320955612727
 21
2567.810086133393
 31
0.0
  0
LINE
  5
2DA
330
75
100
AcDbEntity
  8
MaHiddenEdge
100
AcDbLine
 10
401.3209556127277
 20
2568.310086133393
 30
0.0
 11
1398.320955612727
 21
2568.310086133393
 31
0.0
  0
LINE
  5
2DB
330
75
100
AcDbEntity
  8
MaHiddenEdge
100
AcDbLine
 10
1099.820955612727
 20
2199.663882649024
 30
0.0
 11
1059.820955612727
 21
2199.663882649024
 31
0.0
  0
LINE
  5
2DC
330
75
100
AcDbEntity
  8
MaHiddenEdge
100
AcDbLine
 10
831.3209556127276
 20
2602.810086133393
 30
0.0
 11
831.3209556127276
 21
2424.310086133393
 31
0.0
  0
LINE
  5
2DD
330
75
100
AcDbEntity
  8
MaHiddenEdge
100
AcDbLine
 10
1341.820955612728
 20
2601.310086133393
 30
0.0
 11
1381.320955612727
 21
2601.310086133393
 31
0.0
  0
LINE
  5
2DE
330
75
100
AcDbEntity
  8
MaHiddenEdge
100
AcDbLine
 10
1341.820955612728
 20
2601.310086133393
 30
0.0
 11
457.8209556127275
 21
2601.310086133393
 31
0.0
  0
LINE
  5
2DF
330
75
100
AcDbEntity
  8
MaHiddenEdge
100
AcDbLine
 10
418.3209556127277
 20
2601.310086133393
 30
0.0
 11
457.8209556127275
 21
2601.310086133393
 31
0.0
  0
LINE
  5
2E0
330
75
100
AcDbEntity
  8
MaHiddenEdge
100
AcDbLine
 10
1381.320955612727
 20
2615.310086133393
 30
0.0
 11
1381.320955612727
 21
2601.310086133393
 31
0.0
  0
LINE
  5
2E1
330
75
100
AcDbEntity
  8
MaHiddenEdge
100
AcDbLine
 10
418.3209556127277
 20
2615.310086133393
 30
0.0
 11
418.3209556127277
 21
2601.310086133393
 31
0.0
  0
LINE
  5
2E2
330
75
100
AcDbEntity
  8
MaHiddenEdge
100
AcDbLine
 10
829.8209556127275
 20
2566.810086133393
 30
0.0
 11
829.8209556127275
 21
2601.310086133393
 31
0.0
  0
LINE
  5
2E3
330
75
100
AcDbEntity
  8
MaHiddenEdge
100
AcDbLine
 10
1360.742171584388
 20
2602.810086133393
 30
0.0
 11
1341.820955612728
 21
2602.810086133393
 31
0.0
  0
LINE
  5
2E4
330
75
100
AcDbEntity
  8
MaHiddenEdge
100
AcDbLine
 10
457.8209556127273
 20
2602.810086133393
 30
0.0
 11
438.8997396410663
 21
2602.810086133393
 31
0.0
  0
LINE
  5
2E5
330
75
100
AcDbEntity
  8
MaHiddenEdge
100
AcDbLine
 10
457.8209556127275
 20
2602.810086133393
 30
0.0
 11
1341.820955612728
 21
2602.810086133393
 31
0.0
  0
ARC
  5
2E6
330
75
100
AcDbEntity
  8
MaHiddenEdge
100
AcDbCircle
 10
438.8997396410669
 20
2622.810086133393
 30
0.0
 40
20.00000000000035
100
AcDbArc
 50
197.4576031237231
 51
269.9999999999993
  0
ARC
  5
2E7
330
75
100
AcDbEntity
  8
MaHiddenEdge
100
AcDbCircle
 10
1360.742171584389
 20
2622.810086133393
 30
0.0
 40
19.99999999999985
100
AcDbArc
 50
270.0
 51
342.5423968762792
  0
LINE
  5
2E8
330
75
100
AcDbEntity
  8
MaHiddenEdge
100
AcDbLine
 10
869.8209556127274
 20
2404.310086133393
 30
0.0
 11
851.3209556127275
 21
2404.310086133393
 31
0.0
  0
LINE
  5
2E9
330
75
100
AcDbEntity
  8
MaHiddenEdge
100
AcDbLine
 10
869.8209556127274
 20
2404.310086133393
 30
0.0
 11
1289.820955612728
 21
2404.310086133393
 31
0.0
  0
LINE
  5
2EA
330
75
100
AcDbEntity
  8
MaHiddenEdge
100
AcDbLine
 10
1308.320955612727
 20
2404.310086133393
 30
0.0
 11
1289.820955612728
 21
2404.310086133393
 31
0.0
  0
LINE
  5
2EB
330
75
100
AcDbEntity
  8
MaHiddenEdge
100
AcDbLine
 10
1328.320955612728
 20
2602.810086133393
 30
0.0
 11
1328.320955612728
 21
2424.310086133393
 31
0.0
  0
ARC
  5
2EC
330
75
100
AcDbEntity
  8
MaHiddenEdge
100
AcDbCircle
 10
851.3209556127272
 20
2424.310086133393
 30
0.0
 40
19.99999999999985
100
AcDbArc
 50
180.0
 51
270.0000000000009
  0
ARC
  5
2ED
330
75
100
AcDbEntity
  8
MaHiddenEdge
100
AcDbCircle
 10
1308.320955612727
 20
2424.310086133393
 30
0.0
 40
20.0
100
AcDbArc
 50
270.0
 51
0.0
  0
LINE
  5
2EE
330
75
100
AcDbEntity
  8
MaHiddenEdge
100
AcDbLine
 10
1208.320955612727
 20
2204.310086133392
 30
0.0
 11
951.3209556127277
 21
2204.310086133392
 31
0.0
  0
LINE
  5
2EF
330
75
100
AcDbEntity
  8
MaHiddenEdge
100
AcDbLine
 10
1329.820955612727
 20
2566.810086133393
 30
0.0
 11
1329.820955612727
 21
2601.310086133393
 31
0.0
  0
LINE
  5
2F0
330
75
100
AcDbEntity
  8
MaHiddenEdge
100
AcDbLine
 10
1098.870955612727
 20
2204.310086133392
 30
0.0
 11
1098.870955612727
 21
2202.810086133393
 31
0.0
  0
LINE
  5
2F1
330
75
100
AcDbEntity
  8
MaHiddenEdge
100
AcDbLine
 10
1060.770955612728
 20
2204.310086133392
 30
0.0
 11
1060.770955612728
 21
2202.810086133393
 31
0.0
  0
LINE
  5
2F2
330
75
100
AcDbEntity
  8
MaHiddenEdge
100
AcDbLine
 10
1098.870955612727
 20
2199.663882649024
 30
0.0
 11
1098.870955612727
 21
2198.163882649024
 31
0.0
  0
LINE
  5
2F3
330
75
100
AcDbEntity
  8
MaHiddenEdge
100
AcDbLine
 10
1060.770955612728
 20
2199.663882649024
 30
0.0
 11
1060.770955612728
 21
2198.163882649024
 31
0.0
  0
ARC
  5
2F4
330
75
100
AcDbEntity
  8
MaHiddenEdge
100
AcDbCircle
 10
1059.820955612727
 20
2205.163882649024
 30
0.0
 40
5.500000000000014
100
AcDbArc
 50
214.6807461734162
 51
270.0
  0
ARC
  5
2F5
330
75
100
AcDbEntity
  8
MaHiddenEdge
100
AcDbCircle
 10
1099.820955612727
 20
2205.163882649024
 30
0.0
 40
5.500000000000013
100
AcDbArc
 50
270.0
 51
325.3192538265839
  0
ARC
  5
2F6
330
75
100
AcDbEntity
  8
MaHiddenEdge
100
AcDbCircle
 10
1045.018920270029
 20
2194.921824764326
 30
0.0
 40
12.49999999999999
100
AcDbArc
 50
34.6807461734139
 51
39.12843795976967
  0
ARC
  5
2F7
330
75
100
AcDbEntity
  8
MaHiddenEdge
100
AcDbCircle
 10
1114.622990955425
 20
2194.921824764326
 30
0.0
 40
12.49999999999999
100
AcDbArc
 50
140.8715620402287
 51
145.3192538265837
  0
LINE
  5
2F8
330
75
100
AcDbEntity
  8
MaHiddenEdge
100
AcDbLine
 10
931.3209556127276
 20
2224.310086133392
 30
0.0
 11
931.3209556127276
 21
2404.310086133393
 31
0.0
  0
LINE
  5
2F9
330
75
100
AcDbEntity
  8
MaHiddenEdge
100
AcDbLine
 10
1228.320955612727
 20
2224.310086133392
 30
0.0
 11
1228.320955612727
 21
2404.310086133393
 31
0.0
  0
ARC
  5
2FA
330
75
100
AcDbEntity
  8
MaHiddenEdge
100
AcDbCircle
 10
1208.320955612727
 20
2224.310086133392
 30
0.0
 40
20.0
100
AcDbArc
 50
270.0
 51
0.0
  0
ARC
  5
2FB
330
75
100
AcDbEntity
  8
MaHiddenEdge
100
AcDbCircle
 10
951.3209556127277
 20
2224.310086133392
 30
0.0
 40
20.0
100
AcDbArc
 50
180.0
 51
270.0
  0
LINE
  5
2FC
330
75
100
AcDbEntity
  8
MaHiddenEdge
100
AcDbLine
 10
1147.150543509493
 20
2402.810086133392
 30
0.0
 11
1147.150543509493
 21
2404.310086133393
 31
0.0
  0
LINE
  5
2FD
330
75
100
AcDbEntity
  8
MaHiddenEdge
100
AcDbLine
 10
1012.491367715962
 20
2402.810086133392
 30
0.0
 11
1012.491367715962
 21
2404.310086133393
 31
0.0
  0
LINE
  5
2FE
330
75
100
AcDbEntity
  8
MaHiddenEdge
100
AcDbLine
 10
932.8209556127276
 20
2402.810086133392
 30
0.0
 11
932.8209556127276
 21
2404.310086133393
 31
0.0
  0
LINE
  5
2FF
330
75
100
AcDbEntity
  8
MaHiddenEdge
100
AcDbLine
 10
1226.820955612727
 20
2402.810086133392
 30
0.0
 11
1226.820955612727
 21
2404.310086133393
 31
0.0
  0
LINE
  5
300
330
75
100
AcDbEntity
  8
MaHiddenEdge
100
AcDbLine
 10
1369.497455612727
 20
2566.810086133393
 30
0.0
 11
1369.497455612727
 21
2576.810086133393
 31
0.0
  0
LINE
  5
301
330
75
100
AcDbEntity
  8
MaHiddenEdge
100
AcDbLine
 10
1376.144455612727
 20
2566.810086133393
 30
0.0
 11
1376.144455612727
 21
2576.810086133393
 31
0.0
  0
LINE
  5
302
330
75
100
AcDbEntity
  8
MaHiddenEdge
100
AcDbLine
 10
423.4974556127276
 20
2566.810086133393
 30
0.0
 11
423.4974556127276
 21
2576.810086133392
 31
0.0
  0
LINE
  5
303
330
75
100
AcDbEntity
  8
MaHiddenEdge
100
AcDbLine
 10
430.1444556127274
 20
2566.810086133393
 30
0.0
 11
430.1444556127274
 21
2576.810086133392
 31
0.0
  0
LINE
  5
304
330
75
100
AcDbEntity
  8
MaHiddenEdge
100
AcDbLine
 10
1368.820955612727
 20
2576.810086133393
 30
0.0
 11
1368.820955612727
 21
2566.810086133393
 31
0.0
  0
LINE
  5
305
330
75
100
AcDbEntity
  8
MaHiddenEdge
100
AcDbLine
 10
1376.820955612727
 20
2566.810086133393
 30
0.0
 11
1376.820955612727
 21
2576.810086133393
 31
0.0
  0
LINE
  5
306
330
75
100
AcDbEntity
  8
MaHiddenEdge
100
AcDbLine
 10
422.8209556127275
 20
2576.810086133392
 30
0.0
 11
422.8209556127275
 21
2566.810086133393
 31
0.0
  0
LINE
  5
307
330
75
100
AcDbEntity
  8
MaHiddenEdge
100
AcDbLine
 10
430.8209556127277
 20
2566.810086133393
 30
0.0
 11
430.8209556127277
 21
2576.810086133392
 31
0.0
  0
CIRCLE
  5
308
330
75
100
AcDbEntity
  8
MaHiddenEdge
100
AcDbCircle
 10
1372.820955612103
 20
1517.457534935736
 30
0.0
 40
3.3235
  0
CIRCLE
  5
309
330
75
100
AcDbEntity
  8
MaHiddenEdge
100
AcDbCircle
 10
1372.820955612103
 20
1085.457534935736
 30
0.0
 40
3.3235
  0
CIRCLE
  5
30A
330
75
100
AcDbEntity
  8
MaHiddenEdge
100
AcDbCircle
 10
426.8209556121034
 20
1517.457534935736
 30
0.0
 40
3.3235
  0
CIRCLE
  5
30B
330
75
100
AcDbEntity
  8
MaHiddenEdge
100
AcDbCircle
 10
426.8209556121034
 20
1085.457534935736
 30
0.0
 40
3.3235
  0
ARC
  5
30C
330
75
100
AcDbEntity
  8
MaHiddenEdge
100
AcDbCircle
 10
1372.820955612103
 20
1517.457534935736
 30
0.0
 40
3.999999999999877
100
AcDbArc
 50
350.0000000000061
 51
259.9999999999523
  0
ARC
  5
30D
330
75
100
AcDbEntity
  8
MaHiddenEdge
100
AcDbCircle
 10
1372.820955612103
 20
1085.457534935736
 30
0.0
 40
3.999999999999958
100
AcDbArc
 50
350.0000000000034
 51
259.9999999999528
  0
ARC
  5
30E
330
75
100
AcDbEntity
  8
MaHiddenEdge
100
AcDbCircle
 10
426.8209556121029
 20
1517.457534935736
 30
0.0
 40
3.999999999999918
100
AcDbArc
 50
350.0000000000028
 51
259.9999999999602
  0
ARC
  5
30F
330
75
100
AcDbEntity
  8
MaHiddenEdge
100
AcDbCircle
 10
426.8209556121029
 20
1085.457534935736
 30
0.0
 40
3.999999999999893
100
AcDbArc
 50
350.0000000000028
 51
259.9999999999602
  0
CIRCLE
  5
310
330
75
100
AcDbEntity
  8
MaHiddenEdge
100
AcDbCircle
 10
1372.820955612103
 20
1517.457534935736
 30
0.0
 40
5.0
  0
CIRCLE
  5
311
330
75
100
AcDbEntity
  8
MaHiddenEdge
100
AcDbCircle
 10
1372.820955612103
 20
1085.457534935736
 30
0.0
 40
5.0
  0
CIRCLE
  5
312
330
75
100
AcDbEntity
  8
MaHiddenEdge
100
AcDbCircle
 10
426.8209556121034
 20
1517.457534935736
 30
0.0
 40
5.0
  0
CIRCLE
  5
313
330
75
100
AcDbEntity
  8
MaHiddenEdge
100
AcDbCircle
 10
426.8209556121034
 20
1085.457534935736
 30
0.0
 40
5.0
  0
LINE
  5
314
330
75
100
AcDbEntity
  8
MaHiddenEdge
100
AcDbLine
 10
1359.820955612103
 20
1005.457534935733
 30
0.0
 11
1359.820955612103
 21
1588.957534935733
 31
0.0
  0
LINE
  5
315
330
75
100
AcDbEntity
  8
MaHiddenEdge
100
AcDbLine
 10
439.8209556121035
 20
1588.957534935733
 30
0.0
 11
439.8209556121035
 21
1005.457534935733
 31
0.0
  0
LINE
  5
316
330
75
100
AcDbEntity
  8
MaVisibleEdge
100
AcDbLine
 10
1399.820955612103
 20
1603.957534935748
 30
0.0
 11
1399.820955612103
 21
1003.957534935748
 31
0.0
  0
LINE
  5
317
330
75
100
AcDbEntity
  8
MaVisibleEdge
100
AcDbLine
 10
399.8209556121037
 20
1603.957534935747
 30
0.0
 11
1399.820955612103
 21
1603.957534935748
 31
0.0
  0
LINE
  5
318
330
75
100
AcDbEntity
  8
MaVisibleEdge
100
AcDbLine
 10
399.8209556121037
 20
1003.957534935748
 30
0.0
 11
399.8209556121037
 21
1603.957534935747
 31
0.0
  0
LINE
  5
319
330
75
100
AcDbEntity
  8
MaVisibleEdge
100
AcDbLine
 10
1399.820955612103
 20
1003.957534935748
 30
0.0
 11
399.8209556121037
 21
1003.957534935748
 31
0.0
  0
ARC
  5
31A
330
75
100
AcDbEntity
  8
MaVisibleEdge
100
AcDbCircle
 10
1079.820955612103
 20
1278.957534935625
 30
0.0
 40
19.04999999999995
100
AcDbArc
 50
211.663826068297
 51
328.336173931703
  0
ARC
  5
31B
330
75
100
AcDbEntity
  8
MaVisibleEdge
100
AcDbCircle
 10
1079.820955612103
 20
1278.957534935625
 30
0.0
 40
19.04999999999995
100
AcDbArc
 50
31.66382606829698
 51
148.336173931703
  0
LINE
  5
31C
330
75
100
AcDbEntity
  8
MaVisibleEdge
100
AcDbLine
 10
831.3209556121034
 20
1463.957534935744
 30
0.0
 11
831.3209556121034
 21
1093.957534935744
 31
0.0
  0
ARC
  5
31D
330
75
100
AcDbEntity
  8
MaVisibleEdge
100
AcDbCircle
 10
1289.820955612103
 20
1463.957534935744
 30
0.0
 40
38.50000000000024
100
AcDbArc
 50
0.0
 51
90.0
  0
LINE
  5
31E
330
75
100
AcDbEntity
  8
MaVisibleEdge
100
AcDbLine
 10
1289.820955612104
 20
1502.457534935744
 30
0.0
 11
869.8209556121032
 21
1502.457534935744
 31
0.0
  0
ARC
  5
31F
330
75
100
AcDbEntity
  8
MaVisibleEdge
100
AcDbCircle
 10
869.8209556121032
 20
1463.957534935744
 30
0.0
 40
38.49999999999988
100
AcDbArc
 50
89.99999999999984
 51
180.0
  0
ARC
  5
320
330
75
100
AcDbEntity
  8
MaVisibleEdge
100
AcDbCircle
 10
457.8209556121036
 20
1535.957534935747
 30
0.0
 40
38.00000000000033
100
AcDbArc
 50
90.00000000000044
 51
180.0
  0
LINE
  5
321
330
75
100
AcDbEntity
  8
MaVisibleEdge
100
AcDbLine
 10
1341.820955612103
 20
1573.957534935748
 30
0.0
 11
457.8209556121033
 21
1573.957534935748
 31
0.0
  0
ARC
  5
322
330
75
100
AcDbEntity
  8
MaVisibleEdge
100
AcDbCircle
 10
1341.820955612103
 20
1535.957534935748
 30
0.0
 40
37.99999999999983
100
AcDbArc
 50
0.0
 51
90.0
  0
LINE
  5
323
330
75
100
AcDbEntity
  8
MaVisibleEdge
100
AcDbLine
 10
1379.820955612103
 20
1071.957534935748
 30
0.0
 11
1379.820955612103
 21
1535.957534935748
 31
0.0
  0
ARC
  5
324
330
75
100
AcDbEntity
  8
MaVisibleEdge
100
AcDbCircle
 10
1341.820955612103
 20
1071.957534935748
 30
0.0
 40
37.99999999999992
100
AcDbArc
 50
270.0
 51
0.0
  0
LINE
  5
325
330
75
100
AcDbEntity
  8
MaVisibleEdge
100
AcDbLine
 10
457.8209556121033
 20
1033.957534935748
 30
0.0
 11
1341.820955612103
 21
1033.957534935748
 31
0.0
  0
ARC
  5
326
330
75
100
AcDbEntity
  8
MaVisibleEdge
100
AcDbCircle
 10
457.8209556121036
 20
1071.957534935748
 30
0.0
 40
38.0000000000004
100
AcDbArc
 50
180.0
 51
269.9999999999997
  0
LINE
  5
327
330
75
100
AcDbEntity
  8
MaVisibleEdge
100
AcDbLine
 10
419.8209556121033
 20
1535.957534935748
 30
0.0
 11
419.8209556121034
 21
1071.957534935748
 31
0.0
  0
LINE
  5
328
330
75
100
AcDbEntity
  8
MaVisibleEdge
100
AcDbLine
 10
1328.320955612103
 20
1093.957534935744
 30
0.0
 11
1328.320955612103
 21
1463.957534935744
 31
0.0
  0
ARC
  5
329
330
75
100
AcDbEntity
  8
MaVisibleEdge
100
AcDbCircle
 10
1289.820955612103
 20
1093.957534935744
 30
0.0
 40
38.50000000000011
100
AcDbArc
 50
270.0
 51
0.0
  0
LINE
  5
32A
330
75
100
AcDbEntity
  8
MaVisibleEdge
100
AcDbLine
 10
869.8209556121032
 20
1055.457534935744
 30
0.0
 11
1289.820955612103
 21
1055.457534935744
 31
0.0
  0
ARC
  5
32B
330
75
100
AcDbEntity
  8
MaVisibleEdge
100
AcDbCircle
 10
869.8209556121032
 20
1093.957534935744
 30
0.0
 40
38.50000000000008
100
AcDbArc
 50
180.0
 51
269.9999999999998
  0
CIRCLE
  5
32C
330
75
100
AcDbEntity
  8
MaVisibleEdge
100
AcDbCircle
 10
1079.820955612103
 20
1278.957534935685
 30
0.0
 40
148.5
  0
ARC
  5
32D
330
75
100
AcDbEntity
  8
MaVisibleEdge
100
AcDbCircle
 10
1079.820955612103
 20
1278.957534935685
 30
0.0
 40
70.00000000000004
100
AcDbArc
 50
16.87726943862909
 51
163.1227305613707
  0
ARC
  5
32E
330
75
100
AcDbEntity
  8
MaVisibleEdge
100
AcDbCircle
 10
1139.150543508869
 20
1296.957534935685
 30
0.0
 40
7.999999999999971
100
AcDbArc
 50
270.0
 51
16.87726943863014
  0
LINE
  5
32F
330
75
100
AcDbEntity
  8
MaVisibleEdge
100
AcDbLine
 10
1020.491367715338
 20
1288.957534935685
 30
0.0
 11
1139.150543508868
 21
1288.957534935685
 31
0.0
  0
ARC
  5
330
330
75
100
AcDbEntity
  8
MaVisibleEdge
100
AcDbCircle
 10
1020.491367715338
 20
1296.957534935685
 30
0.0
 40
8.000000000000012
100
AcDbArc
 50
163.1227305613716
 51
270.0000000000008
  0
LINE
  5
331
330
75
100
AcDbEntity
  8
MaVisibleEdge
100
AcDbLine
 10
1139.150543508868
 20
1268.957534935685
 30
0.0
 11
1020.491367715338
 21
1268.957534935685
 31
0.0
  0
ARC
  5
332
330
75
100
AcDbEntity
  8
MaVisibleEdge
100
AcDbCircle
 10
1139.150543508868
 20
1260.957534935685
 30
0.0
 40
8.000000000000012
100
AcDbArc
 50
343.1227305613714
 51
90.0
  0
ARC
  5
333
330
75
100
AcDbEntity
  8
MaVisibleEdge
100
AcDbCircle
 10
1079.820955612103
 20
1278.957534935685
 30
0.0
 40
70.00000000000003
100
AcDbArc
 50
196.877269438629
 51
343.1227305613707
  0
ARC
  5
334
330
75
100
AcDbEntity
  8
MaVisibleEdge
100
AcDbCircle
 10
1020.491367715338
 20
1260.957534935685
 30
0.0
 40
7.999999999999971
100
AcDbArc
 50
90.0
 51
196.8772694386286
  0
CIRCLE
  5
335
330
75
100
AcDbEntity
  8
MaVisibleEdge
100
AcDbCircle
 10
1079.820955612103
 20
1278.957534935685
 30
0.0
 40
147.0
  0
LINE
  5
336
330
75
100
AcDbEntity
  8
MaHiddenEdge
100
AcDbLine
 10
1398.320955612103
 20
1005.457534935747
 30
0.0
 11
401.3209556121033
 21
1005.457534935747
 31
0.0
  0
LINE
  5
337
330
75
100
AcDbEntity
  8
MaHiddenEdge
100
AcDbLine
 10
401.3209556121035
 20
1588.957534935733
 30
0.0
 11
1398.320955612103
 21
1588.957534935733
 31
0.0
  0
LINE
  5
338
330
75
100
AcDbEntity
  8
MaHiddenEdge
100
AcDbLine
 10
401.3209556121033
 20
1005.457534935747
 30
0.0
 11
401.3209556121035
 21
1602.457534935747
 31
0.0
  0
ARC
  5
339
330
75
100
AcDbEntity
  8
MaHiddenEdge
100
AcDbCircle
 10
1079.820955612104
 20
1278.957534935625
 30
0.0
 40
19.04999999999974
100
AcDbArc
 50
328.3361739317026
 51
31.66382606829832
  0
ARC
  5
33A
330
75
100
AcDbEntity
  8
MaHiddenEdge
100
AcDbCircle
 10
1079.820955612103
 20
1278.957534935625
 30
0.0
 40
19.04999999999986
100
AcDbArc
 50
148.3361739317026
 51
211.6638260682973
  0
CIRCLE
  5
33B
330
75
100
AcDbEntity
  8
MaHiddenEdge
100
AcDbCircle
 10
1079.820955612103
 20
1278.957534935625
 30
0.0
 40
25.10536928815723
  0
LINE
  5
33C
330
75
100
AcDbEntity
  8
MaHiddenEdge
100
AcDbLine
 10
1289.820955612103
 20
1053.957534935743
 30
0.0
 11
869.8209556121032
 21
1053.957534935743
 31
0.0
  0
ARC
  5
33D
330
75
100
AcDbEntity
  8
MaHiddenEdge
100
AcDbCircle
 10
1289.820955612103
 20
1093.957534935743
 30
0.0
 40
40.0
100
AcDbArc
 50
269.9999999999997
 51
0.0
  0
LINE
  5
33E
330
75
100
AcDbEntity
  8
MaHiddenEdge
100
AcDbLine
 10
1329.820955612103
 20
1463.957534935743
 30
0.0
 11
1329.820955612103
 21
1093.957534935743
 31
0.0
  0
ARC
  5
33F
330
75
100
AcDbEntity
  8
MaHiddenEdge
100
AcDbCircle
 10
1289.820955612104
 20
1463.957534935743
 30
0.0
 40
40.0
100
AcDbArc
 50
0.0
 51
90.0
  0
LINE
  5
340
330
75
100
AcDbEntity
  8
MaHiddenEdge
100
AcDbLine
 10
869.8209556121032
 20
1503.957534935743
 30
0.0
 11
1289.820955612104
 21
1503.957534935743
 31
0.0
  0
ARC
  5
341
330
75
100
AcDbEntity
  8
MaHiddenEdge
100
AcDbCircle
 10
869.8209556121032
 20
1463.957534935743
 30
0.0
 40
39.99999999999987
100
AcDbArc
 50
90.0
 51
180.0
  0
LINE
  5
342
330
75
100
AcDbEntity
  8
MaHiddenEdge
100
AcDbLine
 10
829.8209556121033
 20
1093.957534935743
 30
0.0
 11
829.8209556121033
 21
1463.957534935743
 31
0.0
  0
ARC
  5
343
330
75
100
AcDbEntity
  8
MaHiddenEdge
100
AcDbCircle
 10
869.8209556121032
 20
1093.957534935743
 30
0.0
 40
40.00000000000007
100
AcDbArc
 50
180.0
 51
270.0
  0
LINE
  5
344
330
75
100
AcDbEntity
  8
MaHiddenEdge
100
AcDbLine
 10
1398.320955612103
 20
1602.457534935747
 30
0.0
 11
1398.320955612103
 21
1005.457534935747
 31
0.0
  0
LINE
  5
345
330
75
100
AcDbEntity
  8
MaHiddenEdge
100
AcDbLine
 10
401.3209556121035
 20
1602.457534935747
 30
0.0
 11
1398.320955612103
 21
1602.457534935747
 31
0.0
  0
ARC
  5
346
330
75
100
AcDbEntity
  8
MaHiddenEdge
100
AcDbCircle
 10
457.8209556121036
 20
1535.957534935747
 30
0.0
 40
39.50000000000017
100
AcDbArc
 50
90.0000000000004
 51
180.0
  0
LINE
  5
347
330
75
100
AcDbEntity
  8
MaHiddenEdge
100
AcDbLine
 10
1341.820955612103
 20
1575.457534935748
 30
0.0
 11
457.8209556121033
 21
1575.457534935747
 31
0.0
  0
ARC
  5
348
330
75
100
AcDbEntity
  8
MaHiddenEdge
100
AcDbCircle
 10
1341.820955612103
 20
1535.957534935747
 30
0.0
 40
39.50000000000011
100
AcDbArc
 50
0.0
 51
90.0
  0
LINE
  5
349
330
75
100
AcDbEntity
  8
MaHiddenEdge
100
AcDbLine
 10
1381.320955612103
 20
1071.957534935747
 30
0.0
 11
1381.320955612103
 21
1535.957534935747
 31
0.0
  0
ARC
  5
34A
330
75
100
AcDbEntity
  8
MaHiddenEdge
100
AcDbCircle
 10
1341.820955612103
 20
1071.957534935747
 30
0.0
 40
39.50000000000004
100
AcDbArc
 50
270.0
 51
0.0
  0
LINE
  5
34B
330
75
100
AcDbEntity
  8
MaHiddenEdge
100
AcDbLine
 10
457.8209556121033
 20
1032.457534935747
 30
0.0
 11
1341.820955612103
 21
1032.457534935747
 31
0.0
  0
ARC
  5
34C
330
75
100
AcDbEntity
  8
MaHiddenEdge
100
AcDbCircle
 10
457.8209556121033
 20
1071.957534935747
 30
0.0
 40
39.49999999999994
100
AcDbArc
 50
180.0
 51
270.0
  0
LINE
  5
34D
330
75
100
AcDbEntity
  8
MaHiddenEdge
100
AcDbLine
 10
418.3209556121035
 20
1535.957534935747
 30
0.0
 11
418.3209556121035
 21
1071.957534935747
 31
0.0
  0
CIRCLE
  5
34E
330
75
100
AcDbEntity
  8
MaHiddenEdge
100
AcDbCircle
 10
1079.820955612103
 20
1278.957534935684
 30
0.0
 40
150.0
  0
CIRCLE
  5
34F
330
75
100
AcDbEntity
  8
MaHiddenEdge
100
AcDbCircle
 10
1079.820955612103
 20
1278.957534935625
 30
0.0
 40
27.13552814754818
  0
LINE
  5
350
330
75
100
AcDbEntity
  8
MaHiddenEdge
100
AcDbLine
 10
1898.183621914241
 20
2576.810086133394
 30
0.0
 11
1908.183621914241
 21
2576.810086133394
 31
0.0
  0
LINE
  5
351
330
75
100
AcDbEntity
  8
MaHiddenEdge
100
AcDbLine
 10
2330.18362191424
 20
2576.810086133394
 30
0.0
 11
2340.183621914241
 21
2576.810086133394
 31
0.0
  0
LINE
  5
352
330
75
100
AcDbEntity
  8
MaHiddenEdge
100
AcDbLine
 10
1898.183621914241
 20
2567.810086133393
 30
0.0
 11
1898.183621914241
 21
2576.810086133394
 31
0.0
  0
LINE
  5
353
330
75
100
AcDbEntity
  8
MaHiddenEdge
100
AcDbLine
 10
1908.183621914241
 20
2567.810086133393
 30
0.0
 11
1908.183621914241
 21
2576.810086133394
 31
0.0
  0
LINE
  5
354
330
75
100
AcDbEntity
  8
MaHiddenEdge
100
AcDbLine
 10
2330.183621914241
 20
2567.810086133393
 30
0.0
 11
2330.183621914241
 21
2576.810086133394
 31
0.0
  0
LINE
  5
355
330
75
100
AcDbEntity
  8
MaHiddenEdge
100
AcDbLine
 10
2340.183621914241
 20
2567.810086133393
 30
0.0
 11
2340.183621914241
 21
2576.810086133394
 31
0.0
  0
LINE
  5
356
330
75
100
AcDbEntity
  8
MaHiddenEdge
100
AcDbLine
 10
2415.183621914233
 20
2567.810086133393
 30
0.0
 11
1831.683621914233
 21
2567.810086133393
 31
0.0
  0
LINE
  5
357
330
75
100
AcDbEntity
  8
MaHiddenEdge
100
AcDbLine
 10
1831.683621914245
 20
2567.810086133393
 30
0.0
 11
1831.683621914245
 21
2566.810086133394
 31
0.0
  0
LINE
  5
358
330
75
100
AcDbEntity
  8
MaHiddenEdge
100
AcDbLine
 10
2415.183621914245
 20
2566.810086133394
 30
0.0
 11
2415.183621914245
 21
2567.810086133393
 31
0.0
  0
LINE
  5
359
330
75
100
AcDbEntity
  8
MaVisibleEdge
100
AcDbLine
 10
1816.683621914233
 20
2616.810086133394
 30
0.0
 11
1816.683621914233
 21
2566.810086133394
 31
0.0
  0
LINE
  5
35A
330
75
100
AcDbEntity
  8
MaVisibleEdge
100
AcDbLine
 10
2416.683621914233
 20
2616.810086133394
 30
0.0
 11
2416.683621914233
 21
2566.810086133394
 31
0.0
  0
LINE
  5
35B
330
75
100
AcDbEntity
  8
MaVisibleEdge
100
AcDbLine
 10
2416.683621914233
 20
2616.810086133394
 30
0.0
 11
1816.683621914233
 21
2616.810086133394
 31
0.0
  0
LINE
  5
35C
330
75
100
AcDbEntity
  8
MaVisibleEdge
100
AcDbLine
 10
2416.683621914233
 20
2566.810086133394
 30
0.0
 11
1816.683621914233
 21
2566.810086133394
 31
0.0
  0
LINE
  5
35D
330
75
100
AcDbEntity
  8
MaVisibleEdge
100
AcDbLine
 10
1916.683621914372
 20
2566.810086133394
 30
0.0
 11
1916.683621914372
 21
2422.810086133393
 31
0.0
  0
LINE
  5
35E
330
75
100
AcDbEntity
  8
MaVisibleEdge
100
AcDbLine
 10
2366.683621914372
 20
2422.810086133393
 30
0.0
 11
2366.683621914372
 21
2566.810086133394
 31
0.0
  0
LINE
  5
35F
330
75
100
AcDbEntity
  8
MaVisibleEdge
100
AcDbLine
 10
2326.683621914366
 20
2402.810086133393
 30
0.0
 11
2346.683621914372
 21
2402.810086133393
 31
0.0
  0
LINE
  5
360
330
75
100
AcDbEntity
  8
MaVisibleEdge
100
AcDbLine
 10
2326.683621914367
 20
2402.810086133393
 30
0.0
 11
1956.683621914366
 21
2402.810086133393
 31
0.0
  0
LINE
  5
361
330
75
100
AcDbEntity
  8
MaVisibleEdge
100
AcDbLine
 10
1936.683621914372
 20
2402.810086133393
 30
0.0
 11
1956.683621914366
 21
2402.810086133393
 31
0.0
  0
ARC
  5
362
330
75
100
AcDbEntity
  8
MaVisibleEdge
100
AcDbCircle
 10
1936.683621914372
 20
2422.810086133393
 30
0.0
 40
20.0
100
AcDbArc
 50
180.0
 51
270.0
  0
ARC
  5
363
330
75
100
AcDbEntity
  8
MaVisibleEdge
100
AcDbCircle
 10
2346.683621914372
 20
2422.810086133393
 30
0.0
 40
19.99999999999996
100
AcDbArc
 50
270.0
 51
0.0
  0
LINE
  5
364
330
75
100
AcDbEntity
  8
MaVisibleEdge
100
AcDbLine
 10
2011.683621914434
 20
2202.810086133394
 30
0.0
 11
2271.683621914434
 21
2202.810086133394
 31
0.0
  0
LINE
  5
365
330
75
100
AcDbEntity
  8
MaVisibleEdge
100
AcDbLine
 10
2161.683621914434
 20
2198.163882649025
 30
0.0
 11
2121.683621914435
 21
2198.163882649025
 31
0.0
  0
LINE
  5
366
330
75
100
AcDbEntity
  8
MaVisibleEdge
100
AcDbLine
 10
1991.683621914434
 20
2222.810086133394
 30
0.0
 11
1991.683621914434
 21
2402.810086133393
 31
0.0
  0
LINE
  5
367
330
75
100
AcDbEntity
  8
MaVisibleEdge
100
AcDbLine
 10
2291.683621914435
 20
2222.810086133394
 30
0.0
 11
2291.683621914435
 21
2402.810086133393
 31
0.0
  0
ARC
  5
368
330
75
100
AcDbEntity
  8
MaVisibleEdge
100
AcDbCircle
 10
2271.683621914434
 20
2222.810086133394
 30
0.0
 40
20.0
100
AcDbArc
 50
270.0
 51
0.0
  0
ARC
  5
369
330
75
100
AcDbEntity
  8
MaVisibleEdge
100
AcDbCircle
 10
2011.683621914436
 20
2222.810086133394
 30
0.0
 40
20.0
100
AcDbArc
 50
180.0
 51
270.0
  0
ARC
  5
36A
330
75
100
AcDbEntity
  8
MaVisibleEdge
100
AcDbCircle
 10
2121.683621914435
 20
2205.163882649025
 30
0.0
 40
7.0
100
AcDbArc
 50
214.6807461734163
 51
270.0
  0
ARC
  5
36B
330
75
100
AcDbEntity
  8
MaVisibleEdge
100
AcDbCircle
 10
2161.683621914435
 20
2205.163882649025
 30
0.0
 40
7.0
100
AcDbArc
 50
270.0
 51
325.3192538265836
  0
ARC
  5
36C
330
75
100
AcDbEntity
  8
MaVisibleEdge
100
AcDbCircle
 10
2106.881586571736
 20
2194.921824764326
 30
0.0
 40
11.0
100
AcDbArc
 50
34.68074617341417
 51
45.81677316716534
  0
ARC
  5
36D
330
75
100
AcDbEntity
  8
MaVisibleEdge
100
AcDbCircle
 10
2176.485657257133
 20
2194.921824764326
 30
0.0
 40
11.0
100
AcDbArc
 50
134.183226832833
 51
145.3192538265838
  0
LINE
  5
36E
330
75
100
AcDbEntity
  8
MaHiddenEdge
100
AcDbLine
 10
2415.183621914233
 20
2615.310086133393
 30
0.0
 11
2415.183621914233
 21
2567.810086133393
 31
0.0
  0
LINE
  5
36F
330
75
100
AcDbEntity
  8
MaHiddenEdge
100
AcDbLine
 10
1818.183621914234
 20
2568.310086133394
 30
0.0
 11
1831.683621914233
 21
2568.310086133394
 31
0.0
  0
LINE
  5
370
330
75
100
AcDbEntity
  8
MaHiddenEdge
100
AcDbLine
 10
1831.683621914233
 20
2568.310086133394
 30
0.0
 11
1831.683621914233
 21
2567.810086133393
 31
0.0
  0
LINE
  5
371
330
75
100
AcDbEntity
  8
MaHiddenEdge
100
AcDbLine
 10
1818.183621914234
 20
2615.310086133393
 30
0.0
 11
1818.183621914234
 21
2568.310086133394
 31
0.0
  0
LINE
  5
372
330
75
100
AcDbEntity
  8
MaHiddenEdge
100
AcDbLine
 10
2415.183621914233
 20
2615.310086133393
 30
0.0
 11
1818.183621914234
 21
2615.310086133393
 31
0.0
  0
LINE
  5
373
330
75
100
AcDbEntity
  8
MaHiddenEdge
100
AcDbLine
 10
2161.683621914434
 20
2199.663882649025
 30
0.0
 11
2121.683621914435
 21
2199.663882649025
 31
0.0
  0
LINE
  5
374
330
75
100
AcDbEntity
  8
MaHiddenEdge
100
AcDbLine
 10
1918.183621914372
 20
2602.810086133394
 30
0.0
 11
1918.183621914372
 21
2424.310086133393
 31
0.0
  0
LINE
  5
375
330
75
100
AcDbEntity
  8
MaHiddenEdge
100
AcDbLine
 10
1845.18362191425
 20
2601.310086133393
 30
0.0
 11
1884.683621914238
 21
2601.310086133393
 31
0.0
  0
LINE
  5
376
330
75
100
AcDbEntity
  8
MaHiddenEdge
100
AcDbLine
 10
2348.683621914238
 20
2601.310086133393
 30
0.0
 11
2388.18362191425
 21
2601.310086133393
 31
0.0
  0
LINE
  5
377
330
75
100
AcDbEntity
  8
MaHiddenEdge
100
AcDbLine
 10
2348.683621914238
 20
2601.310086133393
 30
0.0
 11
1884.683621914239
 21
2601.310086133393
 31
0.0
  0
LINE
  5
378
330
75
100
AcDbEntity
  8
MaHiddenEdge
100
AcDbLine
 10
1845.18362191425
 20
2615.310086133393
 30
0.0
 11
1845.18362191425
 21
2601.310086133393
 31
0.0
  0
LINE
  5
379
330
75
100
AcDbEntity
  8
MaHiddenEdge
100
AcDbLine
 10
2388.18362191425
 20
2615.310086133393
 30
0.0
 11
2388.18362191425
 21
2601.310086133393
 31
0.0
  0
LINE
  5
37A
330
75
100
AcDbEntity
  8
MaHiddenEdge
100
AcDbLine
 10
1916.683621914372
 20
2601.310086133393
 30
0.0
 11
1916.683621914372
 21
2566.810086133394
 31
0.0
  0
LINE
  5
37B
330
75
100
AcDbEntity
  8
MaHiddenEdge
100
AcDbLine
 10
2366.683621914372
 20
2566.810086133394
 30
0.0
 11
2366.683621914372
 21
2601.310086133393
 31
0.0
  0
LINE
  5
37C
330
75
100
AcDbEntity
  8
MaHiddenEdge
100
AcDbLine
 10
1884.683621914245
 20
2602.810086133394
 30
0.0
 11
1865.762405942589
 21
2602.810086133394
 31
0.0
  0
LINE
  5
37D
330
75
100
AcDbEntity
  8
MaHiddenEdge
100
AcDbLine
 10
1884.683621914244
 20
2602.810086133394
 30
0.0
 11
2348.683621914245
 21
2602.810086133394
 31
0.0
  0
LINE
  5
37E
330
75
100
AcDbEntity
  8
MaHiddenEdge
100
AcDbLine
 10
2367.604837885911
 20
2602.810086133394
 30
0.0
 11
2348.683621914245
 21
2602.810086133394
 31
0.0
  0
ARC
  5
37F
330
75
100
AcDbEntity
  8
MaHiddenEdge
100
AcDbCircle
 10
1865.762405942589
 20
2622.810086133393
 30
0.0
 40
19.99999999999985
100
AcDbArc
 50
197.457603123722
 51
270.0000000000007
  0
ARC
  5
380
330
75
100
AcDbEntity
  8
MaHiddenEdge
100
AcDbCircle
 10
2367.604837885911
 20
2622.810086133393
 30
0.0
 40
20.0
100
AcDbArc
 50
270.0
 51
342.542396876278
  0
LINE
  5
381
330
75
100
AcDbEntity
  8
MaHiddenEdge
100
AcDbLine
 10
1956.683621914367
 20
2404.310086133393
 30
0.0
 11
1938.183621914372
 21
2404.310086133393
 31
0.0
  0
LINE
  5
382
330
75
100
AcDbEntity
  8
MaHiddenEdge
100
AcDbLine
 10
1956.683621914367
 20
2404.310086133393
 30
0.0
 11
2326.683621914367
 21
2404.310086133393
 31
0.0
  0
LINE
  5
383
330
75
100
AcDbEntity
  8
MaHiddenEdge
100
AcDbLine
 10
2345.183621914372
 20
2404.310086133393
 30
0.0
 11
2326.683621914367
 21
2404.310086133393
 31
0.0
  0
LINE
  5
384
330
75
100
AcDbEntity
  8
MaHiddenEdge
100
AcDbLine
 10
2365.183621914372
 20
2602.810086133394
 30
0.0
 11
2365.183621914372
 21
2424.310086133393
 31
0.0
  0
ARC
  5
385
330
75
100
AcDbEntity
  8
MaHiddenEdge
100
AcDbCircle
 10
2345.183621914372
 20
2424.310086133393
 30
0.0
 40
19.99999999999998
100
AcDbArc
 50
270.0
 51
0.0
  0
ARC
  5
386
330
75
100
AcDbEntity
  8
MaHiddenEdge
100
AcDbCircle
 10
1938.183621914372
 20
2424.310086133393
 30
0.0
 40
20.0
100
AcDbArc
 50
180.0
 51
270.0
  0
LINE
  5
387
330
75
100
AcDbEntity
  8
MaHiddenEdge
100
AcDbLine
 10
2270.183621914434
 20
2204.310086133393
 30
0.0
 11
2013.183621914436
 21
2204.310086133393
 31
0.0
  0
LINE
  5
388
330
75
100
AcDbEntity
  8
MaHiddenEdge
100
AcDbLine
 10
2131.683621914417
 20
2404.310086133393
 30
0.0
 11
2131.683621914417
 21
2402.810086133393
 31
0.0
  0
LINE
  5
389
330
75
100
AcDbEntity
  8
MaHiddenEdge
100
AcDbLine
 10
2151.683621914417
 20
2404.310086133393
 30
0.0
 11
2151.683621914417
 21
2402.810086133393
 31
0.0
  0
LINE
  5
38A
330
75
100
AcDbEntity
  8
MaHiddenEdge
100
AcDbLine
 10
2160.733621914435
 20
2204.310086133393
 30
0.0
 11
2160.733621914435
 21
2202.810086133394
 31
0.0
  0
LINE
  5
38B
330
75
100
AcDbEntity
  8
MaHiddenEdge
100
AcDbLine
 10
2122.633621914435
 20
2204.310086133393
 30
0.0
 11
2122.633621914435
 21
2202.810086133394
 31
0.0
  0
LINE
  5
38C
330
75
100
AcDbEntity
  8
MaHiddenEdge
100
AcDbLine
 10
2160.733621914435
 20
2199.663882649025
 30
0.0
 11
2160.733621914435
 21
2198.163882649025
 31
0.0
  0
LINE
  5
38D
330
75
100
AcDbEntity
  8
MaHiddenEdge
100
AcDbLine
 10
2122.633621914435
 20
2199.663882649025
 30
0.0
 11
2122.633621914435
 21
2198.163882649025
 31
0.0
  0
ARC
  5
38E
330
75
100
AcDbEntity
  8
MaHiddenEdge
100
AcDbCircle
 10
2121.683621914435
 20
2205.163882649025
 30
0.0
 40
5.500000000000014
100
AcDbArc
 50
214.6807461734162
 51
270.0
  0
ARC
  5
38F
330
75
100
AcDbEntity
  8
MaHiddenEdge
100
AcDbCircle
 10
2161.683621914435
 20
2205.163882649025
 30
0.0
 40
5.500000000000014
100
AcDbArc
 50
270.0
 51
325.3192538265839
  0
ARC
  5
390
330
75
100
AcDbEntity
  8
MaHiddenEdge
100
AcDbCircle
 10
2106.881586571736
 20
2194.921824764326
 30
0.0
 40
12.49999999999999
100
AcDbArc
 50
34.68074617341625
 51
39.12843795976967
  0
ARC
  5
391
330
75
100
AcDbEntity
  8
MaHiddenEdge
100
AcDbCircle
 10
2176.485657257133
 20
2194.921824764326
 30
0.0
 40
12.49999999999998
100
AcDbArc
 50
140.87156204023
 51
145.3192538265837
  0
LINE
  5
392
330
75
100
AcDbEntity
  8
MaHiddenEdge
100
AcDbLine
 10
1993.183621914434
 20
2224.310086133393
 30
0.0
 11
1993.183621914434
 21
2404.310086133393
 31
0.0
  0
LINE
  5
393
330
75
100
AcDbEntity
  8
MaHiddenEdge
100
AcDbLine
 10
2290.183621914434
 20
2224.310086133393
 30
0.0
 11
2290.183621914434
 21
2404.310086133393
 31
0.0
  0
ARC
  5
394
330
75
100
AcDbEntity
  8
MaHiddenEdge
100
AcDbCircle
 10
2270.183621914434
 20
2224.310086133393
 30
0.0
 40
20.0
100
AcDbArc
 50
270.0
 51
0.0
  0
ARC
  5
395
330
75
100
AcDbEntity
  8
MaHiddenEdge
100
AcDbCircle
 10
2013.183621914436
 20
2224.310086133393
 30
0.0
 40
20.0
100
AcDbArc
 50
180.0
 51
270.0
  0
LINE
  5
396
330
75
100
AcDbEntity
  8
MaHiddenEdge
100
AcDbLine
 10
2071.683621914435
 20
2402.810086133393
 30
0.0
 11
2071.683621914435
 21
2404.310086133393
 31
0.0
  0
LINE
  5
397
330
75
100
AcDbEntity
  8
MaHiddenEdge
100
AcDbLine
 10
2211.683621914435
 20
2402.810086133393
 30
0.0
 11
2211.683621914435
 21
2404.310086133393
 31
0.0
  0
LINE
  5
398
330
75
100
AcDbEntity
  8
MaHiddenEdge
100
AcDbLine
 10
1994.683621914434
 20
2402.810086133393
 30
0.0
 11
1994.683621914434
 21
2404.310086133393
 31
0.0
  0
LINE
  5
399
330
75
100
AcDbEntity
  8
MaHiddenEdge
100
AcDbLine
 10
2288.683621914434
 20
2402.810086133393
 30
0.0
 11
2288.683621914434
 21
2404.310086133393
 31
0.0
  0
LINE
  5
39A
330
75
100
AcDbEntity
  8
MaHiddenEdge
100
AcDbLine
 10
1899.860121914241
 20
2566.810086133394
 30
0.0
 11
1899.860121914241
 21
2576.810086133394
 31
0.0
  0
LINE
  5
39B
330
75
100
AcDbEntity
  8
MaHiddenEdge
100
AcDbLine
 10
1906.507121914241
 20
2566.810086133394
 30
0.0
 11
1906.507121914241
 21
2576.810086133394
 31
0.0
  0
LINE
  5
39C
330
75
100
AcDbEntity
  8
MaHiddenEdge
100
AcDbLine
 10
2331.860121914241
 20
2566.810086133394
 30
0.0
 11
2331.860121914241
 21
2576.810086133394
 31
0.0
  0
LINE
  5
39D
330
75
100
AcDbEntity
  8
MaHiddenEdge
100
AcDbLine
 10
2338.507121914241
 20
2566.810086133394
 30
0.0
 11
2338.507121914241
 21
2576.810086133394
 31
0.0
  0
LINE
  5
39E
330
75
100
AcDbEntity
  8
MaHiddenEdge
100
AcDbLine
 10
1899.183621914241
 20
2576.810086133394
 30
0.0
 11
1899.183621914241
 21
2566.810086133394
 31
0.0
  0
LINE
  5
39F
330
75
100
AcDbEntity
  8
MaHiddenEdge
100
AcDbLine
 10
1907.183621914241
 20
2566.810086133394
 30
0.0
 11
1907.183621914241
 21
2576.810086133394
 31
0.0
  0
LINE
  5
3A0
330
75
100
AcDbEntity
  8
MaHiddenEdge
100
AcDbLine
 10
2331.183621914241
 20
2576.810086133394
 30
0.0
 11
2331.183621914241
 21
2566.810086133394
 31
0.0
  0
LINE
  5
3A1
330
75
100
AcDbEntity
  8
MaHiddenEdge
100
AcDbLine
 10
2339.183621914241
 20
2566.810086133394
 30
0.0
 11
2339.183621914241
 21
2576.810086133394
 31
0.0
  0
DIMENSION
  5
3A2
330
75
100
AcDbEntity
  8
Bemaßungen(DIN)
  6
Continuous
 62
     7
370
    30
100
AcDbDimension
  2
*D11
 10
288.7732335364499
 20
2566.810086133393
 30
0.0
 11
387.2132053654631
 21
2747.612678048169
 31
0.0
 70
   160
  1
<>
 71
     4
 42
50.0
  3
MarketingDrawing
100
AcDbAlignedDimension
 13
399.8209556127277
 23
2616.810086133393
 33
0.0
 14
399.8209556127277
 24
2566.810086133393
 34
0.0
 50
90.0
100
AcDbRotatedDimension
1001
ACAD
1000
DSTYLE
1002
{
1070
   289
1070
     2
1070
   271
1070
     0
1070
   272
1070
     4
1070
    48
1040
0.0
1070
    47
1040
0.0
1002
}
  0
DIMENSION
  5
48B
330
75
100
AcDbEntity
  8
Bemaßungen(DIN)
  6
Continuous
 62
     7
370
    30
100
AcDbDimension
  2
*D12
 10
1399.820955612103
 20
1842.679131175423
 30
0.0
 11
899.8209556121034
 21
1842.679131175423
 31
0.0
 70
   160
  1
<>
 71
     4
 42
1000.0
  3
MarketingDrawing
100
AcDbAlignedDimension
 13
399.8209556121035
 23
1603.957534935747
 33
0.0
 14
1399.820955612103
 24
1603.957534935748
 34
0.0
100
AcDbRotatedDimension
1001
ACAD
1000
DSTYLE
1002
{
1070
   289
1070
     2
1070
    73
1070
     0
1070
    74
1070
     0
1070
   271
1070
     0
1070
   272
1070
     4
1070
    48
1040
0.0
1070
    47
1040
0.0
1002
}
  0
DIMENSION
  5
56B
330
75
100
AcDbEntity
  8
Bemaßungen(DIN)
  6
Continuous
 62
     7
370
    30
100
AcDbDimension
  2
*D13
 10
1684.320955612104
 20
1003.957534935748
 30
0.0
 11
1684.320955612103
 21
1303.207534935748
 31
0.0
 70
   160
  1
<>
 71
     4
 42
598.4999999999994
  3
MarketingDrawing
100
AcDbAlignedDimension
 13
1398.320955612103
 23
1602.457534935747
 33
0.0
 14
1399.820955612103
 24
1003.957534935748
 34
0.0
 50
270.0
100
AcDbRotatedDimension
1001
ACAD
1000
DSTYLE
1002
{
1070
   289
1070
     2
1070
   271
1070
     0
1070
   272
1070
     4
1070
    48
1040
0.0
1070
    47
1040
0.0
1002
}
  0
DIMENSION
  5
646
330
75
100
AcDbEntity
  8
Bemaßungen(DIN)
  6
Continuous
 62
     7
370
    30
100
AcDbDimension
  2
*D14
 10
1229.820955612727
 20
2092.810086133393
 30
0.0
 11
1504.197707604718
 21
2092.810086133393
 31
0.0
 70
   160
  1
\fArial|b0|i0;\H52.0000;Ø<>
 71
     4
 42
300.0
  3
MarketingDrawing
100
AcDbAlignedDimension
 13
929.8209556127275
 23
2222.810086133393
 33
0.0
 14
1229.820955612727
 24
2222.810086133393
 34
0.0
100
AcDbRotatedDimension
1001
ACAD
1000
DSTYLE
1002
{
1070
   289
1070
     2
1070
    73
1070
     0
1070
    74
1070
     0
1070
   271
1070
     0
1070
   272
1070
     4
1070
    48
1040
0.0
1070
    47
1040
0.0
1002
}
  0
DIMENSION
  5
726
330
75
100
AcDbEntity
  8
Bemaßungen(DIN)
  6
Continuous
 62
     7
370
    30
100
AcDbDimension
  2
*D15
 10
829.8209556127275
 20
1980.810086133393
 30
0.0
 11
685.9838196280449
 21
1980.810086133393
 31
0.0
 70
   160
  1
\fAIGDT|b0|i0;\H52.0000;o\fArial|b0|i0;\H52.0000;<>
 71
     4
 42
500.0
  3
MarketingDrawing
100
AcDbAlignedDimension
 13
1329.820955612727
 23
2422.810086133393
 33
0.0
 14
829.8209556127275
 24
2422.810086133393
 34
0.0
100
AcDbRotatedDimension
1001
ACAD
1000
DSTYLE
1002
{
1070
   289
1070
     2
1070
    73
1070
     0
1070
    74
1070
     0
1070
   271
1070
     0
1070
   272
1070
     4
1070
    48
1040
0.0
1070
    47
1040
0.0
1002
}
  0
DIMENSION
  5
807
330
75
100
AcDbEntity
  8
Bemaßungen(DIN)
  6
Continuous
 62
     7
370
    30
100
AcDbDimension
  2
*D16
 10
1379.820955612727
 20
2855.633134471749
 30
0.0
 11
899.8209556127276
 21
2855.633134471749
 31
0.0
 70
   160
  1
<>
 71
     4
 42
960.0
  3
MarketingDrawing
100
AcDbAlignedDimension
 13
419.8209556127276
 23
2616.810086133393
 33
0.0
 14
1379.820955612727
 24
2616.810086133393
 34
0.0
 50
180.0
100
AcDbRotatedDimension
1001
ACAD
1000
DSTYLE
1002
{
1070
   289
1070
     2
1070
    73
1070
     0
1070
    74
1070
     0
1070
   271
1070
     0
1070
   272
1070
     4
1070
    48
1040
0.0
1070
    47
1040
0.0
1002
}
  0
DIMENSION
  5
8E7
330
75
100
AcDbEntity
  8
Bemaßungen(DIN)
  6
Continuous
 62
     7
370
    30
100
AcDbDimension
  2
*D17
 10
1846.68362191425
 20
2840.025648542519
 30
0.0
 11
2124.081682724041
 21
2840.025648542519
 31
0.0
 70
   160
  1
<>
 71
     4
 42
539.9999999999994
  3
MarketingDrawing
100
AcDbAlignedDimension
 13
2386.683621914249
 23
2616.810086133393
 33
0.0
 14
1846.68362191425
 24
2616.810086133393
 34
0.0
 50
180.0
100
AcDbRotatedDimension
1001
ACAD
1000
DSTYLE
1002
{
1070
   289
1070
     2
1070
    73
1070
     0
1070
    74
1070
     0
1070
   271
1070
     0
1070
   272
1070
     4
1070
    48
1040
0.0
1070
    47
1040
0.0
1002
}
  0
DIMENSION
  5
9C7
330
75
100
AcDbEntity
  8
Bemaßungen(DIN)
  6
Continuous
 62
     7
370
    30
100
AcDbDimension
  2
*D18
 10
1529.820955612728
 20
2402.810086133393
 30
0.0
 11
1529.820955612727
 21
2509.810086133393
 31
0.0
 70
   160
  1
<>
 71
     4
 42
213.9999999999996
  3
MarketingDrawing
100
AcDbAlignedDimension
 13
1399.820955612727
 23
2616.810086133393
 33
0.0
 14
1289.820955612728
 24
2402.810086133393
 34
0.0
 50
90.0
100
AcDbRotatedDimension
1001
ACAD
1000
DSTYLE
1002
{
1070
   289
1070
     2
1070
   271
1070
     0
1070
   272
1070
     4
1070
    48
1040
0.0
1070
    47
1040
0.0
1002
}
  0
DIMENSION
  5
AA2
330
75
100
AcDbEntity
  8
Bemaßungen(DIN)
  6
Continuous
 62
     7
370
    30
100
AcDbDimension
  2
*D19
 10
1651.820955612728
 20
2202.810086133393
 30
0.0
 11
1651.820955612728
 21
2409.810086133393
 31
0.0
 70
   160
  1
<>
 71
     4
 42
413.9999999999995
  3
MarketingDrawing
100
AcDbAlignedDimension
 13
1399.820955612727
 23
2616.810086133393
 33
0.0
 14
1209.820955612727
 24
2202.810086133393
 34
0.0
 50
90.0
100
AcDbRotatedDimension
1001
ACAD
1000
DSTYLE
1002
{
1070
   289
1070
     2
1070
   271
1070
     0
1070
   272
1070
     4
1070
    48
1040
0.0
1070
    47
1040
0.0
1002
}
  0
DIMENSION
  5
B7D
330
75
100
AcDbEntity
  8
Bemaßungen(DIN)
  6
Continuous
 62
     7
370
    30
100
AcDbDimension
  2
*D20
 10
2160.733621914435
 20
2036.367928130232
 30
0.0
 11
1972.08191748265
 21
2036.367928130232
 31
0.0
 70
   160
  1
<>
 71
     4
 42
38.10000000000036
  3
MarketingDrawing
100
AcDbAlignedDimension
 13
2122.633621914434
 23
2198.163882649025
 33
0.0
 14
2160.733621914435
 24
2198.163882649025
 34
0.0
 50
180.0
100
AcDbRotatedDimension
1001
ACAD
1000
DSTYLE
1002
{
1070
   289
1070
     2
1070
    73
1070
     0
1070
    74
1070
     0
1070
   271
1070
     0
1070
   272
1070
     4
1070
    48
1040
0.0
1070
    47
1040
0.0
1002
}
  0
DIMENSION
  5
C5D
330
75
100
AcDbEntity
  8
Bemaßungen(DIN)
  6
Continuous
 62
     7
370
    30
100
AcDbDimension
  2
*D21
 10
1644.079071633266
 20
1502.457534935744
 30
0.0
 11
1529.820955612103
 21
1381.727720669005
 31
0.0
 70
   160
  1
<>
 71
     4
 42
101.5000000000041
  3
MarketingDrawing
100
AcDbAlignedDimension
 13
1399.820955612103
 23
1603.957534935748
 33
0.0
 14
1289.820955612103
 24
1502.457534935744
 34
0.0
 50
270.0
100
AcDbRotatedDimension
1001
ACAD
1000
DSTYLE
1002
{
1070
   289
1070
     2
1070
   271
1070
     0
1070
   272
1070
     4
1070
    48
1040
0.0
1070
    47
1040
0.0
1002
}
  0
DIMENSION
  5
D46
330
75
100
AcDbEntity
  8
Bemaßungen(DIN)
  6
Continuous
 62
     7
370
    30
100
AcDbDimension
  2
*D22
 10
1399.820955612103
 20
1749.975992528274
 30
0.0
 11
1179.572525387838
 21
1749.975992528274
 31
0.0
 70
   160
  1
<>
 71
     4
 42
70.0
  3
MarketingDrawing
100
AcDbAlignedDimension
 13
1329.820955612103
 23
1463.957534935743
 33
0.0
 14
1399.820955612103
 24
1603.957534935748
 34
0.0
 50
180.0
100
AcDbRotatedDimension
1001
ACAD
1000
DSTYLE
1002
{
1070
   289
1070
     2
1070
    73
1070
     0
1070
    74
1070
     0
1070
   271
1070
     0
1070
   272
1070
     4
1070
    48
1040
0.0
1070
    47
1040
0.0
1002
}
  0
LINE
  5
E26
330
75
100
AcDbEntity
  8
MaCenterline
  6
CHAIN
 48
6.325234413146972
100
AcDbLine
 10
426.8209556127275
 20
2535.310086133393
 30
0.0
 11
426.8209556127275
 21
2609.310086133393
 31
0.0
  0
LINE
  5
E27
330
75
100
AcDbEntity
  8
MaCenterline
  6
CHAIN
 48
6.325234413146972
100
AcDbLine
 10
1372.820955612727
 20
2535.310086133393
 30
0.0
 11
1372.820955612727
 21
2609.310086133393
 31
0.0
  0
LINE
  5
E28
330
75
100
AcDbEntity
  8
MaCenterline
  6
CHAIN
 48
6.325234413146972
100
AcDbLine
 10
1903.183621914241
 20
2535.310086133393
 30
0.0
 11
1903.183621914241
 21
2609.310086133393
 31
0.0
  0
LINE
  5
E29
330
75
100
AcDbEntity
  8
MaCenterline
  6
CHAIN
 48
6.325234413146972
100
AcDbLine
 10
2335.183621914242
 20
2535.310086133393
 30
0.0
 11
2335.183621914242
 21
2609.310086133393
 31
0.0
  0
DIMENSION
  5
E2A
330
75
100
AcDbEntity
  8
Bemaßungen(DIN)
  6
Continuous
 62
     7
370
    30
100
AcDbDimension
  2
*D23
 10
1372.820955612727
 20
2739.310086133393
 30
0.0
 11
899.8209556127275
 21
2739.310086133393
 31
0.0
 70
   160
  1
<>
 71
     4
 42
945.9999999999997
  3
MarketingDrawing
100
AcDbAlignedDimension
 13
426.8209556127275
 23
2609.310086133393
 33
0.0
 14
1372.820955612727
 24
2609.310086133393
 34
0.0
100
AcDbRotatedDimension
1001
ACAD
1000
DSTYLE
1002
{
1070
   289
1070
     2
1070
    73
1070
     0
1070
    74
1070
     0
1070
   271
1070
     0
1070
   272
1070
     4
1070
    48
1040
0.0
1070
    47
1040
0.0
1002
}
  0
DIMENSION
  5
F0A
330
75
100
AcDbEntity
  8
Bemaßungen(DIN)
  6
Continuous
 62
     7
370
    30
100
AcDbDimension
  2
*D24
 10
2335.183621914242
 20
2739.310086133393
 30
0.0
 11
2119.183621914241
 21
2739.310086133393
 31
0.0
 70
   160
  1
<>
 71
     4
 42
432.0000000000006
  3
MarketingDrawing
100
AcDbAlignedDimension
 13
1903.183621914241
 23
2609.310086133393
 33
0.0
 14
2335.183621914242
 24
2609.310086133393
 34
0.0
100
AcDbRotatedDimension
1001
ACAD
1000
DSTYLE
1002
{
1070
   289
1070
     2
1070
    73
1070
     0
1070
    74
1070
     0
1070
   271
1070
     0
1070
   272
1070
     4
1070
    48
1040
0.0
1070
    47
1040
0.0
1002
}
  0
DIMENSION
  5
FEA
330
75
100
AcDbEntity
  8
Bemaßungen(DIN)
  6
Continuous
 62
     7
370
    30
100
AcDbDimension
  2
*D25
 10
430.8209556127277
 20
2436.810086133393
 30
0.0
 11
589.9223265433993
 21
2436.810086133393
 31
0.0
 70
   160
  1
\fArial|b0|i0;\H52.0000;M<>
 71
     4
 42
8.000000000000111
  3
MarketingDrawing
100
AcDbAlignedDimension
 13
422.8209556127275
 23
2566.810086133393
 33
0.0
 14
430.8209556127277
 24
2566.810086133393
 34
0.0
 50
180.0
100
AcDbRotatedDimension
1001
ACAD
1000
DSTYLE
1002
{
1070
   289
1070
     2
1070
    73
1070
     0
1070
    74
1070
     0
1070
   271
1070
     0
1070
   272
1070
     4
1070
    48
1040
0.0
1070
    47
1040
0.0
1002
}
  0
ENDSEC
  0
SECTION
  2
OBJECTS
  0
DICTIONARY
  5
C
330
0
100
AcDbDictionary
281
     1
  3
ACAD_COLOR
350
6B
  3
ACAD_GROUP
350
D
  3
ACAD_LAYOUT
350
6A
  3
ACAD_MATERIAL
350
10
  3
ACAD_MLEADERSTYLE
350
6E
  3
ACAD_MLINESTYLE
350
67
  3
ACAD_PLOTSETTINGS
350
69
  3
ACAD_PLOTSTYLENAME
350
E
  3
ACAD_SCALELIST
350
3A
  3
ACAD_TABLESTYLE
350
6C
  3
ACAD_VISUALSTYLE
350
29
  3
ACDB_RECOMPOSE_DATA
350
10D3
  3
AcDbVariableDictionary
350
10CA
  3
DWGPROPS
350
110A
  0
DICTIONARY
  5
6B
102
{ACAD_REACTORS
330
C
102
}
330
C
100
AcDbDictionary
281
     1
  0
DICTIONARY
  5
D
102
{ACAD_REACTORS
330
C
102
}
330
C
100
AcDbDictionary
281
     1
  0
DICTIONARY
  5
6A
102
{ACAD_REACTORS
330
C
102
}
330
C
100
AcDbDictionary
281
     1
  3
Layout1
350
74
  3
Layout2
350
7C
  3
Model
350
78
  0
DICTIONARY
  5
10
102
{ACAD_REACTORS
330
C
102
}
330
C
100
AcDbDictionary
281
     1
  3
ByBlock
350
19
  3
ByLayer
350
11
  3
Global
350
21
  0
DICTIONARY
  5
6E
102
{ACAD_REACTORS
330
C
102
}
330
C
100
AcDbDictionary
281
     1
  3
Standard
350
6F
  0
DICTIONARY
  5
67
102
{ACAD_REACTORS
330
C
102
}
330
C
100
AcDbDictionary
281
     1
  3
Standard
350
68
  0
DICTIONARY
  5
69
102
{ACAD_REACTORS
330
C
102
}
330
C
100
AcDbDictionary
281
     1
  0
ACDBDICTIONARYWDFLT
  5
E
102
{ACAD_REACTORS
330
C
102
}
330
C
100
AcDbDictionary
281
     1
  3
Normal
350
F
100
AcDbDictionaryWithDefault
340
F
  0
DICTIONARY
  5
3A
102
{ACAD_REACTORS
330
C
102
}
330
C
100
AcDbDictionary
281
     1
  3
A0
350
3B
  3
A1
350
3C
  3
A2
350
3D
  3
A3
350
3E
  3
A4
350
3F
  3
A5
350
40
  3
A6
350
41
  3
A7
350
42
  3
A8
350
43
  3
A9
350
44
  3
B0
350
45
  3
B1
350
46
  3
B2
350
47
  3
B3
350
48
  3
B4
350
49
  3
B5
350
4A
  3
B6
350
4B
  3
B7
350
4C
  3
B8
350
4D
  3
B9
350
4E
  3
C0
350
4F
  3
C1
350
50
  3
C2
350
51
  3
C3
350
52
  3
C4
350
53
  3
C5
350
54
  3
C6
350
55
  3
C7
350
56
  3
C8
350
57
  3
C9
350
58
  3
D0
350
59
  3
D1
350
5A
  3
D2
350
5B
  0
DICTIONARY
  5
6C
102
{ACAD_REACTORS
330
C
102
}
330
C
100
AcDbDictionary
281
     1
  3
Standard
350
6D
  0
DICTIONARY
  5
29
102
{ACAD_REACTORS
330
C
102
}
330
C
100
AcDbDictionary
281
     1
  3
2dWireframe
350
2F
  3
3D Hidden
350
31
  3
3dWireframe
350
30
  3
Basic
350
2E
  3
Brighten
350
35
  3
ColorChange
350
39
  3
Conceptual
350
32
  3
Dim
350
34
  3
Facepattern
350
38
  3
Flat
350
2A
  3
FlatWithEdges
350
2B
  3
Gouraud
350
2C
  3
GouraudWithEdges
350
2D
  3
Linepattern
350
37
  3
Realistic
350
33
  3
Thicken
350
36
  0
XRECORD
  5
10D3
102
{ACAD_REACTORS
330
C
102
}
330
C
100
AcDbXrecord
280
     1
 90
        1
330
6D
  0
DICTIONARY
  5
10CA
102
{ACAD_REACTORS
330
C
102
}
330
C
100
AcDbDictionary
281
     1
  3
CANNOSCALE
350
10CE
  3
CMLEADERSTYLE
350
10CC
  3
CTABLESTYLE
350
10CB
  3
DIMASSOC
350
1107
  3
HIDETEXT
350
1106
  3
INDEXCTL
350
1105
  3
LIGHTINGUNITS
350
10CF
  3
MSLTSCALE
350
10CD
  3
SORTENTS
350
1104
  0
XRECORD
  5
110A
102
{ACAD_REACTORS
330
C
102
}
330
C
100
AcDbXrecord
280
     1
  1
DWGPROPS COOKIE
  2

  3

  4

  6

  7

  8
CJ036
  9

300
Manager=
301
Company=
302
Category=
303
Part Number=0093-122457
304
Description=Franke Plaster sink LH
305
Project=
306
Designer=
307
Engineer=
308
Authority=
309
Cost Center=
 40
0.0043889583333333
 41
2455265.354359329
 42
2455267.393100093
  1

 90
       43
300
Vendor=
300
User Status=
300
Design Status=WorkInProgress
300
Checked by=
300
Engr Approved by=
300
Mfg Approved by=
300
Departement=FSI-Marketing
300
Project=Sirius
300
Collection=SIRX835
300
Category=CAD-Drawings
300
Document_Number=0093-122457
300
Unit=mm
300
Scale=NTS
300
Tolerance=ISO 2768 m
300
Drawn_By=HK034
300
Drawn_Date=01/18/2010
300
Modified_By=CJ036
300
Modified_Date=03/08/2010
300
Revision_Index_1=F
300
Revision_By_1=CJ036
300
Revision_Memo_1=
300
Revision_Titel_1=
300
Status=
300
ECN=
300
Quantity=
300
EAN=7612210016974
300
FUN=
300
Part_number=SIRX835
300
Title=Franke Plaster sink LH
300
Revision_Date_1=03/08/2010
300
Auxiliary_Remark1=
300
Material=ST ST 304
300
Weight=19.065 kg
  0
LAYOUT
  5
74
102
{ACAD_XDICTIONARY
360
110C
102
}
102
{ACAD_REACTORS
330
6A
102
}
330
6A
100
AcDbPlotSettings
  1

  2

  4

  6

 40
0.0
 41
0.0
 42
0.0
 43
0.0
 44
0.0
 45
0.0
 46
0.0
 47
0.0
 48
0.0
 49
0.0
140
0.0
141
0.0
142
1.0
143
1.0
 70
   688
 72
     0
 73
     0
 74
     5
  7

 75
    16
147
1.0
148
0.0
149
0.0
100
AcDbLayout
  1
Layout1
 70
     1
 71
     1
 10
0.0
 20
0.0
 11
2730.0
 21
3861.0
 12
0.0
 22
0.0
 32
0.0
 14
0.0
 24
0.0
 34
0.0
 15
2730.0
 25
3861.0
 35
0.0
146
0.0
 13
0.0
 23
0.0
 33
0.0
 16
1.0
 26
0.0
 36
0.0
 17
0.0
 27
1.0
 37
0.0
 76
     0
330
71
  0
LAYOUT
  5
7C
102
{ACAD_XDICTIONARY
360
1110
102
}
102
{ACAD_REACTORS
330
6A
102
}
330
6A
100
AcDbPlotSettings
  1

  2

  4

  6

 40
0.0
 41
0.0
 42
0.0
 43
0.0
 44
0.0
 45
0.0
 46
0.0
 47
0.0
 48
0.0
 49
0.0
140
0.0
141
0.0
142
1.0
143
1.0
 70
   688
 72
     0
 73
     0
 74
     5
  7

 75
    16
147
1.0
148
0.0
149
0.0
100
AcDbLayout
  1
Layout2
 70
     1
 71
     2
 10
0.0
 20
0.0
 11
12.0
 21
9.0
 12
0.0
 22
0.0
 32
0.0
 14
0.0
 24
0.0
 34
0.0
 15
0.0
 25
0.0
 35
0.0
146
0.0
 13
0.0
 23
0.0
 33
0.0
 16
1.0
 26
0.0
 36
0.0
 17
0.0
 27
1.0
 37
0.0
 76
     0
330
79
  0
LAYOUT
  5
78
102
{ACAD_XDICTIONARY
360
110E
102
}
102
{ACAD_REACTORS
330
6A
102
}
330
6A
100
AcDbPlotSettings
  1

  2

  4

  6

 40
0.0
 41
0.0
 42
0.0
 43
0.0
 44
0.0
 45
0.0
 46
0.0
 47
0.0
 48
0.0
 49
0.0
140
0.0
141
0.0
142
1.0
143
1.0
 70
  1712
 72
     0
 73
     0
 74
     0
  7

 75
     0
147
1.0
148
0.0
149
0.0
100
AcDbLayout
  1
Model
 70
     1
 71
     0
 10
0.0
 20
0.0
 11
12.0
 21
9.0
 12
0.0
 22
0.0
 32
0.0
 14
0.0
 24
0.0
 34
0.0
 15
0.0
 25
0.0
 35
0.0
146
0.0
 13
0.0
 23
0.0
 33
0.0
 16
1.0
 26
0.0
 36
0.0
 17
0.0
 27
1.0
 37
0.0
 76
     0
330
75
331
5F
  0
MATERIAL
  5
19
102
{ACAD_XDICTIONARY
360
1A
102
}
102
{ACAD_REACTORS
330
10
102
}
330
10
100
AcDbMaterial
  1
ByBlock
 72
     0
 43
0.0208333333333333
 43
0.0
 43
0.0
 43
0.0
 43
0.0
 43
0.0208333333333333
 43
0.0
 43
0.0
 43
0.0
 43
0.0
 43
1.0
 43
0.0
 43
0.0
 43
0.0
 43
0.0
 43
1.0
 77
     0
 47
0.0208333333333333
 47
0.0
 47
0.0
 47
0.0
 47
0.0
 47
0.0208333333333333
 47
0.0
 47
0.0
 47
0.0
 47
0.0
 47
1.0
 47
0.0
 47
0.0
 47
0.0
 47
0.0
 47
1.0
171
     0
 49
0.0208333333333333
 49
0.0
 49
0.0
 49
0.0
 49
0.0
 49
0.0208333333333333
 49
0.0
 49
0.0
 49
0.0
 49
0.0
 49
1.0
 49
0.0
 49
0.0
 49
0.0
 49
0.0
 49
1.0
175
     0
142
0.0208333333333333
142
0.0
142
0.0
142
0.0
142
0.0
142
0.0208333333333333
142
0.0
142
0.0
142
0.0
142
0.0
142
1.0
142
0.0
142
0.0
142
0.0
142
0.0
142
1.0
179
     0
144
0.0208333333333333
144
0.0
144
0.0
144
0.0
144
0.0
144
0.0208333333333333
144
0.0
144
0.0
144
0.0
144
0.0
144
1.0
144
0.0
144
0.0
144
0.0
144
0.0
144
1.0
147
0.0208333333333333
147
0.0
147
0.0
147
0.0
147
0.0
147
0.0208333333333333
147
0.0
147
0.0
147
0.0
147
0.0
147
1.0
147
0.0
147
0.0
147
0.0
147
0.0
147
1.0
  0
MATERIAL
  5
11
102
{ACAD_XDICTIONARY
360
12
102
}
102
{ACAD_REACTORS
330
10
102
}
330
10
100
AcDbMaterial
  1
ByLayer
 72
     0
 43
0.0208333333333333
 43
0.0
 43
0.0
 43
0.0
 43
0.0
 43
0.0208333333333333
 43
0.0
 43
0.0
 43
0.0
 43
0.0
 43
1.0
 43
0.0
 43
0.0
 43
0.0
 43
0.0
 43
1.0
 77
     0
 47
0.0208333333333333
 47
0.0
 47
0.0
 47
0.0
 47
0.0
 47
0.0208333333333333
 47
0.0
 47
0.0
 47
0.0
 47
0.0
 47
1.0
 47
0.0
 47
0.0
 47
0.0
 47
0.0
 47
1.0
171
     0
 49
0.0208333333333333
 49
0.0
 49
0.0
 49
0.0
 49
0.0
 49
0.0208333333333333
 49
0.0
 49
0.0
 49
0.0
 49
0.0
 49
1.0
 49
0.0
 49
0.0
 49
0.0
 49
0.0
 49
1.0
175
     0
142
0.0208333333333333
142
0.0
142
0.0
142
0.0
142
0.0
142
0.0208333333333333
142
0.0
142
0.0
142
0.0
142
0.0
142
1.0
142
0.0
142
0.0
142
0.0
142
0.0
142
1.0
179
     0
144
0.0208333333333333
144
0.0
144
0.0
144
0.0
144
0.0
144
0.0208333333333333
144
0.0
144
0.0
144
0.0
144
0.0
144
1.0
144
0.0
144
0.0
144
0.0
144
0.0
144
1.0
147
0.0208333333333333
147
0.0
147
0.0
147
0.0
147
0.0
147
0.0208333333333333
147
0.0
147
0.0
147
0.0
147
0.0
147
1.0
147
0.0
147
0.0
147
0.0
147
0.0
147
1.0
  0
MATERIAL
  5
21
102
{ACAD_XDICTIONARY
360
22
102
}
102
{ACAD_REACTORS
330
10
102
}
330
10
100
AcDbMaterial
  1
Global
 72
     0
 43
0.0208333333333333
 43
0.0
 43
0.0
 43
0.0
 43
0.0
 43
0.0208333333333333
 43
0.0
 43
0.0
 43
0.0
 43
0.0
 43
1.0
 43
0.0
 43
0.0
 43
0.0
 43
0.0
 43
1.0
 77
     0
 47
0.0208333333333333
 47
0.0
 47
0.0
 47
0.0
 47
0.0
 47
0.0208333333333333
 47
0.0
 47
0.0
 47
0.0
 47
0.0
 47
1.0
 47
0.0
 47
0.0
 47
0.0
 47
0.0
 47
1.0
171
     0
 49
0.0208333333333333
 49
0.0
 49
0.0
 49
0.0
 49
0.0
 49
0.0208333333333333
 49
0.0
 49
0.0
 49
0.0
 49
0.0
 49
1.0
 49
0.0
 49
0.0
 49
0.0
 49
0.0
 49
1.0
175
     0
142
0.0208333333333333
142
0.0
142
0.0
142
0.0
142
0.0
142
0.0208333333333333
142
0.0
142
0.0
142
0.0
142
0.0
142
1.0
142
0.0
142
0.0
142
0.0
142
0.0
142
1.0
179
     0
144
0.0208333333333333
144
0.0
144
0.0
144
0.0
144
0.0
144
0.0208333333333333
144
0.0
144
0.0
144
0.0
144
0.0
144
1.0
144
0.0
144
0.0
144
0.0
144
0.0
144
1.0
147
0.0208333333333333
147
0.0
147
0.0
147
0.0
147
0.0
147
0.0208333333333333
147
0.0
147
0.0
147
0.0
147
0.0
147
1.0
147
0.0
147
0.0
147
0.0
147
0.0
147
1.0
  0
MLEADERSTYLE
  5
6F
102
{ACAD_REACTORS
330
6E
102
}
330
6E
100
AcDbMLeaderStyle
170
     2
171
     1
172
     0
 90
        2
 40
0.0
 41
0.0
173
     1
 91
-1056964608
340
63
 92
       -2
290
     1
 42
0.09
291
     1
 43
0.36
  3
Standard
 44
0.18
300

342
5D
174
     1
178
     6
175
     1
176
     0
 93
-1056964608
 45
0.18
292
     0
297
     0
 46
0.18
 94
-1056964608
 47
1.0
 49
1.0
140
1.0
293
     1
141
0.0
294
     1
177
     0
142
1.0
295
     0
296
     0
143
0.125
1001
ACAD_MLEADERVER
1070
     2
  0
MLINESTYLE
  5
68
102
{ACAD_REACTORS
330
67
102
}
330
67
100
AcDbMlineStyle
  2
STANDARD
 70
     0
  3

 62
   256
 51
90.0
 52
90.0
 71
     2
 49
0.5
 62
   256
  6
BYLAYER
 49
-0.5
 62
   256
  6
BYLAYER
  0
ACDBPLACEHOLDER
  5
F
102
{ACAD_REACTORS
330
E
102
}
330
E
  0
SCALE
  5
3B
102
{ACAD_REACTORS
330
3A
102
}
330
3A
100
AcDbScale
 70
     0
300
1:1
140
1.0
141
1.0
290
     1
  0
SCALE
  5
3C
102
{ACAD_REACTORS
330
3A
102
}
330
3A
100
AcDbScale
 70
     0
300
1:2
140
1.0
141
2.0
290
     0
  0
SCALE
  5
3D
102
{ACAD_REACTORS
330
3A
102
}
330
3A
100
AcDbScale
 70
     0
300
1:4
140
1.0
141
4.0
290
     0
  0
SCALE
  5
3E
102
{ACAD_REACTORS
330
3A
102
}
330
3A
100
AcDbScale
 70
     0
300
1:5
140
1.0
141
5.0
290
     0
  0
SCALE
  5
3F
102
{ACAD_REACTORS
330
3A
102
}
330
3A
100
AcDbScale
 70
     0
300
1:8
140
1.0
141
8.0
290
     0
  0
SCALE
  5
40
102
{ACAD_REACTORS
330
3A
102
}
330
3A
100
AcDbScale
 70
     0
300
1:10
140
1.0
141
10.0
290
     0
  0
SCALE
  5
41
102
{ACAD_REACTORS
330
3A
102
}
330
3A
100
AcDbScale
 70
     0
300
1:16
140
1.0
141
16.0
290
     0
  0
SCALE
  5
42
102
{ACAD_REACTORS
330
3A
102
}
330
3A
100
AcDbScale
 70
     0
300
1:20
140
1.0
141
20.0
290
     0
  0
SCALE
  5
43
102
{ACAD_REACTORS
330
3A
102
}
330
3A
100
AcDbScale
 70
     0
300
1:30
140
1.0
141
30.0
290
     0
  0
SCALE
  5
44
102
{ACAD_REACTORS
330
3A
102
}
330
3A
100
AcDbScale
 70
     0
300
1:40
140
1.0
141
40.0
290
     0
  0
SCALE
  5
45
102
{ACAD_REACTORS
330
3A
102
}
330
3A
100
AcDbScale
 70
     0
300
1:50
140
1.0
141
50.0
290
     0
  0
SCALE
  5
46
102
{ACAD_REACTORS
330
3A
102
}
330
3A
100
AcDbScale
 70
     0
300
1:100
140
1.0
141
100.0
290
     0
  0
SCALE
  5
47
102
{ACAD_REACTORS
330
3A
102
}
330
3A
100
AcDbScale
 70
     0
300
2:1
140
2.0
141
1.0
290
     0
  0
SCALE
  5
48
102
{ACAD_REACTORS
330
3A
102
}
330
3A
100
AcDbScale
 70
     0
300
4:1
140
4.0
141
1.0
290
     0
  0
SCALE
  5
49
102
{ACAD_REACTORS
330
3A
102
}
330
3A
100
AcDbScale
 70
     0
300
8:1
140
8.0
141
1.0
290
     0
  0
SCALE
  5
4A
102
{ACAD_REACTORS
330
3A
102
}
330
3A
100
AcDbScale
 70
     0
300
10:1
140
10.0
141
1.0
290
     0
  0
SCALE
  5
4B
102
{ACAD_REACTORS
330
3A
102
}
330
3A
100
AcDbScale
 70
     0
300
100:1
140
100.0
141
1.0
290
     0
  0
SCALE
  5
4C
102
{ACAD_REACTORS
330
3A
102
}
330
3A
100
AcDbScale
 70
     0
300
1/128" = 1'-0"
140
0.0078125
141
12.0
290
     0
  0
SCALE
  5
4D
102
{ACAD_REACTORS
330
3A
102
}
330
3A
100
AcDbScale
 70
     0
300
1/64" = 1'-0"
140
0.015625
141
12.0
290
     0
  0
SCALE
  5
4E
102
{ACAD_REACTORS
330
3A
102
}
330
3A
100
AcDbScale
 70
     0
300
1/32" = 1'-0"
140
0.03125
141
12.0
290
     0
  0
SCALE
  5
4F
102
{ACAD_REACTORS
330
3A
102
}
330
3A
100
AcDbScale
 70
     0
300
1/16" = 1'-0"
140
0.0625
141
12.0
290
     0
  0
SCALE
  5
50
102
{ACAD_REACTORS
330
3A
102
}
330
3A
100
AcDbScale
 70
     0
300
3/32" = 1'-0"
140
0.09375
141
12.0
290
     0
  0
SCALE
  5
51
102
{ACAD_REACTORS
330
3A
102
}
330
3A
100
AcDbScale
 70
     0
300
1/8" = 1'-0"
140
0.125
141
12.0
290
     0
  0
SCALE
  5
52
102
{ACAD_REACTORS
330
3A
102
}
330
3A
100
AcDbScale
 70
     0
300
3/16" = 1'-0"
140
0.1875
141
12.0
290
     0
  0
SCALE
  5
53
102
{ACAD_REACTORS
330
3A
102
}
330
3A
100
AcDbScale
 70
     0
300
1/4" = 1'-0"
140
0.25
141
12.0
290
     0
  0
SCALE
  5
54
102
{ACAD_REACTORS
330
3A
102
}
330
3A
100
AcDbScale
 70
     0
300
3/8" = 1'-0"
140
0.375
141
12.0
290
     0
  0
SCALE
  5
55
102
{ACAD_REACTORS
330
3A
102
}
330
3A
100
AcDbScale
 70
     0
300
1/2" = 1'-0"
140
0.5
141
12.0
290
     0
  0
SCALE
  5
56
102
{ACAD_REACTORS
330
3A
102
}
330
3A
100
AcDbScale
 70
     0
300
3/4" = 1'-0"
140
0.75
141
12.0
290
     0
  0
SCALE
  5
57
102
{ACAD_REACTORS
330
3A
102
}
330
3A
100
AcDbScale
 70
     0
300
1" = 1'-0"
140
1.0
141
12.0
290
     0
  0
SCALE
  5
58
102
{ACAD_REACTORS
330
3A
102
}
330
3A
100
AcDbScale
 70
     0
300
1-1/2" = 1'-0"
140
1.5
141
12.0
290
     0
  0
SCALE
  5
59
102
{ACAD_REACTORS
330
3A
102
}
330
3A
100
AcDbScale
 70
     0
300
3" = 1'-0"
140
3.0
141
12.0
290
     0
  0
SCALE
  5
5A
102
{ACAD_REACTORS
330
3A
102
}
330
3A
100
AcDbScale
 70
     0
300
6" = 1'-0"
140
6.0
141
12.0
290
     0
  0
SCALE
  5
5B
102
{ACAD_REACTORS
330
3A
102
}
330
3A
100
AcDbScale
 70
     0
300
1'-0" = 1'-0"
140
12.0
141
12.0
290
     0
  0
TABLESTYLE
  5
6D
102
{ACAD_XDICTIONARY
360
10D0
102
}
102
{ACAD_REACTORS
330
6C
102
}
330
6C
100
AcDbTableStyle
  3
Standard
 70
     0
 71
     0
 40
0.06
 41
0.06
280
     0
281
     0
  7
Standard
140
0.18
170
     2
 62
     0
 63
     7
283
     0
274
    -2
284
     1
 64
     0
275
    -2
285
     1
 65
     0
276
    -2
286
     1
 66
     0
277
    -2
287
     1
 67
     0
278
    -2
288
     1
 68
     0
279
    -2
289
     1
 69
     0
  7
Standard
140
0.25
170
     5
 62
     0
 63
     7
283
     0
274
    -2
284
     1
 64
     0
275
    -2
285
     1
 65
     0
276
    -2
286
     1
 66
     0
277
    -2
287
     1
 67
     0
278
    -2
288
     1
 68
     0
279
    -2
289
     1
 69
     0
  7
Standard
140
0.18
170
     5
 62
     0
 63
     7
283
     0
274
    -2
284
     1
 64
     0
275
    -2
285
     1
 65
     0
276
    -2
286
     1
 66
     0
277
    -2
287
     1
 67
     0
278
    -2
288
     1
 68
     0
279
    -2
289
     1
 69
     0
  0
VISUALSTYLE
  5
2F
102
{ACAD_REACTORS
330
29
102
}
330
29
100
AcDbVisualStyle
  2
2dWireframe
 70
     4
 71
     0
 72
     2
 73
     0
 90
        0
 40
-0.6
 41
-30.0
 62
     5
 63
     7
 74
     1
 91
        4
 64
     7
 65
   257
 75
     1
175
     1
 42
1.0
 92
        0
 66
   257
 43
1.0
 76
     1
 77
     6
 78
     2
 67
     7
 79
     5
170
     0
171
     0
290
     0
174
     0
 93
        1
 44
0.0
173
     0
291
     0
 45
0.0
1001
ACAD
1000
AcDbSavedByObjectVersion
1070
     0
1000
AcDbSavedByObjectVersion
1070
     0
  0
VISUALSTYLE
  5
31
102
{ACAD_REACTORS
330
29
102
}
330
29
100
AcDbVisualStyle
  2
3D Hidden
 70
     6
 71
     1
 72
     2
 73
     2
 90
        0
 40
-0.6
 41
-30.0
 62
     5
 63
     7
 74
     2
 91
        2
 64
     7
 65
   257
 75
     2
175
     1
 42
40.0
 92
        0
 66
   257
 43
1.0
 76
     1
 77
     6
 78
     2
 67
     7
 79
     3
170
     0
171
     0
290
     0
174
     0
 93
        1
 44
0.0
173
     0
291
     0
 45
0.0
1001
ACAD
1000
AcDbSavedByObjectVersion
1070
     0
1000
AcDbSavedByObjectVersion
1070
     0
  0
VISUALSTYLE
  5
30
102
{ACAD_REACTORS
330
29
102
}
330
29
100
AcDbVisualStyle
  2
3dWireframe
 70
     5
 71
     0
 72
     2
 73
     0
 90
        0
 40
-0.6
 41
-30.0
 62
     5
 63
     7
 74
     1
 91
        4
 64
     7
 65
   257
 75
     1
175
     1
 42
1.0
 92
        0
 66
   257
 43
1.0
 76
     1
 77
     6
 78
     2
 67
     7
 79
     5
170
     0
171
     0
290
     0
174
     0
 93
        1
 44
0.0
173
     0
291
     0
 45
0.0
1001
ACAD
1000
AcDbSavedByObjectVersion
1070
     0
1000
AcDbSavedByObjectVersion
1070
     0
  0
VISUALSTYLE
  5
2E
102
{ACAD_REACTORS
330
29
102
}
330
29
100
AcDbVisualStyle
  2
Basic
 70
     7
 71
     1
 72
     0
 73
     1
 90
        0
 40
-0.6
 41
-30.0
 62
     5
 63
     7
 74
     0
 91
        4
 64
     7
 65
   257
 75
     1
175
     1
 42
1.0
 92
        8
 66
     7
 43
1.0
 76
     1
 77
     6
 78
     2
 67
     7
 79
     5
170
     0
171
     0
290
     0
174
     0
 93
        1
 44
0.0
173
     0
291
     1
 45
0.0
1001
ACAD
1000
AcDbSavedByObjectVersion
1070
     0
1000
AcDbSavedByObjectVersion
1070
     0
  0
VISUALSTYLE
  5
35
102
{ACAD_REACTORS
330
29
102
}
330
29
100
AcDbVisualStyle
  2
Brighten
 70
    12
 71
     2
 72
     2
 73
     0
 90
        0
 40
-0.6
 41
-30.0
 62
     5
 63
     7
 74
     1
 91
        4
 64
     7
 65
   257
 75
     1
175
     1
 42
1.0
 92
        8
 66
     7
 43
1.0
 76
     1
 77
     6
 78
     2
 67
     7
 79
     5
170
     0
171
     0
290
     0
174
     0
 93
        1
 44
50.0
173
     0
291
     1
 45
0.0
1001
ACAD
1000
AcDbSavedByObjectVersion
1070
     0
1000
AcDbSavedByObjectVersion
1070
     0
  0
VISUALSTYLE
  5
39
102
{ACAD_REACTORS
330
29
102
}
330
29
100
AcDbVisualStyle
  2
ColorChange
 70
    16
 71
     2
 72
     2
 73
     3
 90
        0
 40
-0.6
 41
-30.0
 62
     5
 63
     8
 74
     1
 91
        4
 64
     7
 65
   257
 75
     1
175
     1
 42
1.0
 92
        8
 66
     8
 43
1.0
 76
     1
 77
     6
 78
     2
 67
     7
 79
     5
170
     0
171
     0
290
     0
174
     0
 93
        1
 44
0.0
173
     0
291
     1
 45
0.0
1001
ACAD
1000
AcDbSavedByObjectVersion
1070
     0
1000
AcDbSavedByObjectVersion
1070
     0
  0
VISUALSTYLE
  5
32
102
{ACAD_REACTORS
330
29
102
}
330
29
100
AcDbVisualStyle
  2
Conceptual
 70
     9
 71
     3
 72
     2
 73
     0
 90
        0
 40
-0.6
 41
-30.0
 62
     5
 63
     7
 74
     2
 91
        2
 64
     7
 65
   257
 75
     1
175
     1
 42
40.0
 92
        8
 66
     7
 43
1.0
 76
     1
 77
     6
 78
     2
 67
     7
 79
     3
170
     0
171
     0
290
     0
174
     0
 93
        1
 44
0.0
173
     0
291
     0
 45
0.0
1001
ACAD
1000
AcDbSavedByObjectVersion
1070
     0
1000
AcDbSavedByObjectVersion
1070
     0
  0
VISUALSTYLE
  5
34
102
{ACAD_REACTORS
330
29
102
}
330
29
100
AcDbVisualStyle
  2
Dim
 70
    11
 71
     2
 72
     2
 73
     0
 90
        0
 40
-0.6
 41
-30.0
 62
     5
 63
     7
 74
     1
 91
        4
 64
     7
 65
   257
 75
     1
175
     1
 42
1.0
 92
        8
 66
     7
 43
1.0
 76
     1
 77
     6
 78
     2
 67
     7
 79
     5
170
     0
171
     0
290
     0
174
     0
 93
        1
 44
-50.0
173
     0
291
     1
 45
0.0
1001
ACAD
1000
AcDbSavedByObjectVersion
1070
     0
1000
AcDbSavedByObjectVersion
1070
     0
  0
VISUALSTYLE
  5
38
102
{ACAD_REACTORS
330
29
102
}
330
29
100
AcDbVisualStyle
  2
Facepattern
 70
    15
 71
     2
 72
     2
 73
     0
 90
        0
 40
-0.6
 41
-30.0
 62
     5
 63
     7
 74
     1
 91
        4
 64
     7
 65
   257
 75
     1
175
     1
 42
1.0
 92
        8
 66
     7
 43
1.0
 76
     1
 77
     6
 78
     2
 67
     7
 79
     5
170
     0
171
     0
290
     0
174
     0
 93
        1
 44
0.0
173
     0
291
     1
 45
0.0
1001
ACAD
1000
AcDbSavedByObjectVersion
1070
     0
1000
AcDbSavedByObjectVersion
1070
     0
  0
VISUALSTYLE
  5
2A
102
{ACAD_REACTORS
330
29
102
}
330
29
100
AcDbVisualStyle
  2
Flat
 70
     0
 71
     2
 72
     1
 73
     1
 90
        2
 40
-0.6
 41
30.0
 62
     5
 63
     7
 74
     0
 91
        4
 64
     7
 65
   257
 75
     1
175
     1
 42
1.0
 92
        8
 66
     7
 43
1.0
 76
     1
 77
     6
 78
     2
 67
     7
 79
     5
170
     0
171
     0
290
     0
174
     0
 93
       13
 44
0.0
173
     0
291
     1
 45
0.0
1001
ACAD
1000
AcDbSavedByObjectVersion
1070
     0
1000
AcDbSavedByObjectVersion
1070
     0
  0
VISUALSTYLE
  5
2B
102
{ACAD_REACTORS
330
29
102
}
330
29
100
AcDbVisualStyle
  2
FlatWithEdges
 70
     1
 71
     2
 72
     1
 73
     1
 90
        2
 40
-0.6
 41
30.0
 62
     5
 63
     7
 74
     1
 91
        4
 64
     7
 65
   257
 75
     1
175
     1
 42
1.0
 92
        0
 66
   257
 43
1.0
 76
     1
 77
     6
 78
     2
 67
     7
 79
     5
170
     0
171
     0
290
     0
174
     0
 93
       13
 44
0.0
173
     0
291
     1
 45
0.0
1001
ACAD
1000
AcDbSavedByObjectVersion
1070
     0
1000
AcDbSavedByObjectVersion
1070
     0
  0
VISUALSTYLE
  5
2C
102
{ACAD_REACTORS
330
29
102
}
330
29
100
AcDbVisualStyle
  2
Gouraud
 70
     2
 71
     2
 72
     2
 73
     1
 90
        2
 40
-0.6
 41
30.0
 62
     5
 63
     7
 74
     0
 91
        4
 64
     7
 65
   257
 75
     1
175
     1
 42
1.0
 92
        0
 66
     7
 43
1.0
 76
     1
 77
     6
 78
     2
 67
     7
 79
     5
170
     0
171
     0
290
     0
174
     0
 93
       13
 44
0.0
173
     0
291
     1
 45
0.0
1001
ACAD
1000
AcDbSavedByObjectVersion
1070
     0
1000
AcDbSavedByObjectVersion
1070
     0
  0
VISUALSTYLE
  5
2D
102
{ACAD_REACTORS
330
29
102
}
330
29
100
AcDbVisualStyle
  2
GouraudWithEdges
 70
     3
 71
     2
 72
     2
 73
     1
 90
        2
 40
-0.6
 41
30.0
 62
     5
 63
     7
 74
     1
 91
        4
 64
     7
 65
   257
 75
     1
175
     1
 42
1.0
 92
        0
 66
   257
 43
1.0
 76
     1
 77
     6
 78
     2
 67
     7
 79
     5
170
     0
171
     0
290
     0
174
     0
 93
       13
 44
0.0
173
     0
291
     1
 45
0.0
1001
ACAD
1000
AcDbSavedByObjectVersion
1070
     0
1000
AcDbSavedByObjectVersion
1070
     0
  0
VISUALSTYLE
  5
37
102
{ACAD_REACTORS
330
29
102
}
330
29
100
AcDbVisualStyle
  2
Linepattern
 70
    14
 71
     2
 72
     2
 73
     0
 90
        0
 40
-0.6
 41
-30.0
 62
     5
 63
     7
 74
     1
 91
        4
 64
     7
 65
   257
 75
     7
175
     7
 42
1.0
 92
        8
 66
     7
 43
1.0
 76
     1
 77
     6
 78
     2
 67
     7
 79
     5
170
     0
171
     0
290
     0
174
     0
 93
        1
 44
0.0
173
     0
291
     1
 45
0.0
1001
ACAD
1000
AcDbSavedByObjectVersion
1070
     0
1000
AcDbSavedByObjectVersion
1070
     0
  0
VISUALSTYLE
  5
33
102
{ACAD_REACTORS
330
29
102
}
330
29
100
AcDbVisualStyle
  2
Realistic
 70
     8
 71
     2
 72
     2
 73
     0
 90
        0
 40
-0.6
 41
-30.0
 62
     5
 63
     7
 74
     1
 91
        0
 64
     7
 65
   257
 75
     1
175
     1
 42
1.0
 92
        8
 66
     8
 43
1.0
 76
     1
 77
     6
 78
     2
 67
     7
 79
     5
170
     0
171
     0
290
     0
174
     0
 93
       13
 44
0.0
173
     0
291
     0
 45
0.0
1001
ACAD
1000
AcDbSavedByObjectVersion
1070
     0
1000
AcDbSavedByObjectVersion
1070
     0
  0
VISUALSTYLE
  5
36
102
{ACAD_REACTORS
330
29
102
}
330
29
100
AcDbVisualStyle
  2
Thicken
 70
    13
 71
     2
 72
     2
 73
     0
 90
        0
 40
-0.6
 41
-30.0
 62
     5
 63
     7
 74
     1
 91
        4
 64
     7
 65
   257
 75
     1
175
     1
 42
1.0
 92
       12
 66
     7
 43
1.0
 76
     1
 77
     6
 78
     2
 67
     7
 79
     5
170
     0
171
     0
290
     0
174
     0
 93
        1
 44
0.0
173
     0
291
     1
 45
0.0
1001
ACAD
1000
AcDbSavedByObjectVersion
1070
     0
1000
AcDbSavedByObjectVersion
1070
     0
  0
DICTIONARYVAR
  5
10CE
102
{ACAD_REACTORS
330
10CA
102
}
330
10CA
100
DictionaryVariables
280
     0
  1
1:1
  0
DICTIONARYVAR
  5
10CC
102
{ACAD_REACTORS
330
10CA
102
}
330
10CA
100
DictionaryVariables
280
     0
  1
STANDARD
  0
DICTIONARYVAR
  5
10CB
102
{ACAD_REACTORS
330
10CA
102
}
330
10CA
100
DictionaryVariables
280
     0
  1
STANDARD
  0
DICTIONARYVAR
  5
1107
102
{ACAD_REACTORS
330
10CA
102
}
330
10CA
100
DictionaryVariables
280
     0
  1
1
  0
DICTIONARYVAR
  5
1106
102
{ACAD_REACTORS
330
10CA
102
}
330
10CA
100
DictionaryVariables
280
     0
  1
1
  0
DICTIONARYVAR
  5
1105
102
{ACAD_REACTORS
330
10CA
102
}
330
10CA
100
DictionaryVariables
280
     0
  1
0
  0
DICTIONARYVAR
  5
10CF
102
{ACAD_REACTORS
330
10CA
102
}
330
10CA
100
DictionaryVariables
280
     0
  1
2
  0
DICTIONARYVAR
  5
10CD
102
{ACAD_REACTORS
330
10CA
102
}
330
10CA
100
DictionaryVariables
280
     0
  1
1
  0
DICTIONARYVAR
  5
1104
102
{ACAD_REACTORS
330
10CA
102
}
330
10CA
100
DictionaryVariables
280
     0
  1
127
  0
DICTIONARY
  5
110C
330
74
100
AcDbDictionary
280
     1
281
     1
  3
ACAD_XREC_ROUNDTRIP
360
110D
  0
DICTIONARY
  5
1110
330
7C
100
AcDbDictionary
280
     1
281
     1
  3
ACAD_XREC_ROUNDTRIP
360
1111
  0
DICTIONARY
  5
110E
330
78
100
AcDbDictionary
280
     1
281
     1
  3
ACAD_XREC_ROUNDTRIP
360
110F
  0
DICTIONARY
  5
1A
330
19
100
AcDbDictionary
280
     1
281
     1
  3
ACAD_XREC_ROUNDTRIP
360
10D5
  3
BUMPTILE
360
1C
  3
DIFFUSETILE
360
1B
  3
OPACITYTILE
360
1F
  3
REFLECTIONTILE
360
1E
  3
REFRACTIONTILE
360
20
  3
SPECULARTILE
360
1D
  0
DICTIONARY
  5
12
330
11
100
AcDbDictionary
280
     1
281
     1
  3
ACAD_XREC_ROUNDTRIP
360
10D4
  3
BUMPTILE
360
14
  3
DIFFUSETILE
360
13
  3
OPACITYTILE
360
17
  3
REFLECTIONTILE
360
16
  3
REFRACTIONTILE
360
18
  3
SPECULARTILE
360
15
  0
DICTIONARY
  5
22
330
21
100
AcDbDictionary
280
     1
281
     1
  3
ACAD_XREC_ROUNDTRIP
360
10D6
  3
BUMPTILE
360
24
  3
DIFFUSETILE
360
23
  3
OPACITYTILE
360
27
  3
REFLECTIONTILE
360
26
  3
REFRACTIONTILE
360
28
  3
SPECULARTILE
360
25
  0
DICTIONARY
  5
10D0
330
6D
100
AcDbDictionary
280
     1
281
     1
  3
ACAD_ROUNDTRIP_2008_TABLESTYLE_CELLSTYLEMAP
360
1108
  3
ACAD_XREC_ROUNDTRIP
360
110B
  0
XRECORD
  5
110D
102
{ACAD_REACTORS
330
110C
102
}
330
110C
100
AcDbXrecord
280
     1
102
SHADEPLOT
 70
     0
102
SHADEPLOTRESLEVEL
 70
     2
102
SHADEPLOTCUSTOMDPI
 70
   300
  0
XRECORD
  5
1111
102
{ACAD_REACTORS
330
1110
102
}
330
1110
100
AcDbXrecord
280
     1
102
SHADEPLOT
 70
     0
102
SHADEPLOTRESLEVEL
 70
     2
102
SHADEPLOTCUSTOMDPI
 70
   300
  0
XRECORD
  5
110F
102
{ACAD_REACTORS
330
110E
102
}
330
110E
100
AcDbXrecord
280
     1
102
SHADEPLOT
 70
     0
102
SHADEPLOTRESLEVEL
 70
     2
102
SHADEPLOTCUSTOMDPI
 70
   300
  0
XRECORD
  5
10D5
102
{ACAD_REACTORS
330
1A
102
}
330
1A
100
AcDbXrecord
280
     1
102
MATERIAL
148
0.0
149
0.0
149
0.0
 93
        0
 94
      127
282
     0
 72
     0
 77
     0
171
     0
175
     0
179
     0
273
     0
  0
XRECORD
  5
1C
102
{ACAD_REACTORS
330
1A
102
}
330
1A
100
AcDbXrecord
280
     1
270
     1
271
     1
  0
XRECORD
  5
1B
102
{ACAD_REACTORS
330
1A
102
}
330
1A
100
AcDbXrecord
280
     1
270
     1
271
     1
  0
XRECORD
  5
1F
102
{ACAD_REACTORS
330
1A
102
}
330
1A
100
AcDbXrecord
280
     1
270
     1
271
     1
  0
XRECORD
  5
1E
102
{ACAD_REACTORS
330
1A
102
}
330
1A
100
AcDbXrecord
280
     1
270
     1
271
     1
  0
XRECORD
  5
20
102
{ACAD_REACTORS
330
1A
102
}
330
1A
100
AcDbXrecord
280
     1
270
     1
271
     1
  0
XRECORD
  5
1D
102
{ACAD_REACTORS
330
1A
102
}
330
1A
100
AcDbXrecord
280
     1
270
     1
271
     1
  0
XRECORD
  5
10D4
102
{ACAD_REACTORS
330
12
102
}
330
12
100
AcDbXrecord
280
     1
102
MATERIAL
148
0.0
149
0.0
149
0.0
 93
        0
 94
      127
282
     0
 72
     0
 77
     0
171
     0
175
     0
179
     0
273
     0
  0
XRECORD
  5
14
102
{ACAD_REACTORS
330
12
102
}
330
12
100
AcDbXrecord
280
     1
270
     1
271
     1
  0
XRECORD
  5
13
102
{ACAD_REACTORS
330
12
102
}
330
12
100
AcDbXrecord
280
     1
270
     1
271
     1
  0
XRECORD
  5
17
102
{ACAD_REACTORS
330
12
102
}
330
12
100
AcDbXrecord
280
     1
270
     1
271
     1
  0
XRECORD
  5
16
102
{ACAD_REACTORS
330
12
102
}
330
12
100
AcDbXrecord
280
     1
270
     1
271
     1
  0
XRECORD
  5
18
102
{ACAD_REACTORS
330
12
102
}
330
12
100
AcDbXrecord
280
     1
270
     1
271
     1
  0
XRECORD
  5
15
102
{ACAD_REACTORS
330
12
102
}
330
12
100
AcDbXrecord
280
     1
270
     1
271
     1
  0
XRECORD
  5
10D6
102
{ACAD_REACTORS
330
22
102
}
330
22
100
AcDbXrecord
280
     1
102
MATERIAL
148
0.0
149
0.0
149
0.0
 93
        0
 94
      127
282
     0
 72
     0
 77
     0
171
     0
175
     0
179
     0
273
     0
  0
XRECORD
  5
24
102
{ACAD_REACTORS
330
22
102
}
330
22
100
AcDbXrecord
280
     1
270
     1
271
     1
  0
XRECORD
  5
23
102
{ACAD_REACTORS
330
22
102
}
330
22
100
AcDbXrecord
280
     1
270
     1
271
     1
  0
XRECORD
  5
27
102
{ACAD_REACTORS
330
22
102
}
330
22
100
AcDbXrecord
280
     1
270
     1
271
     1
  0
XRECORD
  5
26
102
{ACAD_REACTORS
330
22
102
}
330
22
100
AcDbXrecord
280
     1
270
     1
271
     1
  0
XRECORD
  5
28
102
{ACAD_REACTORS
330
22
102
}
330
22
100
AcDbXrecord
280
     1
270
     1
271
     1
  0
XRECORD
  5
25
102
{ACAD_REACTORS
330
22
102
}
330
22
100
AcDbXrecord
280
     1
270
     1
271
     1
  0
CELLSTYLEMAP
  5
1108
102
{ACAD_REACTORS
330
10D0
102
}
330
10D0
100
AcDbCellStyleMap
 90
        3
300
CELLSTYLE
  1
TABLEFORMAT_BEGIN
 90
        5
170
     1
 91
        0
 92
    32768
 62
   257
 93
        1
300
CONTENTFORMAT
  1
CONTENTFORMAT_BEGIN
 90
        0
 91
        0
 92
      512
 93
        0
300

 40
0.0
140
1.0
 94
        5
 62
     0
340
5D
144
0.25
309
CONTENTFORMAT_END
171
     1
301
MARGIN
  1
CELLMARGIN_BEGIN
 40
0.06
 40
0.06
 40
0.06
 40
0.06
 40
0.18
 40
0.18
309
CELLMARGIN_END
 94
        6
 95
        1
302
GRIDFORMAT
  1
GRIDFORMAT_BEGIN
 90
        0
 91
        1
 62
     0
 92
       -2
340
0
 93
        0
 40
0.045
309
GRIDFORMAT_END
 95
        2
302
GRIDFORMAT
  1
GRIDFORMAT_BEGIN
 90
        0
 91
        1
 62
     0
 92
       -2
340
0
 93
        0
 40
0.045
309
GRIDFORMAT_END
 95
        4
302
GRIDFORMAT
  1
GRIDFORMAT_BEGIN
 90
        0
 91
        1
 62
     0
 92
       -2
340
0
 93
        0
 40
0.045
309
GRIDFORMAT_END
 95
        8
302
GRIDFORMAT
  1
GRIDFORMAT_BEGIN
 90
        0
 91
        1
 62
     0
 92
       -2
340
0
 93
        0
 40
0.045
309
GRIDFORMAT_END
 95
       16
302
GRIDFORMAT
  1
GRIDFORMAT_BEGIN
 90
        0
 91
        1
 62
     0
 92
       -2
340
0
 93
        0
 40
0.045
309
GRIDFORMAT_END
 95
       32
302
GRIDFORMAT
  1
GRIDFORMAT_BEGIN
 90
        0
 91
        1
 62
     0
 92
       -2
340
0
 93
        0
 40
0.045
309
GRIDFORMAT_END
309
TABLEFORMAT_END
  1
CELLSTYLE_BEGIN
 90
        1
 91
        1
300
_TITLE
309
CELLSTYLE_END
300
CELLSTYLE
  1
TABLEFORMAT_BEGIN
 90
        5
170
     1
 91
        0
 92
        0
 62
   257
 93
        1
300
CONTENTFORMAT
  1
CONTENTFORMAT_BEGIN
 90
        0
 91
        0
 92
      512
 93
        0
300

 40
0.0
140
1.0
 94
        5
 62
     0
340
5D
144
0.18
309
CONTENTFORMAT_END
171
     1
301
MARGIN
  1
CELLMARGIN_BEGIN
 40
0.06
 40
0.06
 40
0.06
 40
0.06
 40
0.18
 40
0.18
309
CELLMARGIN_END
 94
        6
 95
        1
302
GRIDFORMAT
  1
GRIDFORMAT_BEGIN
 90
        0
 91
        1
 62
     0
 92
       -2
340
0
 93
        0
 40
0.045
309
GRIDFORMAT_END
 95
        2
302
GRIDFORMAT
  1
GRIDFORMAT_BEGIN
 90
        0
 91
        1
 62
     0
 92
       -2
340
0
 93
        0
 40
0.045
309
GRIDFORMAT_END
 95
        4
302
GRIDFORMAT
  1
GRIDFORMAT_BEGIN
 90
        0
 91
        1
 62
     0
 92
       -2
340
0
 93
        0
 40
0.045
309
GRIDFORMAT_END
 95
        8
302
GRIDFORMAT
  1
GRIDFORMAT_BEGIN
 90
        0
 91
        1
 62
     0
 92
       -2
340
0
 93
        0
 40
0.045
309
GRIDFORMAT_END
 95
       16
302
GRIDFORMAT
  1
GRIDFORMAT_BEGIN
 90
        0
 91
        1
 62
     0
 92
       -2
340
0
 93
        0
 40
0.045
309
GRIDFORMAT_END
 95
       32
302
GRIDFORMAT
  1
GRIDFORMAT_BEGIN
 90
        0
 91
        1
 62
     0
 92
       -2
340
0
 93
        0
 40
0.045
309
GRIDFORMAT_END
309
TABLEFORMAT_END
  1
CELLSTYLE_BEGIN
 90
        2
 91
        1
300
_HEADER
309
CELLSTYLE_END
300
CELLSTYLE
  1
TABLEFORMAT_BEGIN
 90
        5
170
     1
 91
        0
 92
        0
 62
   257
 93
        1
300
CONTENTFORMAT
  1
CONTENTFORMAT_BEGIN
 90
        0
 91
        0
 92
      512
 93
        0
300

 40
0.0
140
1.0
 94
        2
 62
     0
340
5D
144
0.18
309
CONTENTFORMAT_END
171
     1
301
MARGIN
  1
CELLMARGIN_BEGIN
 40
0.06
 40
0.06
 40
0.06
 40
0.06
 40
0.18
 40
0.18
309
CELLMARGIN_END
 94
        6
 95
        1
302
GRIDFORMAT
  1
GRIDFORMAT_BEGIN
 90
        0
 91
        1
 62
     0
 92
       -2
340
0
 93
        0
 40
0.045
309
GRIDFORMAT_END
 95
        2
302
GRIDFORMAT
  1
GRIDFORMAT_BEGIN
 90
        0
 91
        1
 62
     0
 92
       -2
340
0
 93
        0
 40
0.045
309
GRIDFORMAT_END
 95
        4
302
GRIDFORMAT
  1
GRIDFORMAT_BEGIN
 90
        0
 91
        1
 62
     0
 92
       -2
340
0
 93
        0
 40
0.045
309
GRIDFORMAT_END
 95
        8
302
GRIDFORMAT
  1
GRIDFORMAT_BEGIN
 90
        0
 91
        1
 62
     0
 92
       -2
340
0
 93
        0
 40
0.045
309
GRIDFORMAT_END
 95
       16
302
GRIDFORMAT
  1
GRIDFORMAT_BEGIN
 90
        0
 91
        1
 62
     0
 92
       -2
340
0
 93
        0
 40
0.045
309
GRIDFORMAT_END
 95
       32
302
GRIDFORMAT
  1
GRIDFORMAT_BEGIN
 90
        0
 91
        1
 62
     0
 92
       -2
340
0
 93
        0
 40
0.045
309
GRIDFORMAT_END
309
TABLEFORMAT_END
  1
CELLSTYLE_BEGIN
 90
        3
 91
        2
300
_DATA
309
CELLSTYLE_END
  0
XRECORD
  5
110B
102
{ACAD_REACTORS
330
10D0
102
}
330
10D0
100
AcDbXrecord
280
     1
102
ACAD_ROUNDTRIP_PRE2007_TABLESTYLE
 90
      512
 91
        0
  1

 92
      512
 93
        0
  2

 94
      512
 95
        0
  3

  0
ENDSEC
  0
EOF
