  0
SECTION
  2
HEADER
  9
$ACADVER
  1
AC1015
  9
$ACADMAINTVER
 70
    20
  9
$DWGCODEPAGE
  3
ANSI_1252
  9
$INSBASE
 10
0.0
 20
0.0
 30
0.0
  9
$EXTMIN
 10
15.99999999999988
 20
16.0
 30
0.0
  9
$EXTMAX
 10
656.0000000000001
 20
934.4000000000001
 30
0.0
  9
$LIMMIN
 10
0.0
 20
0.0
  9
$LIMMAX
 10
672.0
 20
950.3999999999999
  9
$ORTHOMODE
 70
     0
  9
$REGENMODE
 70
     1
  9
$FILLMODE
 70
     1
  9
$QTEXTMODE
 70
     0
  9
$MIRRTEXT
 70
     0
  9
$LTSCALE
 40
3.2
  9
$ATTMODE
 70
     1
  9
$TEXTSIZE
 40
0.2
  9
$TRACEWID
 40
0.05
  9
$TEXTSTYLE
  7
Standard
  9
$CLAYER
  8
0
  9
$CELTYPE
  6
ByLayer
  9
$CECOLOR
 62
   256
  9
$CELTSCALE
 40
1.0
  9
$DISPSILH
 70
     0
  9
$DIMSCALE
 40
1.0
  9
$DIMASZ
 40
1.799999999999999
  9
$DIMEXO
 40
0.0625
  9
$DIMDLI
 40
0.38
  9
$DIMRND
 40
0.0
  9
$DIMDLE
 40
0.0
  9
$DIMEXE
 40
0.18
  9
$DIMTP
 40
0.0
  9
$DIMTM
 40
0.0
  9
$DIMTXT
 40
0.3048000037670135
  9
$DIMCEN
 40
0.09
  9
$DIMTSZ
 40
0.0
  9
$DIMTOL
 70
     0
  9
$DIMLIM
 70
     0
  9
$DIMTIH
 70
     1
  9
$DIMTOH
 70
     1
  9
$DIMSE1
 70
     0
  9
$DIMSE2
 70
     0
  9
$DIMTAD
 70
     0
  9
$DIMZIN
 70
     0
  9
$DIMBLK
  1

  9
$DIMASO
 70
     1
  9
$DIMSHO
 70
     1
  9
$DIMPOST
  1

  9
$DIMAPOST
  1

  9
$DIMALT
 70
     0
  9
$DIMALTD
 70
     2
  9
$DIMALTF
 40
25.4
  9
$DIMLFAC
 40
1.0
  9
$DIMTOFL
 70
     0
  9
$DIMTVP
 40
0.0
  9
$DIMTIX
 70
     0
  9
$DIMSOXD
 70
     0
  9
$DIMSAH
 70
     0
  9
$DIMBLK1
  1

  9
$DIMBLK2
  1

  9
$DIMSTYLE
  2
Standard
  9
$DIMCLRD
 70
     0
  9
$DIMCLRE
 70
     0
  9
$DIMCLRT
 70
     0
  9
$DIMTFAC
 40
1.0
  9
$DIMGAP
 40
0.09
  9
$DIMJUST
 70
     0
  9
$DIMSD1
 70
     0
  9
$DIMSD2
 70
     0
  9
$DIMTOLJ
 70
     1
  9
$DIMTZIN
 70
     0
  9
$DIMALTZ
 70
     0
  9
$DIMALTTZ
 70
     0
  9
$DIMUPT
 70
     0
  9
$DIMDEC
 70
     4
  9
$DIMTDEC
 70
     4
  9
$DIMALTU
 70
     2
  9
$DIMALTTD
 70
     2
  9
$DIMTXSTY
  7
Standard
  9
$DIMAUNIT
 70
     0
  9
$DIMADEC
 70
     0
  9
$DIMALTRND
 40
0.0
  9
$DIMAZIN
 70
     0
  9
$DIMDSEP
 70
    46
  9
$DIMATFIT
 70
     3
  9
$DIMFRAC
 70
     0
  9
$DIMLDRBLK
  1

  9
$DIMLUNIT
 70
     2
  9
$DIMLWD
 70
    -2
  9
$DIMLWE
 70
    -2
  9
$DIMTMOVE
 70
     0
  9
$LUNITS
 70
     2
  9
$LUPREC
 70
     4
  9
$SKETCHINC
 40
0.1
  9
$FILLETRAD
 40
0.0
  9
$AUNITS
 70
     0
  9
$AUPREC
 70
     0
  9
$MENU
  1
.
  9
$ELEVATION
 40
0.0
  9
$PELEVATION
 40
0.0
  9
$THICKNESS
 40
0.0
  9
$LIMCHECK
 70
     0
  9
$CHAMFERA
 40
0.0
  9
$CHAMFERB
 40
0.0
  9
$CHAMFERC
 40
0.0
  9
$CHAMFERD
 40
0.0
  9
$SKPOLY
 70
     0
  9
$TDCREATE
 40
2455482.468969908
  9
$TDUCREATE
 40
2455482.385638785
  9
$TDUPDATE
 40
2460056.590983796
  9
$TDUUPDATE
 40
2460056.507650463
  9
$TDINDWG
 40
0.0008136227
  9
$TDUSRTIMER
 40
0.0008136227
  9
$USRTIMER
 70
     1
  9
$ANGBASE
 50
0.0
  9
$ANGDIR
 70
     0
  9
$PDMODE
 70
     0
  9
$PDSIZE
 40
0.0
  9
$PLINEWID
 40
0.0
  9
$SPLFRAME
 70
     0
  9
$SPLINETYPE
 70
     6
  9
$SPLINESEGS
 70
     8
  9
$HANDSEED
  5
9EA
  9
$SURFTAB1
 70
     6
  9
$SURFTAB2
 70
     6
  9
$SURFTYPE
 70
     6
  9
$SURFU
 70
     6
  9
$SURFV
 70
     6
  9
$UCSBASE
  2

  9
$UCSNAME
  2

  9
$UCSORG
 10
0.0
 20
0.0
 30
0.0
  9
$UCSXDIR
 10
1.0
 20
0.0
 30
0.0
  9
$UCSYDIR
 10
0.0
 20
1.0
 30
0.0
  9
$UCSORTHOREF
  2

  9
$UCSORTHOVIEW
 70
     0
  9
$UCSORGTOP
 10
0.0
 20
0.0
 30
0.0
  9
$UCSORGBOTTOM
 10
0.0
 20
0.0
 30
0.0
  9
$UCSORGLEFT
 10
0.0
 20
0.0
 30
0.0
  9
$UCSORGRIGHT
 10
0.0
 20
0.0
 30
0.0
  9
$UCSORGFRONT
 10
0.0
 20
0.0
 30
0.0
  9
$UCSORGBACK
 10
0.0
 20
0.0
 30
0.0
  9
$PUCSBASE
  2

  9
$PUCSNAME
  2

  9
$PUCSORG
 10
0.0
 20
0.0
 30
0.0
  9
$PUCSXDIR
 10
1.0
 20
0.0
 30
0.0
  9
$PUCSYDIR
 10
0.0
 20
1.0
 30
0.0
  9
$PUCSORTHOREF
  2

  9
$PUCSORTHOVIEW
 70
     0
  9
$PUCSORGTOP
 10
0.0
 20
0.0
 30
0.0
  9
$PUCSORGBOTTOM
 10
0.0
 20
0.0
 30
0.0
  9
$PUCSORGLEFT
 10
0.0
 20
0.0
 30
0.0
  9
$PUCSORGRIGHT
 10
0.0
 20
0.0
 30
0.0
  9
$PUCSORGFRONT
 10
0.0
 20
0.0
 30
0.0
  9
$PUCSORGBACK
 10
0.0
 20
0.0
 30
0.0
  9
$USERI1
 70
     0
  9
$USERI2
 70
     0
  9
$USERI3
 70
     0
  9
$USERI4
 70
     0
  9
$USERI5
 70
     0
  9
$USERR1
 40
0.0
  9
$USERR2
 40
0.0
  9
$USERR3
 40
0.0
  9
$USERR4
 40
0.0
  9
$USERR5
 40
0.0
  9
$WORLDVIEW
 70
     1
  9
$SHADEDGE
 70
     3
  9
$SHADEDIF
 70
    70
  9
$TILEMODE
 70
     1
  9
$MAXACTVP
 70
    64
  9
$PINSBASE
 10
0.0
 20
0.0
 30
0.0
  9
$PLIMCHECK
 70
     0
  9
$PEXTMIN
 10
0.0
 20
0.0
 30
0.0
  9
$PEXTMAX
 10
672.0
 20
950.3999999999999
 30
0.0
  9
$PLIMMIN
 10
0.0
 20
0.0
  9
$PLIMMAX
 10
672.0
 20
950.3999999999999
  9
$UNITMODE
 70
     0
  9
$VISRETAIN
 70
     1
  9
$PLINEGEN
 70
     0
  9
$PSLTSCALE
 70
     1
  9
$TREEDEPTH
 70
  3020
  9
$CMLSTYLE
  2
Standard
  9
$CMLJUST
 70
     0
  9
$CMLSCALE
 40
1.0
  9
$PROXYGRAPHICS
 70
     1
  9
$MEASUREMENT
 70
     1
  9
$CELWEIGHT
370
    -1
  9
$ENDCAPS
280
     0
  9
$JOINSTYLE
280
     0
  9
$LWDISPLAY
290
     0
  9
$INSUNITS
 70
     4
  9
$HYPERLINKBASE
  1

  9
$STYLESHEET
  1

  9
$XEDIT
290
     1
  9
$CEPSNTYPE
380
     0
  9
$PSTYLEMODE
290
     1
  9
$FINGERPRINTGUID
  2
{ADD62358-3424-404C-BEB5-B7EF8E3B22E9}
  9
$VERSIONGUID
  2
{AA379AB6-D135-E44D-9089-3CAD1C871AEC}
  9
$EXTNAMES
290
     1
  9
$PSVPSCALE
 40
0.0
  9
$OLESTARTUP
290
     0
  0
ENDSEC
  0
SECTION
  2
CLASSES
  0
CLASS
  1
ACDBDICTIONARYWDFLT
  2
AcDbDictionaryWithDefault
  3
ObjectDBX Classes
 90
        0
280
     0
281
     0
  0
CLASS
  1
MATERIAL
  2
AcDbMaterial
  3
ObjectDBX Classes
 90
     1153
280
     0
281
     0
  0
CLASS
  1
VISUALSTYLE
  2
AcDbVisualStyle
  3
ObjectDBX Classes
 90
     4095
280
     0
281
     0
  0
CLASS
  1
SCALE
  2
AcDbScale
  3
ObjectDBX Classes
 90
     1153
280
     0
281
     0
  0
CLASS
  1
TABLESTYLE
  2
AcDbTableStyle
  3
ObjectDBX Classes
 90
     4095
280
     0
281
     0
  0
CLASS
  1
MLEADERSTYLE
  2
AcDbMLeaderStyle
  3
ACDB_MLEADERSTYLE_CLASS
 90
     4095
280
     0
281
     0
  0
CLASS
  1
DICTIONARYVAR
  2
AcDbDictionaryVar
  3
ObjectDBX Classes
 90
        0
280
     0
281
     0
  0
CLASS
  1
CELLSTYLEMAP
  2
AcDbCellStyleMap
  3
ObjectDBX Classes
 90
     1152
280
     0
281
     0
  0
CLASS
  1
ACDBSECTIONVIEWSTYLE
  2
AcDbSectionViewStyle
  3
ObjectDBX Classes
 90
     1025
280
     0
281
     0
  0
CLASS
  1
ACDBDETAILVIEWSTYLE
  2
AcDbDetailViewStyle
  3
ObjectDBX Classes
 90
     1025
280
     0
281
     0
  0
CLASS
  1
ACAD_EVALUATION_GRAPH
  2
AcDbEvalGraph
  3
ObjectDBX Classes
 90
     1153
280
     0
281
     0
  0
CLASS
  1
ACAECUSTOBJ
  2
AcAeEditorObj
  3
AcAeEditorObj
 90
     1024
280
     0
281
     0
  0
CLASS
  1
ACDB_DYNAMICBLOCKPURGEPREVENTER_VERSION
  2
AcDbDynamicBlockPurgePreventer
  3
ObjectDBX Classes
 90
     1153
280
     0
281
     0
  0
CLASS
  1
ACDBPLACEHOLDER
  2
AcDbPlaceHolder
  3
ObjectDBX Classes
 90
        0
280
     0
281
     0
  0
CLASS
  1
LAYOUT
  2
AcDbLayout
  3
ObjectDBX Classes
 90
        0
280
     0
281
     0
  0
ENDSEC
  0
SECTION
  2
TABLES
  0
TABLE
  2
VPORT
  5
8
330
0
100
AcDbSymbolTable
 70
     1
  0
VPORT
  5
62
330
8
100
AcDbSymbolTableRecord
100
AcDbViewportTableRecord
  2
*Active
 70
     0
 10
0.0
 20
0.0
 11
1.0
 21
1.0
 12
324.8125998273883
 22
149.109562727352
 13
0.0
 23
0.0
 14
1.0
 24
1.0
 15
0.0
 25
0.0
 16
0.0
 26
0.0
 36
1.0
 17
0.0
 27
0.0
 37
0.0
 40
980.2324165294256
 41
2.009483667017913
 42
50.0
 43
0.0
 44
0.0
 50
0.0
 51
0.0
 71
     0
 72
   100
 73
     1
 74
     1
 75
     0
 76
     0
 77
     0
 78
     0
281
     0
 65
     1
110
0.0
120
0.0
130
0.0
111
1.0
121
0.0
131
0.0
112
0.0
122
1.0
132
0.0
 79
     0
146
0.0
1001
ACAD_NAV_VCDISPLAY
1070
     3
  0
ENDTAB
  0
TABLE
  2
LTYPE
  5
5
330
0
100
AcDbSymbolTable
 70
     2
  0
LTYPE
  5
66
330
5
100
AcDbSymbolTableRecord
100
AcDbLinetypeTableRecord
  2
ByBlock
 70
     0
  3

 72
    65
 73
     0
 40
0.0
  0
LTYPE
  5
67
330
5
100
AcDbSymbolTableRecord
100
AcDbLinetypeTableRecord
  2
ByLayer
 70
     0
  3

 72
    65
 73
     0
 40
0.0
  0
LTYPE
  5
68
330
5
100
AcDbSymbolTableRecord
100
AcDbLinetypeTableRecord
  2
Continuous
 70
     0
  3
Solid line
 72
    65
 73
     0
 40
0.0
  0
ENDTAB
  0
TABLE
  2
LAYER
  5
2
330
0
100
AcDbSymbolTable
 70
    12
  0
LAYER
  5
5F
330
2
100
AcDbSymbolTableRecord
100
AcDbLayerTableRecord
  2
0
 70
     0
 62
     7
  6
Continuous
370
    -3
390
F
  0
LAYER
  5
8F
330
2
100
AcDbSymbolTableRecord
100
AcDbLayerTableRecord
  2
Bemaßungen(DIN)
 70
     0
 62
     7
  6
Continuous
370
    25
390
F
  0
LAYER
  5
95
330
2
100
AcDbSymbolTableRecord
100
AcDbLayerTableRecord
  2
Centerline(ISO)
 70
     0
 62
     7
  6
Continuous
370
    25
390
F
  0
LAYER
  5
9B
330
2
100
AcDbSymbolTableRecord
100
AcDbLayerTableRecord
  2
Hatch
 70
     0
 62
     7
  6
Continuous
370
     9
390
F
  0
LAYER
  5
A5
330
2
100
AcDbSymbolTableRecord
100
AcDbLayerTableRecord
  2
MaSichtkante dünnFliese
 70
     0
 62
     7
  6
Continuous
370
    30
390
F
  0
LAYER
  5
A6
330
2
100
AcDbSymbolTableRecord
100
AcDbLayerTableRecord
  2
MaVisibleEdge
 70
     0
 62
     7
  6
Continuous
370
    50
390
F
  0
LAYER
  5
AE
330
2
100
AcDbSymbolTableRecord
100
AcDbLayerTableRecord
  2
Phantom Lines(ISO)
 70
     0
 62
     7
  6
Continuous
370
    70
390
F
  0
LAYER
  5
B6
330
2
100
AcDbSymbolTableRecord
100
AcDbLayerTableRecord
  2
Sketch Geometry(DIN)
 70
     0
 62
     7
  6
Continuous
370
    50
390
F
  0
LAYER
  5
B7
330
2
100
AcDbSymbolTableRecord
100
AcDbLayerTableRecord
  2
Sketch Geometry(ISO)
 70
     0
 62
     7
  6
Continuous
370
    50
390
F
  0
LAYER
  5
C1
330
2
100
AcDbSymbolTableRecord
100
AcDbLayerTableRecord
  2
Symbols(ISO)
 70
     0
 62
     7
  6
Continuous
370
    25
390
F
  0
LAYER
  5
C9
330
2
100
AcDbSymbolTableRecord
100
AcDbLayerTableRecord
  2
Visible Edges(DIN)
 70
     0
 62
     7
  6
Continuous
370
    50
390
F
  0
LAYER
  5
356
330
2
100
AcDbSymbolTableRecord
100
AcDbLayerTableRecord
  2
Defpoints
 70
     0
 62
     7
  6
Continuous
290
     0
370
    -3
390
F
  0
ENDTAB
  0
TABLE
  2
STYLE
  5
3
330
0
100
AcDbSymbolTable
 70
    22
  0
STYLE
  5
60
330
3
100
AcDbSymbolTableRecord
100
AcDbTextStyleTableRecord
  2
Standard
 70
     0
 40
0.0
 41
1.0
 50
0.0
 71
     0
 42
0.2
  3
monotxt.shx
  4

  0
STYLE
  5
65
330
3
100
AcDbSymbolTableRecord
100
AcDbTextStyleTableRecord
  2
Annotative
 70
     0
 40
0.0
 41
1.0
 50
0.0
 71
     0
 42
0.2
  3
txt
  4

1001
AcadAnnotative
1000
AnnotativeData
1002
{
1070
     1
1070
     1
1002
}
  0
STYLE
  5
D0
330
3
100
AcDbSymbolTableRecord
100
AcDbTextStyleTableRecord
  2
Current-DIN
 70
     0
 40
0.0
 41
1.0
 50
0.0
 71
     0
 42
0.2
  3
TAHOMA.TTF
  4

1001
ACAD
1000
Tahoma
1071
      256
  0
STYLE
  5
D1
330
3
100
AcDbSymbolTableRecord
100
AcDbTextStyleTableRecord
  2
Parts-List_2.0mm
 70
     0
 40
0.0
 41
0.899999976158142
 50
0.0
 71
     0
 42
0.2
  3
ARIAL.TTF
  4

1001
ACAD
1000
Arial
1071
      256
  0
STYLE
  5
D2
330
3
100
AcDbSymbolTableRecord
100
AcDbTextStyleTableRecord
  2
Parts-List_2.0mmByLayer
 70
     0
 40
0.0
 41
0.899999976158142
 50
0.0
 71
     0
 42
0.2
  3
ARIAL.TTF
  4

1001
ACAD
1000
Arial
1071
      256
  0
STYLE
  5
D3
330
3
100
AcDbSymbolTableRecord
100
AcDbTextStyleTableRecord
  2
Text__1.3mm
 70
     0
 40
0.0
 41
0.899999976158142
 50
0.0
 71
     0
 42
0.2
  3
ARIAL.TTF
  4

1001
ACAD
1000
Arial
1071
      256
  0
STYLE
  5
D4
330
3
100
AcDbSymbolTableRecord
100
AcDbTextStyleTableRecord
  2
Text__1.5mm
 70
     0
 40
0.0
 41
0.899999976158142
 50
0.0
 71
     0
 42
0.2
  3
ARIAL.TTF
  4

1001
ACAD
1000
Arial
1071
      256
  0
STYLE
  5
D5
330
3
100
AcDbSymbolTableRecord
100
AcDbTextStyleTableRecord
  2
Text__3.5mm
 70
     0
 40
0.0
 41
0.899999976158142
 50
0.0
 71
     0
 42
0.2
  3
ARIAL.TTF
  4

1001
ACAD
1000
Arial
1071
      256
  0
STYLE
  5
D6
330
3
100
AcDbSymbolTableRecord
100
AcDbTextStyleTableRecord
  2
Text__3.5mmBigText
 70
     0
 40
0.0
 41
0.899999976158142
 50
0.0
 71
     0
 42
0.2
  3
ARIAL.TTF
  4

1001
ACAD
1000
Arial
1071
      256
  0
STYLE
  5
D7
330
3
100
AcDbSymbolTableRecord
100
AcDbTextStyleTableRecord
  2
Text__3.5mmByLayer
 70
     0
 40
0.0
 41
0.899999976158142
 50
0.0
 71
     0
 42
0.2
  3
ARIAL.TTF
  4

1001
ACAD
1000
Arial
1071
      256
  0
STYLE
  5
D8
330
3
100
AcDbSymbolTableRecord
100
AcDbTextStyleTableRecord
  2
Text__4.0mm
 70
     0
 40
0.0
 41
0.899999976158142
 50
0.0
 71
     0
 42
0.2
  3
ARIAL.TTF
  4

1001
ACAD
1000
Arial
1071
      256
  0
STYLE
  5
D9
330
3
100
AcDbSymbolTableRecord
100
AcDbTextStyleTableRecord
  2
Text__5.0mm
 70
     0
 40
0.0
 41
0.899999976158142
 50
0.0
 71
     0
 42
0.2
  3
ARIAL.TTF
  4

1001
ACAD
1000
Arial
1071
      256
  0
STYLE
  5
DA
330
3
100
AcDbSymbolTableRecord
100
AcDbTextStyleTableRecord
  2
Text__5.0mmByLayer
 70
     0
 40
0.0
 41
0.899999976158142
 50
0.0
 71
     0
 42
0.2
  3
ARIAL.TTF
  4

1001
ACAD
1000
Arial
1071
      256
  0
STYLE
  5
DB
330
3
100
AcDbSymbolTableRecord
100
AcDbTextStyleTableRecord
  2
Text_2.5mm
 70
     0
 40
0.0
 41
0.899999976158142
 50
0.0
 71
     0
 42
0.2
  3
ARIAL.TTF
  4

1001
ACAD
1000
Arial
1071
      256
  0
STYLE
  5
DC
330
3
100
AcDbSymbolTableRecord
100
AcDbTextStyleTableRecord
  2
Text_3.5mm
 70
     0
 40
0.0
 41
0.899999976158142
 50
0.0
 71
     0
 42
0.2
  3
ARIAL.TTF
  4

1001
ACAD
1000
Arial
1071
      256
  0
STYLE
  5
DD
330
3
100
AcDbSymbolTableRecord
100
AcDbTextStyleTableRecord
  2
Text_5.0mm
 70
     0
 40
0.0
 41
0.899999976158142
 50
0.0
 71
     0
 42
0.2
  3
ARIAL.TTF
  4

1001
ACAD
1000
Arial
1071
      256
  0
STYLE
  5
DE
330
3
100
AcDbSymbolTableRecord
100
AcDbTextStyleTableRecord
  2
Text_5.0mmByLayer
 70
     0
 40
0.0
 41
0.899999976158142
 50
0.0
 71
     0
 42
0.2
  3
ARIAL.TTF
  4

1001
ACAD
1000
Arial
1071
      256
  0
STYLE
  5
103
330
3
100
AcDbSymbolTableRecord
100
AcDbTextStyleTableRecord
  2
Text Style49
 70
     0
 40
0.0
 41
0.899999976158142
 50
0.0
 71
     0
 42
0.2
  3
ARIAL.TTF
  4

1001
ACAD
1000
Arial
1071
      256
  0
STYLE
  5
242
330
3
100
AcDbSymbolTableRecord
100
AcDbTextStyleTableRecord
  2
Text Style20
 70
     0
 40
0.0
 41
1.0
 50
0.0
 71
     0
 42
0.2
  3
ARIAL.TTF
  4

1001
ACAD
1000
Arial
1071
      256
  0
STYLE
  5
244
330
3
100
AcDbSymbolTableRecord
100
AcDbTextStyleTableRecord
  2
Text Style9
 70
     0
 40
0.0
 41
1.0
 50
0.0
 71
     0
 42
0.2
  3
ARIAL.TTF
  4

1001
ACAD
1000
Arial
1071
      256
  0
STYLE
  5
247
330
3
100
AcDbSymbolTableRecord
100
AcDbTextStyleTableRecord
  2
Text Style38
 70
     0
 40
0.0
 41
1.0
 50
0.0
 71
     0
 42
0.2
  3
ARIAL.TTF
  4

1001
ACAD
1000
Arial
1071
      256
  0
STYLE
  5
24A
330
3
100
AcDbSymbolTableRecord
100
AcDbTextStyleTableRecord
  2
Text Style40
 70
     0
 40
0.0
 41
1.0
 50
0.0
 71
     0
 42
0.2
  3
ARIAL.TTF
  4

1001
ACAD
1000
Arial
1071
      256
  0
ENDTAB
  0
TABLE
  2
VIEW
  5
6
330
0
100
AcDbSymbolTable
 70
     0
  0
ENDTAB
  0
TABLE
  2
UCS
  5
7
330
0
100
AcDbSymbolTable
 70
     0
  0
ENDTAB
  0
TABLE
  2
APPID
  5
9
330
0
100
AcDbSymbolTable
 70
     9
  0
APPID
  5
61
330
9
100
AcDbSymbolTableRecord
100
AcDbRegAppTableRecord
  2
ACAD
 70
     0
  0
APPID
  5
69
330
9
100
AcDbSymbolTableRecord
100
AcDbRegAppTableRecord
  2
AcadAnnotative
 70
     0
  0
APPID
  5
107
330
9
100
AcDbSymbolTableRecord
100
AcDbRegAppTableRecord
  2
AcadAnnoPO
 70
     0
  0
APPID
  5
818
330
9
100
AcDbSymbolTableRecord
100
AcDbRegAppTableRecord
  2
ACAD_MLEADERVER
 70
     0
  0
APPID
  5
82D
330
9
100
AcDbSymbolTableRecord
100
AcDbRegAppTableRecord
  2
ACAD_EXEMPT_FROM_CAD_STANDARDS
 70
     0
  0
APPID
  5
94A
330
9
100
AcDbSymbolTableRecord
100
AcDbRegAppTableRecord
  2
ACAUTHENVIRON
 70
     0
  0
APPID
  5
94E
330
9
100
AcDbSymbolTableRecord
100
AcDbRegAppTableRecord
  2
AcDbDynamicBlockTrueName
 70
     0
  0
APPID
  5
94F
330
9
100
AcDbSymbolTableRecord
100
AcDbRegAppTableRecord
  2
AcDbDynamicBlockGUID
 70
     0
  0
APPID
  5
958
330
9
100
AcDbSymbolTableRecord
100
AcDbRegAppTableRecord
  2
ACAD_NAV_VCDISPLAY
 70
     0
  0
ENDTAB
  0
TABLE
  2
DIMSTYLE
  5
A
330
0
100
AcDbSymbolTable
 70
    17
100
AcDbDimStyleTable
 71
     2
340
E3
340
63
  0
DIMSTYLE
105
63
330
A
100
AcDbSymbolTableRecord
100
AcDbDimStyleTableRecord
  2
Standard
 70
     0
340
60
  0
DIMSTYLE
105
64
330
A
100
AcDbSymbolTableRecord
100
AcDbDimStyleTableRecord
  2
Annotative
 70
     0
340
60
1001
AcadAnnotative
1000
AnnotativeData
1002
{
1070
     1
1070
     1
1002
}
  0
DIMSTYLE
105
DF
330
A
100
AcDbSymbolTableRecord
100
AcDbDimStyleTableRecord
  2
KS-STANDARD
 70
     0
 40
3.2
 41
2.5
 42
0.0
 43
12.0
 44
3.174999999999998
 45
0.00000001
 46
10.0
 73
     0
 74
     0
 77
     1
 78
     8
 79
     2
140
3.5
143
0.03937
146
0.7142857142857145
147
0.8000000000000001
171
     3
172
     1
176
     7
177
     7
178
     7
271
     1
274
     3
278
    44
284
     8
286
     8
340
DC
371
    25
372
    25
  0
DIMSTYLE
105
E0
330
A
100
AcDbSymbolTableRecord
100
AcDbDimStyleTableRecord
  2
KS-STANDARD$7
 70
     0
 40
3.2
 41
2.5
 42
0.0
 43
12.0
 44
3.174999999999998
 45
0.00000001
 46
10.0
 73
     0
 74
     0
 77
     1
 78
     8
 79
     2
140
3.5
143
0.03937
146
0.7142857142857145
147
0.8000000000000001
171
     3
172
     1
176
     7
177
     7
178
     7
271
     1
274
     3
278
    44
284
     8
286
     8
340
DC
371
    25
372
    25
  0
DIMSTYLE
105
E1
330
A
100
AcDbSymbolTableRecord
100
AcDbDimStyleTableRecord
  2
KS-STANDARDBigText
 70
     0
 40
3.2
 41
5.0
 42
0.0
 43
12.0
 44
3.174999999999998
 45
0.00000001
 46
10.0
 73
     0
 74
     0
 77
     1
 78
     8
 79
     2
140
5.25
143
0.03937
146
0.4761904761904762
147
0.8000000000000001
171
     3
172
     1
176
     7
177
     7
178
     7
271
     1
274
     3
278
    44
284
     8
286
     8
340
D6
371
    25
372
    25
  0
DIMSTYLE
105
E2
330
A
100
AcDbSymbolTableRecord
100
AcDbDimStyleTableRecord
  2
KS-STANDARDBigText$7
 70
     0
 40
3.2
 41
5.0
 42
0.0
 43
12.0
 44
3.174999999999998
 45
0.00000001
 46
10.0
 73
     0
 74
     0
 77
     1
 78
     8
 79
     2
140
5.25
143
0.03937
146
0.4761904761904762
147
0.8000000000000001
171
     3
172
     1
176
     7
177
     7
178
     7
271
     1
274
     3
278
    44
284
     8
286
     8
340
D6
371
    25
372
    25
  0
DIMSTYLE
105
E3
102
{ACAD_REACTORS
330
355
330
440
330
52A
330
61A
102
}
330
A
100
AcDbSymbolTableRecord
100
AcDbDimStyleTableRecord
  2
MarketingDrawing
 70
     0
 40
3.2
 41
4.0
 42
2.0
 43
12.0
 44
2.0
 45
0.00000001
 46
10.0
 78
     8
 79
     2
140
4.0
143
0.03937
146
0.625
147
1.0
171
     3
176
     7
177
     7
178
     7
271
     0
274
     3
278
    44
284
     8
286
     8
340
D8
371
    25
372
    25
  0
DIMSTYLE
105
E4
330
A
100
AcDbSymbolTableRecord
100
AcDbDimStyleTableRecord
  2
MarketingDrawing$7
 70
     0
 40
3.2
 41
5.0
 42
2.0
 43
12.0
 44
2.0
 45
0.00000001
 46
10.0
 78
     8
 79
     2
140
4.0
143
0.03937
146
0.625
147
1.0
171
     3
176
     7
177
     7
178
     7
271
     0
274
     3
278
    44
284
     8
286
     8
340
D8
371
    25
372
    25
  0
DIMSTYLE
105
EF
330
A
100
AcDbSymbolTableRecord
100
AcDbDimStyleTableRecord
  2
Leader-Datum(DIN)
 70
     0
 40
3.2
 41
2.5
340
60
342
F0
  0
DIMSTYLE
105
F7
330
A
100
AcDbSymbolTableRecord
100
AcDbDimStyleTableRecord
  2
Leader-Datum(ISO)
 70
     0
 40
3.2
 41
2.5
340
60
342
F0
  0
DIMSTYLE
105
F8
330
A
100
AcDbSymbolTableRecord
100
AcDbDimStyleTableRecord
  2
Leader-Dot(DIN)
 70
     0
 40
3.2
 41
2.5
340
60
342
F0
  0
DIMSTYLE
105
F9
330
A
100
AcDbSymbolTableRecord
100
AcDbDimStyleTableRecord
  2
Leader-Dot(ISO)
 70
     0
 40
3.2
 41
2.5
340
60
342
F0
  0
DIMSTYLE
105
FA
330
A
100
AcDbSymbolTableRecord
100
AcDbDimStyleTableRecord
  2
Leader-Large(DIN)
 70
     0
 40
3.2
 41
5.0
340
60
342
F0
  0
DIMSTYLE
105
FB
330
A
100
AcDbSymbolTableRecord
100
AcDbDimStyleTableRecord
  2
Leader-OriginIndicator(DIN)
 70
     0
 40
3.2
 41
2.5
340
60
342
F0
  0
DIMSTYLE
105
FC
330
A
100
AcDbSymbolTableRecord
100
AcDbDimStyleTableRecord
  2
Leader-OriginIndicator(ISO)
 70
     0
 40
3.2
 41
2.5
340
60
342
F0
  0
DIMSTYLE
105
FD
330
A
100
AcDbSymbolTableRecord
100
AcDbDimStyleTableRecord
  2
Leader(DIN)
 70
     0
 40
3.2
 41
2.5
340
60
342
F0
  0
DIMSTYLE
105
FE
330
A
100
AcDbSymbolTableRecord
100
AcDbDimStyleTableRecord
  2
Leader(ISO)
 70
     0
 40
3.2
 41
2.5
340
60
342
F0
  0
ENDTAB
  0
TABLE
  2
BLOCK_RECORD
  5
1
330
0
100
AcDbSymbolTable
 70
    16
  0
BLOCK_RECORD
  5
77
330
1
100
AcDbSymbolTableRecord
100
AcDbBlockTableRecord
  2
*Model_Space
340
7A
  0
BLOCK_RECORD
  5
73
330
1
100
AcDbSymbolTableRecord
100
AcDbBlockTableRecord
  2
*Paper_Space
340
76
  0
BLOCK_RECORD
  5
7B
330
1
100
AcDbSymbolTableRecord
100
AcDbBlockTableRecord
  2
*Paper_Space0
340
7E
  0
BLOCK_RECORD
  5
E5
330
1
100
AcDbSymbolTableRecord
100
AcDbBlockTableRecord
  2
DatumFilled45
340
0
  0
BLOCK_RECORD
  5
F0
330
1
100
AcDbSymbolTableRecord
100
AcDbBlockTableRecord
  2
_Closed
340
0
  0
BLOCK_RECORD
  5
FF
330
1
100
AcDbSymbolTableRecord
100
AcDbBlockTableRecord
  2
Index
340
0
  0
BLOCK_RECORD
  5
108
330
1
100
AcDbSymbolTableRecord
100
AcDbBlockTableRecord
  2
AIR
340
0
  0
BLOCK_RECORD
  5
115
330
1
100
AcDbSymbolTableRecord
100
AcDbBlockTableRecord
  2
Zertifizierungszeichnung
340
0
  0
BLOCK_RECORD
  5
11D
330
1
100
AcDbSymbolTableRecord
100
AcDbBlockTableRecord
  2
Pfeil 1_1
340
0
  0
BLOCK_RECORD
  5
12F
330
1
100
AcDbSymbolTableRecord
100
AcDbBlockTableRecord
  2
TWK 1_1
340
0
  0
BLOCK_RECORD
  5
13D
330
1
100
AcDbSymbolTableRecord
100
AcDbBlockTableRecord
  2
TWW 1_1
340
0
  0
BLOCK_RECORD
  5
14D
102
{ACAD_XDICTIONARY
360
94B
102
}
330
1
100
AcDbSymbolTableRecord
100
AcDbBlockTableRecord
  2
Title Blocks WS-Marketing-FUN
340
0
102
{BLKREFS
331
259
102
}
1001
AcDbDynamicBlockGUID
1000
{7DA6EA17-1ED5-E146-B336-4D2CC98C0423}
  0
BLOCK_RECORD
  5
26E
330
1
100
AcDbSymbolTableRecord
100
AcDbBlockTableRecord
  2
Borders Verkauf Border_85x80
340
0
102
{BLKREFS
331
279
102
}
  0
BLOCK_RECORD
  5
357
330
1
100
AcDbSymbolTableRecord
100
AcDbBlockTableRecord
  2
*D11
340
0
  0
BLOCK_RECORD
  5
441
330
1
100
AcDbSymbolTableRecord
100
AcDbBlockTableRecord
  2
*D12
340
0
  0
BLOCK_RECORD
  5
52B
330
1
100
AcDbSymbolTableRecord
100
AcDbBlockTableRecord
  2
*D13
340
0
  0
BLOCK_RECORD
  5
61B
330
1
100
AcDbSymbolTableRecord
100
AcDbBlockTableRecord
  2
*D14
340
0
  0
ENDTAB
  0
ENDSEC
  0
SECTION
  2
BLOCKS
  0
BLOCK
  5
78
330
77
100
AcDbEntity
  8
0
100
AcDbBlockBegin
  2
*Model_Space
 70
     0
 10
0.0
 20
0.0
 30
0.0
  3
*Model_Space
  1

  0
ENDBLK
  5
79
330
77
100
AcDbEntity
  8
0
100
AcDbBlockEnd
  0
BLOCK
  5
74
330
73
100
AcDbEntity
 67
     1
  8
0
100
AcDbBlockBegin
  2
*Paper_Space
 70
     0
 10
0.0
 20
0.0
 30
0.0
  3
*Paper_Space
  1

  0
ENDBLK
  5
75
330
73
100
AcDbEntity
 67
     1
  8
0
100
AcDbBlockEnd
  0
BLOCK
  5
7C
330
7B
100
AcDbEntity
 67
     1
  8
0
100
AcDbBlockBegin
  2
*Paper_Space0
 70
     0
 10
0.0
 20
0.0
 30
0.0
  3
*Paper_Space0
  1

  0
ENDBLK
  5
7D
330
7B
100
AcDbEntity
 67
     1
  8
0
100
AcDbBlockEnd
  0
BLOCK
  5
E6
330
E5
100
AcDbEntity
  8
0
100
AcDbBlockBegin
  2
DatumFilled45
 70
     0
 10
0.0
 20
0.0
 30
0.0
  3
DatumFilled45
  1

  0
POLYLINE
  5
E8
330
E5
100
AcDbEntity
  8
0
 62
     0
100
AcDb2dPolyline
 66
     1
 10
0.0
 20
0.0
 30
0.0
 70
   128
  0
VERTEX
  5
E9
330
E8
100
AcDbEntity
  8
0
 62
     0
100
AcDbVertex
100
AcDb2dVertex
 10
0.0
 20
1.0
 30
0.0
  0
VERTEX
  5
EA
330
E8
100
AcDbEntity
  8
0
 62
     0
100
AcDbVertex
100
AcDb2dVertex
 10
0.0
 20
-1.0
 30
0.0
  0
VERTEX
  5
EC
330
E8
100
AcDbEntity
  8
0
 62
     0
100
AcDbVertex
100
AcDb2dVertex
 10
-1.0
 20
0.0
 30
0.0
  0
VERTEX
  5
ED
330
E8
100
AcDbEntity
  8
0
 62
     0
100
AcDbVertex
100
AcDb2dVertex
 10
0.0
 20
1.0
 30
0.0
  0
SEQEND
  5
EB
330
E8
100
AcDbEntity
  8
0
 62
     0
  0
SOLID
  5
EE
330
E5
100
AcDbEntity
  8
0
 62
     0
100
AcDbTrace
 10
0.0
 20
1.0
 30
0.0
 11
0.0
 21
-1.0
 31
0.0
 12
-1.0
 22
0.0
 32
0.0
 13
0.0
 23
1.0
 33
0.0
  0
ENDBLK
  5
E7
330
E5
100
AcDbEntity
  8
0
100
AcDbBlockEnd
  0
BLOCK
  5
F5
330
F0
100
AcDbEntity
  8
0
100
AcDbBlockBegin
  2
_Closed
 70
     0
 10
0.0
 20
0.0
 30
0.0
  3
_Closed
  1

  0
LINE
  5
F1
330
F0
100
AcDbEntity
  8
0
  6
ByBlock
 62
     0
370
    -2
100
AcDbLine
 10
-1.0
 20
0.1666666666666666
 30
0.0
 11
0.0
 21
0.0
 31
0.0
  0
LINE
  5
F2
330
F0
100
AcDbEntity
  8
0
  6
ByBlock
 62
     0
370
    -2
100
AcDbLine
 10
0.0
 20
0.0
 30
0.0
 11
-1.0
 21
-0.1666666666666666
 31
0.0
  0
LINE
  5
F3
330
F0
100
AcDbEntity
  8
0
  6
ByBlock
 62
     0
370
    -2
100
AcDbLine
 10
-1.0
 20
0.1666666666666666
 30
0.0
 11
-1.0
 21
-0.1666666666666666
 31
0.0
  0
LINE
  5
F4
330
F0
100
AcDbEntity
  8
0
  6
ByBlock
 62
     0
370
    -2
100
AcDbLine
 10
0.0
 20
0.0
 30
0.0
 11
-1.0
 21
0.0
 31
0.0
  0
ENDBLK
  5
F6
330
F0
100
AcDbEntity
  8
0
100
AcDbBlockEnd
  0
BLOCK
  5
100
330
FF
100
AcDbEntity
  8
0
100
AcDbBlockBegin
  2
Index
 70
     2
 10
0.0
 20
0.0
 30
0.0
  3
Index
  1

  0
CIRCLE
  5
102
330
FF
100
AcDbEntity
  8
Sketch Geometry(ISO)
  6
Continuous
 62
     7
370
    25
100
AcDbCircle
 10
0.0
 20
0.0
 30
0.0
 40
2.5
  0
ATTDEF
  5
104
102
{ACAD_XDICTIONARY
360
777
102
}
330
FF
100
AcDbEntity
  8
Symbols(ISO)
 62
     7
100
AcDbText
 10
-0.0000000000000001
 20
-1.25
 30
0.0
 40
2.5
  1

 41
0.899999976158142
  7
Text Style49
 72
     1
 11
0.0
 21
0.0
 31
0.0
100
AcDbAttributeDefinition
  3
<Enter Prompt for Field>
  2
<Enter_Prompt_for_Field>
 70
     0
 74
     2
  0
ENDBLK
  5
101
330
FF
100
AcDbEntity
  8
0
100
AcDbBlockEnd
  0
BLOCK
  5
109
330
108
100
AcDbEntity
  8
0
100
AcDbBlockBegin
  2
AIR
 70
     0
 10
0.0
 20
0.0
 30
0.0
  3
AIR
  1

  0
LINE
  5
10B
330
108
100
AcDbEntity
  8
Sketch Geometry(ISO)
 62
     7
370
    70
100
AcDbLine
 10
-7.0
 20
6.000000000000048
 30
0.0
 11
6.999999999999992
 21
6.000000000000013
 31
0.0
  0
LINE
  5
10C
330
108
100
AcDbEntity
  8
Sketch Geometry(ISO)
 62
     7
370
    70
100
AcDbLine
 10
10.00000000000001
 20
3.000000000000006
 30
0.0
 11
10.00000000000001
 21
-2.999999999999971
 31
0.0
  0
LINE
  5
10D
330
108
100
AcDbEntity
  8
Sketch Geometry(ISO)
 62
     7
370
    70
100
AcDbLine
 10
6.999999999999992
 20
-5.999999999999976
 30
0.0
 11
-7.0
 21
-6.000000000000013
 31
0.0
  0
LINE
  5
10E
330
108
100
AcDbEntity
  8
Sketch Geometry(ISO)
 62
     7
370
    70
100
AcDbLine
 10
-10.00000000000001
 20
-2.999999999999971
 30
0.0
 11
-10.0
 21
3.000000000000006
 31
0.0
  0
ARC
  5
10F
330
108
100
AcDbEntity
  8
Sketch Geometry(ISO)
 62
     7
370
    70
100
AcDbCircle
 10
6.999999999999992
 20
3.000000000000006
 30
0.0
 40
3.0
100
AcDbArc
 50
0.0
 51
90.0
  0
ARC
  5
110
330
108
100
AcDbEntity
  8
Sketch Geometry(ISO)
 62
     7
370
    70
100
AcDbCircle
 10
6.999999999999992
 20
-2.999999999999971
 30
0.0
 40
3.0
100
AcDbArc
 50
270.0
 51
0.0
  0
ARC
  5
111
330
108
100
AcDbEntity
  8
Sketch Geometry(ISO)
 62
     7
370
    70
100
AcDbCircle
 10
-7.0
 20
-2.999999999999971
 30
0.0
 40
3.0
100
AcDbArc
 50
180.0
 51
270.0
  0
ARC
  5
112
330
108
100
AcDbEntity
  8
Sketch Geometry(ISO)
 62
     7
370
    70
100
AcDbCircle
 10
-7.0
 20
3.000000000000006
 30
0.0
 40
3.0
100
AcDbArc
 50
90.0
 51
180.0
  0
MTEXT
  5
113
330
108
100
AcDbEntity
  8
Symbols(ISO)
 62
     7
100
AcDbMText
 10
0.0
 20
0.0
 30
0.0
 40
6.99999988079071
 41
16.10195276430038
 71
     5
 72
     1
  1
\fArial|b0|i0;\H7.0000;AIR
  7
Text__3.5mm
 73
     1
 44
1.0
1001
ACAD
1000
MTEXTBEGIN
1070
    73
1070
     1
1070
    44
1040
1.0
1070
    74
1070
     0
1000
MTEXTEND
  0
ENDBLK
  5
10A
330
108
100
AcDbEntity
  8
0
100
AcDbBlockEnd
  0
BLOCK
  5
116
330
115
100
AcDbEntity
  8
0
100
AcDbBlockBegin
  2
Zertifizierungszeichnung
 70
     0
 10
0.0
 20
0.0
 30
0.0
  3
Zertifizierungszeichnung
  1

  0
LINE
  5
118
330
115
100
AcDbEntity
  8
Sketch Geometry(ISO)
100
AcDbLine
 10
-36.13491376407675
 20
6.581399957023617
 30
0.0
 11
36.13491376407676
 21
6.581399957023617
 31
0.0
  0
LINE
  5
119
330
115
100
AcDbEntity
  8
Sketch Geometry(ISO)
100
AcDbLine
 10
36.13491376407676
 20
6.581399957023617
 30
0.0
 11
36.13491376407676
 21
-6.581399957023633
 31
0.0
  0
LINE
  5
11A
330
115
100
AcDbEntity
  8
Sketch Geometry(ISO)
100
AcDbLine
 10
36.13491376407676
 20
-6.581399957023633
 30
0.0
 11
-36.13491376407675
 21
-6.581399957023633
 31
0.0
  0
LINE
  5
11B
330
115
100
AcDbEntity
  8
Sketch Geometry(ISO)
100
AcDbLine
 10
-36.13491376407675
 20
-6.581399957023633
 30
0.0
 11
-36.13491376407675
 21
6.581399957023617
 31
0.0
  0
MTEXT
  5
11C
330
115
100
AcDbEntity
  8
Symbols(ISO)
 62
     7
100
AcDbMText
 10
-34.13997890763035
 20
-0.338671892615654
 30
0.0
 40
3.000000119209288
 41
0.0
 71
     4
 72
     1
  1
\fTahoma|b0|i0;\H3.0000;Drawing for certification purposes only!\PDrawing not for manufacturing purposes!
  7
Text__3.5mm
 73
     2
 44
0.9442214369773862
1001
ACAD
1000
MTEXTBEGIN
1070
    73
1070
     2
1070
    44
1040
0.9442214369773862
1070
    74
1070
     0
1000
MTEXTEND
  0
ENDBLK
  5
117
330
115
100
AcDbEntity
  8
0
100
AcDbBlockEnd
  0
BLOCK
  5
11E
330
11D
100
AcDbEntity
  8
0
100
AcDbBlockBegin
  2
Pfeil 1_1
 70
     0
 10
0.0
 20
0.0
 30
0.0
  3
Pfeil 1_1
  1

  0
HATCH
  5
127
330
11D
100
AcDbEntity
  8
Hatch
100
AcDbHatch
 10
0.0
 20
0.0
 30
0.0
210
0.0
220
0.0
230
1.0
  2
ANSI31
 70
     0
 71
     0
 91
        1
 92
        1
 93
        7
 72
     1
 10
-2.327499999999814
 20
0.6650000000002621
 11
0.0
 21
-2.659999999999874
 72
     1
 10
0.0
 20
-2.659999999999874
 11
2.327499999999833
 21
0.6650000000002621
 72
     1
 10
2.327499999999833
 20
0.6650000000002621
 11
0.6649999999998713
 21
0.6650000000002621
 72
     1
 10
0.6649999999998713
 20
0.6650000000002621
 11
0.6649999999998713
 21
2.659999999999858
 72
     1
 10
0.6649999999998713
 20
2.659999999999858
 11
-0.6649999999999779
 21
2.659999999999858
 72
     1
 10
-0.664999999999978
 20
2.659999999999858
 11
-0.664999999999978
 21
0.6650000000002621
 72
     1
 10
-0.664999999999978
 20
0.6650000000002621
 11
-2.327499999999814
 21
0.6650000000002621
 97
        0
 75
     0
 76
     1
 52
0.0
 41
0.0254
 77
     0
 78
     1
 53
45.0
 43
0.0
 44
0.0
 45
-0.0022450640302673
 46
0.0022450640302673
 79
     0
 98
        1
 10
0.0
 20
0.0
  0
LINE
  5
128
330
11D
100
AcDbEntity
  8
MaSichtkante dünnFliese
370
     5
100
AcDbLine
 10
-2.327499999999814
 20
0.6650000000002621
 30
0.0
 11
-0.664999999999978
 21
0.6650000000002621
 31
0.0
  0
LINE
  5
129
330
11D
100
AcDbEntity
  8
MaSichtkante dünnFliese
370
     5
100
AcDbLine
 10
0.0
 20
-2.659999999999874
 30
0.0
 11
-2.327499999999814
 21
0.6650000000002621
 31
0.0
  0
LINE
  5
12A
330
11D
100
AcDbEntity
  8
MaSichtkante dünnFliese
370
     5
100
AcDbLine
 10
-0.664999999999978
 20
0.6650000000002621
 30
0.0
 11
-0.664999999999978
 21
2.659999999999858
 31
0.0
  0
LINE
  5
12B
330
11D
100
AcDbEntity
  8
MaSichtkante dünnFliese
370
     5
100
AcDbLine
 10
-0.664999999999978
 20
2.659999999999858
 30
0.0
 11
0.6649999999998713
 21
2.659999999999858
 31
0.0
  0
LINE
  5
12C
330
11D
100
AcDbEntity
  8
MaSichtkante dünnFliese
370
     5
100
AcDbLine
 10
0.6649999999998713
 20
2.659999999999858
 30
0.0
 11
0.6649999999998713
 21
0.6650000000002621
 31
0.0
  0
LINE
  5
12D
330
11D
100
AcDbEntity
  8
MaSichtkante dünnFliese
370
     5
100
AcDbLine
 10
2.327499999999833
 20
0.6650000000002621
 30
0.0
 11
0.0
 21
-2.659999999999874
 31
0.0
  0
LINE
  5
12E
330
11D
100
AcDbEntity
  8
MaSichtkante dünnFliese
370
     5
100
AcDbLine
 10
0.6649999999998713
 20
0.6650000000002621
 30
0.0
 11
2.327499999999833
 21
0.6650000000002621
 31
0.0
  0
ENDBLK
  5
11F
330
11D
100
AcDbEntity
  8
0
100
AcDbBlockEnd
  0
BLOCK
  5
130
330
12F
100
AcDbEntity
  8
0
100
AcDbBlockBegin
  2
TWK 1_1
 70
     0
 10
0.0
 20
0.0
 30
0.0
  3
TWK 1_1
  1

  0
HATCH
  5
134
330
12F
100
AcDbEntity
  8
Hatch
100
AcDbHatch
 10
0.0
 20
0.0
 30
0.0
210
0.0
220
0.0
230
1.0
  2
ANSI31
 70
     0
 71
     0
 91
        1
 92
        1
 93
        2
 72
     2
 10
0.0
 20
-3.324999949999316
 40
2.659999999999999
 50
148.4507563219768
 51
391.549243678031
 73
     1
 72
     1
 10
2.266827476457925
 20
-1.933204996720494
 11
-2.2668274764586
 21
-1.933204996720494
 97
        0
 75
     0
 76
     1
 52
0.0
 41
0.0254
 77
     0
 78
     1
 53
45.0
 43
0.0
 44
0.0
 45
-0.0022450640302673
 46
0.0022450640302673
 79
     0
 98
        1
 10
0.0
 20
0.0
  0
LINE
  5
135
330
12F
100
AcDbEntity
  8
MaSichtkante dünnFliese
100
AcDbLine
 10
-2.266827476458601
 20
-1.933204996720494
 30
0.0
 11
2.266827476457925
 21
-1.933204996720494
 31
0.0
  0
ARC
  5
136
330
12F
100
AcDbEntity
  8
MaSichtkante dünnFliese
100
AcDbCircle
 10
0.0
 20
-3.324999949999316
 30
0.0
 40
2.66
100
AcDbArc
 50
112.0243128370458
 51
67.97568716296805
  0
LINE
  5
137
330
12F
100
AcDbEntity
  8
MaSichtkante dünnFliese
100
AcDbLine
 10
-0.9975000000001619
 20
-0.8591139530400582
 30
0.0
 11
-0.9975000000001619
 21
5.985000049999325
 31
0.0
  0
LINE
  5
138
330
12F
100
AcDbEntity
  8
MaSichtkante dünnFliese
100
AcDbLine
 10
0.9974999999994691
 20
5.985000049999325
 30
0.0
 11
0.9974999999994691
 21
-0.8591139530400582
 31
0.0
  0
LINE
  5
139
330
12F
100
AcDbEntity
  8
MaSichtkante dünnFliese
100
AcDbLine
 10
0.9974999999994873
 20
2.827327836441567
 30
0.0
 11
2.194499999999254
 21
2.827327836441567
 31
0.0
  0
LINE
  5
13A
330
12F
100
AcDbEntity
  8
MaSichtkante dünnFliese
100
AcDbLine
 10
-0.9975000000001619
 20
5.985000049999325
 30
0.0
 11
0.9974999999994691
 21
5.985000049999325
 31
0.0
  0
LINE
  5
13B
330
12F
100
AcDbEntity
  8
MaSichtkante dünnFliese
100
AcDbLine
 10
0.9974999999994691
 20
4.932451836441167
 30
0.0
 11
2.194499999999236
 21
4.932451836441167
 31
0.0
  0
LINE
  5
13C
330
12F
100
AcDbEntity
  8
MaSichtkante dünnFliese
100
AcDbLine
 10
0.9974999999994691
 20
0.7222038364418637
 30
0.0
 11
2.194499999999236
 21
0.7222038364418637
 31
0.0
  0
ENDBLK
  5
131
330
12F
100
AcDbEntity
  8
0
100
AcDbBlockEnd
  0
BLOCK
  5
13E
330
13D
100
AcDbEntity
  8
0
100
AcDbBlockBegin
  2
TWW 1_1
 70
     0
 10
0.0
 20
0.0
 30
0.0
  3
TWW 1_1
  1

  0
HATCH
  5
144
330
13D
100
AcDbEntity
  8
Hatch
100
AcDbHatch
 10
0.0
 20
0.0
 30
0.0
210
0.0
220
0.0
230
1.0
  2
ANSI31
 70
     0
 71
     0
 91
        1
 92
        1
 93
        4
 72
     1
 10
0.9974999999997892
 20
4.796219377687264
 11
-0.9975000000000909
 21
4.796219377687264
 72
     1
 10
-0.9975000000000909
 20
4.796219377687264
 11
-0.9975000000000909
 21
-0.8591139530402891
 72
     2
 10
0.0
 20
-3.324999950000062
 40
2.659999999999827
 50
112.0243128370404
 51
427.9756871629659
 73
     1
 72
     1
 10
0.9974999999997892
 20
-0.8591139530402891
 11
0.9974999999997892
 21
4.796219377687264
 97
        0
 75
     0
 76
     1
 52
0.0
 41
0.0254
 77
     0
 78
     1
 53
45.0
 43
0.0
 44
0.0
 45
-0.0022450640302673
 46
0.0022450640302673
 79
     0
 98
        1
 10
0.0
 20
0.0
  0
LINE
  5
145
330
13D
100
AcDbEntity
  8
MaSichtkante dünnFliese
370
    18
100
AcDbLine
 10
0.9974999999997892
 20
4.893283779707643
 30
0.0
 11
2.194499999999734
 21
4.893283779707643
 31
0.0
  0
LINE
  5
146
330
13D
100
AcDbEntity
  8
MaSichtkante dünnFliese
370
    18
100
AcDbLine
 10
0.9974999999997892
 20
0.8330332774134241
 30
0.0
 11
2.194499999999734
 21
0.8330332774134241
 31
0.0
  0
LINE
  5
147
330
13D
100
AcDbEntity
  8
MaSichtkante dünnFliese
370
    18
100
AcDbLine
 10
0.9974999999997892
 20
2.863158528560525
 30
0.0
 11
2.194499999999734
 21
2.863158528560525
 31
0.0
  0
LINE
  5
148
330
13D
100
AcDbEntity
  8
Sketch Geometry(DIN)
370
    18
100
AcDbLine
 10
0.9974999999997892
 20
5.98500004999991
 30
0.0
 11
0.9974999999997892
 21
-0.8591139530402891
 31
0.0
  0
LINE
  5
149
330
13D
100
AcDbEntity
  8
MaSichtkante dünnFliese
100
AcDbLine
 10
-0.9975000000000909
 20
5.98500004999991
 30
0.0
 11
0.9974999999997892
 21
5.98500004999991
 31
0.0
  0
LINE
  5
14A
330
13D
100
AcDbEntity
  8
MaSichtkante dünnFliese
100
AcDbLine
 10
-0.9975000000000909
 20
-0.8591139530402891
 30
0.0
 11
-0.9975000000000909
 21
5.98500004999991
 31
0.0
  0
LINE
  5
14B
330
13D
100
AcDbEntity
  8
MaSichtkante dünnFliese
370
    18
100
AcDbLine
 10
-0.9975000000000909
 20
4.796219377687264
 30
0.0
 11
0.9974999999997892
 21
4.796219377687264
 31
0.0
  0
ARC
  5
14C
330
13D
100
AcDbEntity
  8
MaSichtkante dünnFliese
370
    18
100
AcDbCircle
 10
0.0
 20
-3.324999950000062
 30
0.0
 40
2.659999999999829
100
AcDbArc
 50
112.0243128370402
 51
67.9756871629658
  0
ENDBLK
  5
13F
330
13D
100
AcDbEntity
  8
0
100
AcDbBlockEnd
  0
BLOCK
  5
14E
330
14D
100
AcDbEntity
  8
0
100
AcDbBlockBegin
  2
Title Blocks WS-Marketing-FUN
 70
     2
 10
0.0
 20
0.0
 30
0.0
  3
Title Blocks WS-Marketing-FUN
  1

  0
LINE
  5
832
330
14D
100
AcDbEntity
  8
Visible Edges(DIN)
100
AcDbLine
 10
89.59999999999997
 20
100.2741925130958
 30
0.0
 11
289.6
 21
100.2741925130958
 31
0.0
  0
LINE
  5
833
330
14D
100
AcDbEntity
  8
Visible Edges(DIN)
100
AcDbLine
 10
289.6
 20
100.2741925130958
 30
0.0
 11
289.6
 21
146.0241925130958
 31
0.0
  0
LINE
  5
834
330
14D
100
AcDbEntity
  8
Visible Edges(DIN)
100
AcDbLine
 10
289.6
 20
146.0241925130958
 30
0.0
 11
89.59999999999999
 21
146.0241925130958
 31
0.0
  0
LINE
  5
835
330
14D
100
AcDbEntity
  8
Visible Edges(DIN)
100
AcDbLine
 10
89.59999999999999
 20
146.0241925130958
 30
0.0
 11
89.59999999999997
 21
100.2741925130958
 31
0.0
  0
LINE
  5
836
330
14D
100
AcDbEntity
  8
Visible Edges(DIN)
100
AcDbLine
 10
154.6
 20
100.2741925130958
 30
0.0
 11
154.6
 21
146.0241925130958
 31
0.0
  0
LINE
  5
837
330
14D
100
AcDbEntity
  8
Visible Edges(DIN)
100
AcDbLine
 10
204.6
 20
100.2741925130958
 30
0.0
 11
204.6
 21
146.0241925130958
 31
0.0
  0
LINE
  5
838
330
14D
100
AcDbEntity
  8
Sketch Geometry(ISO)
  6
Continuous
 62
     7
370
    25
100
AcDbLine
 10
109.6
 20
131.0241925130958
 30
0.0
 11
109.6
 21
146.0241925130958
 31
0.0
  0
LINE
  5
839
330
14D
100
AcDbEntity
  8
Sketch Geometry(ISO)
  6
Continuous
 62
     7
370
    25
100
AcDbLine
 10
89.59999999999999
 20
138.5241925130958
 30
0.0
 11
154.6
 21
138.5241925130958
 31
0.0
  0
LINE
  5
83A
330
14D
100
AcDbEntity
  8
Sketch Geometry(ISO)
  6
Continuous
 62
     7
370
    25
100
AcDbLine
 10
89.59999999999999
 20
131.0241925130958
 30
0.0
 11
154.6
 21
131.0241925130958
 31
0.0
  0
LINE
  5
83B
330
14D
100
AcDbEntity
  8
Sketch Geometry(ISO)
  6
Continuous
 62
     7
370
    25
100
AcDbLine
 10
289.6
 20
110.2741925130957
 30
0.0
 11
204.6
 21
110.2741925130957
 31
0.0
  0
LINE
  5
83C
330
14D
100
AcDbEntity
  8
Sketch Geometry(ISO)
  6
Continuous
 62
     7
370
    25
100
AcDbLine
 10
216.6
 20
100.2741925130958
 30
0.0
 11
216.6
 21
110.2741925130957
 31
0.0
  0
LINE
  5
83D
330
14D
100
AcDbEntity
  8
Sketch Geometry(ISO)
  6
Continuous
 62
     7
370
    25
100
AcDbLine
 10
282.1
 20
110.2741925130957
 30
0.0
 11
282.1
 21
100.2741925130958
 31
0.0
  0
LINE
  5
83E
330
14D
100
AcDbEntity
  8
Sketch Geometry(ISO)
  6
Continuous
 62
     7
370
    25
100
AcDbLine
 10
274.6
 20
110.2741925130957
 30
0.0
 11
274.6
 21
100.2741925130958
 31
0.0
  0
LINE
  5
83F
330
14D
100
AcDbEntity
  8
Sketch Geometry(ISO)
  6
Continuous
 62
     7
370
    25
100
AcDbLine
 10
220.7048524866916
 20
143.6616925130957
 30
0.0
 11
226.2048524866916
 21
144.4616925130956
 31
0.0
  0
LINE
  5
840
330
14D
100
AcDbEntity
  8
Centerline(ISO)
  6
Continuous
 62
     7
370
    18
100
AcDbLine
 10
227.2048524866917
 20
142.4616925130957
 30
0.0
 11
219.7048524866915
 21
142.4616925130957
 31
0.0
  0
LINE
  5
841
330
14D
100
AcDbEntity
  8
Sketch Geometry(ISO)
  6
Continuous
 62
     7
370
    25
100
AcDbLine
 10
220.7048524866916
 20
143.6616925130957
 30
0.0
 11
220.7048524866916
 21
141.2616925130957
 31
0.0
  0
LINE
  5
842
330
14D
100
AcDbEntity
  8
Sketch Geometry(ISO)
  6
Continuous
 62
     7
370
    25
100
AcDbLine
 10
220.7048524866916
 20
141.2616925130957
 30
0.0
 11
226.2048524866916
 21
140.4616925130957
 31
0.0
  0
LINE
  5
843
330
14D
100
AcDbEntity
  8
Centerline(ISO)
  6
Continuous
 62
     7
370
    18
100
AcDbLine
 10
227.7048524866915
 20
142.4616925130957
 30
0.0
 11
233.7048524866915
 21
142.4616925130957
 31
0.0
  0
LINE
  5
844
330
14D
100
AcDbEntity
  8
Sketch Geometry(ISO)
  6
Continuous
 62
     7
370
    25
100
AcDbLine
 10
226.2048524866916
 20
144.4616925130956
 30
0.0
 11
226.2048524866916
 21
140.4616925130957
 31
0.0
  0
CIRCLE
  5
845
330
14D
100
AcDbEntity
  8
Sketch Geometry(ISO)
  6
Continuous
 62
     7
370
    25
100
AcDbCircle
 10
230.7048524866915
 20
142.4616925130957
 30
0.0
 40
1.199999999999999
  0
LINE
  5
846
330
14D
100
AcDbEntity
  8
Centerline(ISO)
  6
Continuous
 62
     7
370
    18
100
AcDbLine
 10
230.7048524866914
 20
145.4616925130956
 30
0.0
 11
230.7048524866914
 21
139.4616925130957
 31
0.0
  0
CIRCLE
  5
847
330
14D
100
AcDbEntity
  8
Sketch Geometry(ISO)
  6
Continuous
 62
     7
370
    25
100
AcDbCircle
 10
230.7048524866915
 20
142.4616925130957
 30
0.0
 40
2.0
  0
LINE
  5
848
330
14D
100
AcDbEntity
  8
Sketch Geometry(ISO)
  6
Continuous
 62
     7
370
    25
100
AcDbLine
 10
134.6
 20
131.0241925130958
 30
0.0
 11
134.6
 21
146.0241925130958
 31
0.0
  0
LINE
  5
849
330
14D
100
AcDbEntity
  8
Sketch Geometry(ISO)
  6
Continuous
 62
     7
370
    35
100
AcDbLine
 10
204.6
 20
138.5241925130958
 30
0.0
 11
289.6
 21
138.5241925130958
 31
0.0
  0
LINE
  5
84A
330
14D
100
AcDbEntity
  8
Sketch Geometry(ISO)
  6
Continuous
 62
     7
370
    25
100
AcDbLine
 10
204.6
 20
131.0241925130958
 30
0.0
 11
289.6
 21
131.0241925130958
 31
0.0
  0
LINE
  5
84B
330
14D
100
AcDbEntity
  8
Sketch Geometry(ISO)
  6
Continuous
 62
     7
370
    25
100
AcDbLine
 10
247.1
 20
146.0241925130956
 30
0.0
 11
247.1
 21
131.0241925130958
 31
0.0
  0
LINE
  5
84C
330
14D
100
AcDbEntity
  8
Sketch Geometry(ISO)
  6
Continuous
 62
     7
370
    25
100
AcDbLine
 10
263.6
 20
110.2741925130957
 30
0.0
 11
263.6
 21
100.2741925130958
 31
0.0
  0
LINE
  5
911
330
14D
100
AcDbEntity
  8
Sketch Geometry(ISO)
  6
Continuous
 62
     7
370
    25
100
AcDbLine
 10
89.59999999999999
 20
110.2741925130958
 30
0.0
 11
154.6
 21
110.2741925130957
 31
0.0
  0
MTEXT
  5
912
330
14D
100
AcDbEntity
  8
Symbols(ISO)
 62
     7
100
AcDbMText
 10
155.6
 20
144.5241925130958
 30
0.0
 40
1.49859994649887
 41
23.77876622243585
 71
     4
 72
     1
  1
Revision Description:
  7
Text__1.5mm
 73
     1
 44
1.0
1001
ACAD
1000
MTEXTBEGIN
1070
    73
1070
     1
1070
    44
1040
1.0
1070
    74
1070
     0
1000
MTEXTEND
  0
MTEXT
  5
914
330
14D
100
AcDbEntity
  8
Symbols(ISO)
 62
     7
100
AcDbMText
 10
264.6
 20
108.7741925130957
 30
0.0
 40
1.49859994649887
 41
6.687050822926429
 71
     4
 72
     1
  1
\fArial|b0|i0;Rev.
  7
Text__1.5mm
 73
     1
 44
1.0
1001
ACAD
1000
MTEXTBEGIN
1070
    73
1070
     1
1070
    44
1040
1.0
1070
    74
1070
     0
1000
MTEXTEND
  0
MTEXT
  5
915
330
14D
100
AcDbEntity
  8
Symbols(ISO)
 62
     7
100
AcDbMText
 10
275.6
 20
108.7741925130957
 30
0.0
 40
1.49859994649887
 41
6.687050822926429
 71
     4
 72
     1
  1
\fArial|b0|i0;Sheet
  7
Text__1.5mm
 73
     1
 44
1.0
1001
ACAD
1000
MTEXTBEGIN
1070
    73
1070
     1
1070
    44
1040
1.0
1070
    74
1070
     0
1000
MTEXTEND
  0
MTEXT
  5
916
330
14D
100
AcDbEntity
  8
Symbols(ISO)
 62
     7
100
AcDbMText
 10
205.6
 20
108.7741925130957
 30
0.0
 40
1.49859994649887
 41
6.629477143287657
 71
     4
 72
     1
  1
\fArial|b0|i0;Format
  7
Text__1.5mm
 73
     1
 44
1.0
1001
ACAD
1000
MTEXTBEGIN
1070
    73
1070
     1
1070
    44
1040
1.0
1070
    74
1070
     0
1000
MTEXTEND
  0
MTEXT
  5
917
330
14D
100
AcDbEntity
  8
Symbols(ISO)
 62
     7
100
AcDbMText
 10
248.1
 20
137.0241925130958
 30
0.0
 40
1.49859994649887
 41
9.419934749603273
 71
     4
 72
     1
  1
EAN / UPC
  7
Text__1.5mm
 73
     1
 44
1.0
1001
ACAD
1000
MTEXTBEGIN
1070
    73
1070
     1
1070
    44
1040
1.0
1070
    74
1070
     0
1000
MTEXTEND
  0
MTEXT
  5
918
330
14D
100
AcDbEntity
  8
Symbols(ISO)
 62
     7
100
AcDbMText
 10
205.6
 20
144.3687682948396
 30
0.0
 40
1.49859994649887
 41
8.959617614746091
 71
     4
 72
     1
  1
Projection
  7
Text__1.5mm
 73
     1
 44
1.0
1001
ACAD
1000
MTEXTBEGIN
1070
    73
1070
     1
1070
    44
1040
1.0
1070
    74
1070
     0
1000
MTEXTEND
  0
MTEXT
  5
919
330
14D
100
AcDbEntity
  8
Symbols(ISO)
 62
     7
100
AcDbMText
 10
248.1
 20
144.3687682948396
 30
0.0
 40
1.49859994649887
 41
41.00067758866361
 71
     4
 72
     1
  1
Local part number (producing site)
  7
Text__1.5mm
 73
     1
 44
1.0
1001
ACAD
1000
MTEXTBEGIN
1070
    73
1070
     1
1070
    44
1040
1.0
1070
    74
1070
     0
1000
MTEXTEND
  0
MTEXT
  5
91A
330
14D
100
AcDbEntity
  8
Symbols(ISO)
 62
     7
100
AcDbMText
 10
218.1
 20
108.7741925130957
 30
0.0
 40
1.49859994649887
 41
13.84170077910116
 71
     4
 72
     1
  1
Drawing number
  7
Text__1.5mm
 73
     1
 44
1.0
1001
ACAD
1000
MTEXTBEGIN
1070
    73
1070
     1
1070
    44
1040
1.0
1070
    74
1070
     0
1000
MTEXTEND
  0
MTEXT
  5
91B
330
14D
100
AcDbEntity
  8
Symbols(ISO)
 62
     7
100
AcDbMText
 10
205.6
 20
137.0241925130958
 30
0.0
 40
1.49859994649887
 41
16.71329739486093
 71
     4
 72
     1
  1
WS global number
  7
Text__1.5mm
 73
     1
 44
1.0
1001
ACAD
1000
MTEXTBEGIN
1070
    73
1070
     1
1070
    44
1040
1.0
1070
    74
1070
     0
1000
MTEXTEND
  0
MTEXT
  5
91C
330
14D
100
AcDbEntity
  8
Symbols(ISO)
 62
     7
100
AcDbMText
 10
283.1
 20
108.7741925130957
 30
0.0
 40
1.49859994649887
 41
6.687050822926429
 71
     4
 72
     1
  1
Sheets
  7
Text__1.5mm
 73
     1
 44
1.0
1001
ACAD
1000
MTEXTBEGIN
1070
    73
1070
     1
1070
    44
1040
1.0
1070
    74
1070
     0
1000
MTEXTEND
  0
MTEXT
  5
91E
330
14D
100
AcDbEntity
  8
Symbols(ISO)
 62
     7
100
AcDbMText
 10
90.6
 20
144.5241925130958
 30
0.0
 40
1.49859994649887
 41
8.959617614746091
 71
     4
 72
     1
  1
Drawn by
  7
Text__1.5mm
 73
     1
 44
1.0
1001
ACAD
1000
MTEXTBEGIN
1070
    73
1070
     1
1070
    44
1040
1.0
1070
    74
1070
     0
1000
MTEXTEND
  0
MTEXT
  5
91F
330
14D
100
AcDbEntity
  8
Symbols(ISO)
 62
     7
100
AcDbMText
 10
90.6
 20
137.0241925130958
 30
0.0
 40
1.49859994649887
 41
9.318276643753053
 71
     4
 72
     1
  1
Revised by
  7
Text__1.5mm
 73
     1
 44
1.0
1001
ACAD
1000
MTEXTBEGIN
1070
    73
1070
     1
1070
    44
1040
1.0
1070
    74
1070
     0
1000
MTEXTEND
  0
MTEXT
  5
920
330
14D
100
AcDbEntity
  8
Symbols(ISO)
 62
     7
100
AcDbMText
 10
135.6
 20
137.0241925130958
 30
0.0
 40
1.49859994649887
 41
12.0866436953507
 71
     4
 72
     1
  1
Revision date
  7
Text__1.5mm
 73
     1
 44
1.0
1001
ACAD
1000
MTEXTBEGIN
1070
    73
1070
     1
1070
    44
1040
1.0
1070
    74
1070
     0
1000
MTEXTEND
  0
MTEXT
  5
921
330
14D
100
AcDbEntity
  8
Symbols(ISO)
 62
     7
100
AcDbMText
 10
135.6
 20
144.5241925130958
 30
0.0
 40
1.49859994649887
 41
12.73810746214334
 71
     4
 72
     1
  1
Creation date
  7
Text__1.5mm
 73
     1
 44
1.0
1001
ACAD
1000
MTEXTBEGIN
1070
    73
1070
     1
1070
    44
1040
1.0
1070
    74
1070
     0
1000
MTEXTEND
  0
MTEXT
  5
922
330
14D
100
AcDbEntity
  8
Symbols(ISO)
 62
     7
100
AcDbMText
 10
110.6
 20
144.5241925130958
 30
0.0
 40
1.49859994649887
 41
10.88769435882568
 71
     4
 72
     1
  1
Departement
  7
Text__1.5mm
 73
     1
 44
1.0
1001
ACAD
1000
MTEXTBEGIN
1070
    73
1070
     1
1070
    44
1040
1.0
1070
    74
1070
     0
1000
MTEXTEND
  0
MTEXT
  5
923
330
14D
100
AcDbEntity
  8
Symbols(ISO)
 62
     7
100
AcDbMText
 10
110.6
 20
137.0241925130958
 30
0.0
 40
1.49859994649887
 41
13.53864551460898
 71
     4
 72
     1
  1
Departement
  7
Text__1.5mm
 73
     1
 44
1.0
1001
ACAD
1000
MTEXTBEGIN
1070
    73
1070
     1
1070
    44
1040
1.0
1070
    74
1070
     0
1000
MTEXTEND
  0
ATTDEF
  5
924
102
{ACAD_XDICTIONARY
360
925
102
}
330
14D
100
AcDbEntity
  8
Symbols(ISO)
 62
     7
100
AcDbText
 10
206.0815825375171
 20
124.2438378064109
 30
0.0
 40
5.0
  1
Münzkontaktgeber
  7
Text Style20
100
AcDbAttributeDefinition
  3
Title
  2
Title_001
 70
     0
  0
ATTDEF
  5
926
102
{ACAD_XDICTIONARY
360
927
102
}
330
14D
100
AcDbEntity
  8
Symbols(ISO)
 62
     7
100
AcDbText
 10
206.6000000000001
 20
117.879240290086
 30
0.0
 40
3.499999940395355
  1
AQUA802
  7
Text Style9
100
AcDbAttributeDefinition
  3
Auxiliary_Remark1
  2
Auxiliary_Remark1_001
 70
     0
  0
ATTDEF
  5
928
102
{ACAD_XDICTIONARY
360
929
102
}
330
14D
100
AcDbEntity
  8
Symbols(ISO)
 62
     7
100
AcDbText
 10
206.2371077824419
 20
111.7886877592386
 30
0.0
 40
3.499999940395355
  1
Marketingzeichnung
  7
Text Style9
100
AcDbAttributeDefinition
  3
Auxiliary_Remark2
  2
Auxiliary_Remark2_001
 70
     0
  0
ATTDEF
  5
92A
102
{ACAD_XDICTIONARY
360
92B
102
}
330
14D
100
AcDbEntity
  8
Symbols(ISO)
 62
     7
100
AcDbText
 10
248.0556616643929
 20
139.7903930587984
 30
0.0
 40
2.5
  1
49020804
  7
Text Style38
100
AcDbAttributeDefinition
  3
Part_number
  2
Part_number_001
 70
     0
  0
ATTDEF
  5
92C
102
{ACAD_XDICTIONARY
360
92D
102
}
330
14D
100
AcDbEntity
  8
Symbols(ISO)
 62
     7
100
AcDbText
 10
217.8100954979536
 20
101.8065936045009
 30
0.0
 40
5.0
  1
0222-218141
  7
Text Style20
100
AcDbAttributeDefinition
  3
Document_Number
  2
Document_Number_001
 70
     0
  0
ATTDEF
  5
92E
102
{ACAD_XDICTIONARY
360
92F
102
}
330
14D
100
AcDbEntity
  8
Symbols(ISO)
 62
     7
100
AcDbText
 10
155.6
 20
136.0241924832935
 30
0.0
 40
2.000000029802321
  1

  7
Text Style40
 11
155.6
 21
138.0241925130958
 31
0.0
100
AcDbAttributeDefinition
  3
Revision_Memo_1
  2
Revision_Memo_1
 70
     0
 74
     3
  0
ATTDEF
  5
930
102
{ACAD_XDICTIONARY
360
931
102
}
330
14D
100
AcDbEntity
  8
Symbols(ISO)
 62
     7
100
AcDbText
 10
264.6
 20
101.7741925130957
 30
0.0
 40
5.0
  1
A
  7
Text Style20
100
AcDbAttributeDefinition
  3
Revision_Index_1
  2
Revision_Index_1_001
 70
     0
  0
ATTDEF
  5
932
102
{ACAD_XDICTIONARY
360
933
102
}
330
14D
100
AcDbEntity
  8
Symbols(ISO)
 62
     7
100
AcDbText
 10
205.6
 20
101.7741925130957
 30
0.0
 40
5.0
  1
A4
  7
Text Style20
100
AcDbAttributeDefinition
  3
Sheet Size
  2
Sheet_Size_001
 70
     0
  0
ATTDEF
  5
934
102
{ACAD_XDICTIONARY
360
935
102
}
330
14D
100
AcDbEntity
  8
Symbols(ISO)
 62
     7
100
AcDbText
 10
90.38035470341188
 20
140.3181897740626
 30
0.0
 40
2.000000029802321
  1
Rataj
  7
Text Style40
100
AcDbAttributeDefinition
  3
Drawn_By
  2
Drawn_By_001
 70
     0
  0
ATTDEF
  5
936
102
{ACAD_XDICTIONARY
360
937
102
}
330
14D
100
AcDbEntity
  8
Symbols(ISO)
 62
     7
100
AcDbText
 10
90.6
 20
132.5241924981946
 30
0.0
 40
2.000000029802321
  1

  7
Text Style40
 11
90.6
 21
133.5241925130958
 31
0.0
100
AcDbAttributeDefinition
  3
Modified_By
  2
Modified_By
 70
     0
 74
     2
  0
ATTDEF
  5
938
102
{ACAD_XDICTIONARY
360
939
102
}
330
14D
100
AcDbEntity
  8
Symbols(ISO)
 62
     7
100
AcDbText
 10
135.4840381974535
 20
140.0378350632001
 30
0.0
 40
2.000000029802321
  1
05.03.2010
  7
Text Style40
100
AcDbAttributeDefinition
  3
Drawn_Date
  2
Drawn_Date_001
 70
     0
  0
ATTDEF
  5
93A
102
{ACAD_XDICTIONARY
360
93B
102
}
330
14D
100
AcDbEntity
  8
Symbols(ISO)
 62
     7
100
AcDbText
 10
135.6
 20
132.5241924981946
 30
0.0
 40
2.000000029802321
  1

  7
Text Style40
 11
135.6
 21
133.5241925130958
 31
0.0
100
AcDbAttributeDefinition
  3
Modified_Date
  2
Modified_Date
 70
     0
 74
     2
  0
ATTDEF
  5
93C
102
{ACAD_XDICTIONARY
360
93D
102
}
330
14D
100
AcDbEntity
  8
Symbols(ISO)
 62
     7
100
AcDbText
 10
155.6
 20
140.0241924981946
 30
0.0
 40
2.000000029802321
  1

  7
Text Style40
 11
155.6
 21
141.0241925130958
 31
0.0
100
AcDbAttributeDefinition
  3
Revision_Titel_1
  2
Revision_Titel_1
 70
     0
 74
     2
  0
ATTDEF
  5
93E
102
{ACAD_XDICTIONARY
360
93F
102
}
330
14D
100
AcDbEntity
  8
Symbols(ISO)
 62
     7
100
AcDbText
 10
276.8366984993179
 20
101.763960589494
 30
0.0
 40
5.0
  1
1
 41
0.9
  7
Text__5.0mm
100
AcDbAttributeDefinition
  3
Sheet number
  2
Sheet_number_001
 70
     0
  0
ATTDEF
  5
940
102
{ACAD_XDICTIONARY
360
941
102
}
330
14D
100
AcDbEntity
  8
Symbols(ISO)
 62
     7
100
AcDbText
 10
284.2139154160983
 20
101.7741925130957
 30
0.0
 40
5.0
  1
4
 41
0.9
  7
Text__5.0mm
100
AcDbAttributeDefinition
  3
Number of sheets
  2
Number_of_sheets_001
 70
     0
  0
ATTDEF
  5
942
102
{ACAD_XDICTIONARY
360
943
102
}
330
14D
100
AcDbEntity
  8
Symbols(ISO)
 62
     7
100
AcDbText
 10
205.6
 20
132.2741925130958
 30
0.0
 40
2.5
  1

  7
Text Style38
 11
205.6
 21
133.5241925130958
 31
0.0
100
AcDbAttributeDefinition
  3
FUN
  2
FUN
 70
     0
 74
     2
  0
ATTDEF
  5
944
102
{ACAD_XDICTIONARY
360
945
102
}
330
14D
100
AcDbEntity
  8
Symbols(ISO)
 62
     7
100
AcDbText
 10
247.9345839017735
 20
132.2912457190985
 30
0.0
 40
2.5
  1
7612982130793
  7
Text Style38
100
AcDbAttributeDefinition
  3
EAN
  2
EAN_001
 70
     0
  0
ATTDEF
  5
946
102
{ACAD_XDICTIONARY
360
947
102
}
330
14D
100
AcDbEntity
  8
Symbols(ISO)
 62
     7
100
AcDbText
 10
110.370804907908
 20
132.8181897740626
 30
0.0
 40
2.000000029802321
  1
FAR-Marketing
  7
Text Style40
100
AcDbAttributeDefinition
  3
Departement
  2
Departement_001
 70
     0
  0
ATTDEF
  5
948
102
{ACAD_XDICTIONARY
360
949
102
}
330
14D
100
AcDbEntity
  8
Symbols(ISO)
 62
     7
100
AcDbText
 10
110.370804907908
 20
140.3181897740626
 30
0.0
 40
2.000000029802321
  1
FAR-Marketing
  7
Text Style40
100
AcDbAttributeDefinition
  3
Departement
  2
Departement_001
 70
     0
  0
ENDBLK
  5
14F
330
14D
100
AcDbEntity
  8
0
100
AcDbBlockEnd
  0
BLOCK
  5
26F
330
26E
100
AcDbEntity
  8
0
100
AcDbBlockBegin
  2
Borders Verkauf Border_85x80
 70
     0
 10
0.0
 20
0.0
 30
0.0
  3
Borders Verkauf Border_85x80
  1

  0
LINE
  5
271
330
26E
100
AcDbEntity
  8
Phantom Lines(ISO)
100
AcDbLine
 10
20.00000000000014
 20
228.0000000000001
 30
0.0
 11
190.0
 21
228.0000000000001
 31
0.0
  0
LINE
  5
272
330
26E
100
AcDbEntity
  8
Phantom Lines(ISO)
100
AcDbLine
 10
190.0
 20
228.0000000000001
 30
0.0
 11
190.0
 21
68.00000000000004
 31
0.0
  0
LINE
  5
273
330
26E
100
AcDbEntity
  8
Phantom Lines(ISO)
100
AcDbLine
 10
190.0
 20
68.00000000000003
 30
0.0
 11
20.0
 21
68.00000000000003
 31
0.0
  0
LINE
  5
274
330
26E
100
AcDbEntity
  8
Phantom Lines(ISO)
100
AcDbLine
 10
20.0
 20
68.00000000000003
 30
0.0
 11
20.00000000000014
 21
228.0000000000001
 31
0.0
  0
LINE
  5
275
330
26E
100
AcDbEntity
  8
Sketch Geometry(ISO)
100
AcDbLine
 10
204.9999999999999
 20
292.0
 30
0.0
 11
5.0
 21
292.0
 31
0.0
  0
LINE
  5
276
330
26E
100
AcDbEntity
  8
Sketch Geometry(ISO)
100
AcDbLine
 10
4.999999999999981
 20
292.0
 30
0.0
 11
5.000000000000006
 21
5.0
 31
0.0
  0
LINE
  5
277
330
26E
100
AcDbEntity
  8
Sketch Geometry(ISO)
100
AcDbLine
 10
5.000000000000006
 20
5.0
 30
0.0
 11
205.0
 21
5.0
 31
0.0
  0
LINE
  5
278
330
26E
100
AcDbEntity
  8
Sketch Geometry(ISO)
100
AcDbLine
 10
205.0
 20
5.0
 30
0.0
 11
204.9999999999999
 21
292.0
 31
0.0
  0
ENDBLK
  5
270
330
26E
100
AcDbEntity
  8
0
100
AcDbBlockEnd
  0
BLOCK
  5
358
330
357
100
AcDbEntity
  8
0
100
AcDbBlockBegin
  2
*D11
 70
     1
 10
0.0
 20
0.0
 30
0.0
  3
*D11
  1

  0
LINE
  5
436
330
357
100
AcDbEntity
  8
Bemaßungen(DIN)
  6
Continuous
 62
     7
370
    25
100
AcDbLine
 10
560.91498151209
 20
506.2170563920179
 30
0.0
 11
560.91498151209
 21
445.2170563920177
 31
0.0
  0
LINE
  5
437
330
357
100
AcDbEntity
  8
Bemaßungen(DIN)
  6
Continuous
 62
     7
370
    25
100
AcDbLine
 10
430.9149815120909
 20
479.2170563920178
 30
0.0
 11
430.9149815120909
 21
445.2170563920177
 31
0.0
  0
LINE
  5
438
330
357
100
AcDbEntity
  8
Bemaßungen(DIN)
  6
Continuous
 62
     7
370
    25
100
AcDbLine
 10
548.1149815120902
 20
451.6170563920178
 30
0.0
 11
511.2793468105817
 21
451.6170563920178
 31
0.0
  0
LINE
  5
439
330
357
100
AcDbEntity
  8
Bemaßungen(DIN)
  6
Continuous
 62
     7
370
    25
100
AcDbLine
 10
443.714981512091
 20
451.6170563920178
 30
0.0
 11
480.5506162135994
 21
451.6170563920178
 31
0.0
  0
SOLID
  5
43A
330
357
100
AcDbEntity
  8
Bemaßungen(DIN)
  6
Continuous
 62
     7
100
AcDbTrace
 10
548.1149815120902
 20
453.7503897253511
 30
0.0
 11
548.1149815120902
 21
449.4837230586845
 31
0.0
 12
560.91498151209
 22
451.6170563920178
 32
0.0
 13
560.91498151209
 23
451.6170563920178
 33
0.0
  0
SOLID
  5
43B
330
357
100
AcDbEntity
  8
Bemaßungen(DIN)
  6
Continuous
 62
     7
100
AcDbTrace
 10
443.714981512091
 20
453.7503897253511
 30
0.0
 11
443.714981512091
 21
449.4837230586845
 31
0.0
 12
430.9149815120909
 22
451.6170563920178
 32
0.0
 13
430.9149815120909
 23
451.6170563920178
 33
0.0
  0
MTEXT
  5
43C
330
357
100
AcDbEntity
  8
Bemaßungen(DIN)
  6
Continuous
 62
     7
370
    30
100
AcDbMText
 10
483.7506162135994
 20
451.6170563920178
 30
0.0
 40
12.8
 41
0.0
 71
     4
 72
     1
  1
\A1;130
  7
Text__4.0mm
 73
     1
 44
1.0
1001
ACAD
1000
MTEXTBEGIN
1070
    73
1070
     1
1070
    44
1040
1.0
1070
    74
1070
     0
1000
MTEXTEND
  0
POINT
  5
43D
330
357
100
AcDbEntity
  8
Defpoints
  6
Continuous
 62
     0
100
AcDbPoint
 10
560.91498151209
 20
512.6170563920178
 30
0.0
  0
POINT
  5
43E
330
357
100
AcDbEntity
  8
Defpoints
  6
Continuous
 62
     0
100
AcDbPoint
 10
430.9149815120909
 20
485.6170563920178
 30
0.0
  0
POINT
  5
43F
330
357
100
AcDbEntity
  8
Defpoints
  6
Continuous
 62
     0
100
AcDbPoint
 10
430.9149815120909
 20
451.6170563920178
 30
0.0
  0
ENDBLK
  5
359
330
357
100
AcDbEntity
  8
0
100
AcDbBlockEnd
  0
BLOCK
  5
442
330
441
100
AcDbEntity
  8
0
100
AcDbBlockBegin
  2
*D12
 70
     1
 10
0.0
 20
0.0
 30
0.0
  3
*D12
  1

  0
LINE
  5
520
330
441
100
AcDbEntity
  8
Bemaßungen(DIN)
  6
Continuous
 62
     7
370
    25
100
AcDbLine
 10
580.3114198319003
 20
552.2175079626446
 30
0.0
 11
580.3114198319003
 21
410.9663296130076
 31
0.0
  0
LINE
  5
521
330
441
100
AcDbEntity
  8
Bemaßungen(DIN)
  6
Continuous
 62
     7
370
    25
100
AcDbLine
 10
430.9149815120909
 20
479.2170563920178
 30
0.0
 11
430.9149815120909
 21
410.9663296130076
 31
0.0
  0
LINE
  5
522
330
441
100
AcDbEntity
  8
Bemaßungen(DIN)
  6
Continuous
 62
     7
370
    25
100
AcDbLine
 10
567.5114198319005
 20
417.3663296130077
 30
0.0
 11
521.0089984389583
 21
417.3663296130077
 31
0.0
  0
LINE
  5
523
330
441
100
AcDbEntity
  8
Bemaßungen(DIN)
  6
Continuous
 62
     7
370
    25
100
AcDbLine
 10
443.714981512091
 20
417.3663296130077
 30
0.0
 11
490.2174029050331
 21
417.3663296130077
 31
0.0
  0
SOLID
  5
524
330
441
100
AcDbEntity
  8
Bemaßungen(DIN)
  6
Continuous
 62
     7
100
AcDbTrace
 10
567.5114198319005
 20
419.499662946341
 30
0.0
 11
567.5114198319005
 21
415.2329962796743
 31
0.0
 12
580.3114198319003
 22
417.3663296130077
 32
0.0
 13
580.3114198319003
 23
417.3663296130077
 33
0.0
  0
SOLID
  5
525
330
441
100
AcDbEntity
  8
Bemaßungen(DIN)
  6
Continuous
 62
     7
100
AcDbTrace
 10
443.714981512091
 20
419.499662946341
 30
0.0
 11
443.714981512091
 21
415.2329962796743
 31
0.0
 12
430.9149815120909
 22
417.3663296130077
 32
0.0
 13
430.9149815120909
 23
417.3663296130077
 33
0.0
  0
MTEXT
  5
526
330
441
100
AcDbEntity
  8
Bemaßungen(DIN)
  6
Continuous
 62
     7
370
    30
100
AcDbMText
 10
493.4174029050331
 20
417.3663296130077
 30
0.0
 40
12.8
 41
0.0
 71
     4
 72
     1
  1
\A1;149
  7
Text__4.0mm
 73
     1
 44
1.0
1001
ACAD
1000
MTEXTBEGIN
1070
    73
1070
     1
1070
    44
1040
1.0
1070
    74
1070
     0
1000
MTEXTEND
  0
POINT
  5
527
330
441
100
AcDbEntity
  8
Defpoints
  6
Continuous
 62
     0
100
AcDbPoint
 10
580.3114198319003
 20
558.6175079626444
 30
0.0
  0
POINT
  5
528
330
441
100
AcDbEntity
  8
Defpoints
  6
Continuous
 62
     0
100
AcDbPoint
 10
430.9149815120909
 20
485.6170563920178
 30
0.0
  0
POINT
  5
529
330
441
100
AcDbEntity
  8
Defpoints
  6
Continuous
 62
     0
100
AcDbPoint
 10
430.9149815120909
 20
417.3663296130077
 30
0.0
  0
ENDBLK
  5
443
330
441
100
AcDbEntity
  8
0
100
AcDbBlockEnd
  0
BLOCK
  5
52C
330
52B
100
AcDbEntity
  8
0
100
AcDbBlockBegin
  2
*D13
 70
     1
 10
0.0
 20
0.0
 30
0.0
  3
*D13
  1

  0
LINE
  5
610
330
52B
100
AcDbEntity
  8
Bemaßungen(DIN)
  6
Continuous
 62
     7
370
    25
100
AcDbLine
 10
334.2077534708022
 20
704.1170563920178
 30
0.0
 11
381.3176057036228
 21
704.1170563920178
 31
0.0
  0
LINE
  5
611
330
52B
100
AcDbEntity
  8
Bemaßungen(DIN)
  6
Continuous
 62
     7
370
    25
100
AcDbLine
 10
334.2077534708022
 20
484.1170563920178
 30
0.0
 11
381.3176057036228
 21
484.1170563920178
 31
0.0
  0
LINE
  5
612
330
52B
100
AcDbEntity
  8
Bemaßungen(DIN)
  6
Continuous
 62
     7
370
    25
100
AcDbLine
 10
374.9176057036229
 20
691.3170563920178
 30
0.0
 11
374.9176057036228
 21
603.8523906348554
 31
0.0
  0
LINE
  5
613
330
52B
100
AcDbEntity
  8
Bemaßungen(DIN)
  6
Continuous
 62
     7
370
    25
100
AcDbLine
 10
374.9176057036228
 20
496.9170563920179
 30
0.0
 11
374.9176057036228
 21
584.3817221491799
 31
0.0
  0
SOLID
  5
614
330
52B
100
AcDbEntity
  8
Bemaßungen(DIN)
  6
Continuous
 62
     7
100
AcDbTrace
 10
372.7842723702896
 20
691.3170563920178
 30
0.0
 11
377.0509390369562
 21
691.3170563920178
 31
0.0
 12
374.9176057036229
 22
704.1170563920178
 32
0.0
 13
374.9176057036229
 23
704.1170563920178
 33
0.0
  0
SOLID
  5
615
330
52B
100
AcDbEntity
  8
Bemaßungen(DIN)
  6
Continuous
 62
     7
100
AcDbTrace
 10
372.7842723702896
 20
496.9170563920179
 30
0.0
 11
377.0509390369562
 21
496.9170563920179
 31
0.0
 12
374.9176057036228
 22
484.1170563920178
 32
0.0
 13
374.9176057036228
 23
484.1170563920178
 33
0.0
  0
MTEXT
  5
616
330
52B
100
AcDbEntity
  8
Bemaßungen(DIN)
  6
Continuous
 62
     7
370
    30
100
AcDbMText
 10
362.1128038600238
 20
594.1170563920177
 30
0.0
 40
12.8
 41
0.0
 71
     4
 72
     1
  1
\A1;220
  7
Text__4.0mm
 73
     1
 44
1.0
1001
ACAD
1000
MTEXTBEGIN
1070
    73
1070
     1
1070
    44
1040
1.0
1070
    74
1070
     0
1000
MTEXTEND
  0
POINT
  5
617
330
52B
100
AcDbEntity
  8
Defpoints
  6
Continuous
 62
     0
100
AcDbPoint
 10
327.8077534708022
 20
704.1170563920178
 30
0.0
  0
POINT
  5
618
330
52B
100
AcDbEntity
  8
Defpoints
  6
Continuous
 62
     0
100
AcDbPoint
 10
327.8077534708022
 20
484.1170563920178
 30
0.0
  0
POINT
  5
619
330
52B
100
AcDbEntity
  8
Defpoints
  6
Continuous
 62
     0
100
AcDbPoint
 10
374.9176057036228
 20
484.1170563920178
 30
0.0
  0
ENDBLK
  5
52D
330
52B
100
AcDbEntity
  8
0
100
AcDbBlockEnd
  0
BLOCK
  5
61C
330
61B
100
AcDbEntity
  8
0
100
AcDbBlockBegin
  2
*D14
 70
     1
 10
0.0
 20
0.0
 30
0.0
  3
*D14
  1

  0
LINE
  5
6FA
330
61B
100
AcDbEntity
  8
Bemaßungen(DIN)
  6
Continuous
 62
     7
370
    25
100
AcDbLine
 10
87.8077534708022
 20
506.2170563920179
 30
0.0
 11
87.8077534708022
 21
445.2170563920176
 31
0.0
  0
LINE
  5
6FB
330
61B
100
AcDbEntity
  8
Bemaßungen(DIN)
  6
Continuous
 62
     7
370
    25
100
AcDbLine
 10
327.8077534708022
 20
506.2170563920179
 30
0.0
 11
327.8077534708022
 21
445.2170563920176
 31
0.0
  0
LINE
  5
6FC
330
61B
100
AcDbEntity
  8
Bemaßungen(DIN)
  6
Continuous
 62
     7
370
    25
100
AcDbLine
 10
100.6077534708021
 20
451.6170563920177
 30
0.0
 11
191.8029516272033
 21
451.6170563920177
 31
0.0
  0
LINE
  5
6FD
330
61B
100
AcDbEntity
  8
Bemaßungen(DIN)
  6
Continuous
 62
     7
370
    25
100
AcDbLine
 10
315.0077534708022
 20
451.6170563920177
 30
0.0
 11
223.8125553144012
 21
451.6170563920177
 31
0.0
  0
SOLID
  5
6FE
330
61B
100
AcDbEntity
  8
Bemaßungen(DIN)
  6
Continuous
 62
     7
100
AcDbTrace
 10
100.6077534708021
 20
453.7503897253511
 30
0.0
 11
100.6077534708021
 21
449.4837230586845
 31
0.0
 12
87.8077534708022
 22
451.6170563920177
 32
0.0
 13
87.8077534708022
 23
451.6170563920177
 33
0.0
  0
SOLID
  5
6FF
330
61B
100
AcDbEntity
  8
Bemaßungen(DIN)
  6
Continuous
 62
     7
100
AcDbTrace
 10
315.0077534708022
 20
453.7503897253511
 30
0.0
 11
315.0077534708022
 21
449.4837230586845
 31
0.0
 12
327.8077534708022
 22
451.6170563920177
 32
0.0
 13
327.8077534708022
 23
451.6170563920177
 33
0.0
  0
MTEXT
  5
700
330
61B
100
AcDbEntity
  8
Bemaßungen(DIN)
  6
Continuous
 62
     7
370
    30
100
AcDbMText
 10
195.0029516272033
 20
451.6170563920177
 30
0.0
 40
12.8
 41
0.0
 71
     4
 72
     1
  1
\A1;240
  7
Text__4.0mm
 73
     1
 44
1.0
1001
ACAD
1000
MTEXTBEGIN
1070
    73
1070
     1
1070
    44
1040
1.0
1070
    74
1070
     0
1000
MTEXTEND
  0
POINT
  5
701
330
61B
100
AcDbEntity
  8
Defpoints
  6
Continuous
 62
     0
100
AcDbPoint
 10
87.8077534708022
 20
512.6170563920178
 30
0.0
  0
POINT
  5
702
330
61B
100
AcDbEntity
  8
Defpoints
  6
Continuous
 62
     0
100
AcDbPoint
 10
327.8077534708022
 20
512.6170563920178
 30
0.0
  0
POINT
  5
703
330
61B
100
AcDbEntity
  8
Defpoints
  6
Continuous
 62
     0
100
AcDbPoint
 10
327.8077534708022
 20
451.6170563920177
 30
0.0
  0
ENDBLK
  5
61D
330
61B
100
AcDbEntity
  8
0
100
AcDbBlockEnd
  0
ENDSEC
  0
SECTION
  2
ENTITIES
  0
INSERT
  5
259
330
77
100
AcDbEntity
  8
0
100
AcDbBlockReference
 66
     1
  2
Title Blocks WS-Marketing-FUN
 10
-270.72
 20
-304.8774160419065
 30
0.0
 41
3.2
 42
3.2
 43
3.2
  0
ATTRIB
  5
25B
102
{ACAD_XDICTIONARY
360
7B4
102
}
330
259
100
AcDbEntity
  8
Symbols(ISO)
 62
     7
100
AcDbText
 10
388.7410641200546
 20
92.70286493860865
 30
0.0
 40
16.0
  1
Münzkontaktgeber
  7
Text Style20
100
AcDbAttribute
  2
Title_001
 70
     0
  0
ATTRIB
  5
25C
102
{ACAD_XDICTIONARY
360
7B7
102
}
330
259
100
AcDbEntity
  8
Symbols(ISO)
 62
     7
100
AcDbText
 10
390.4000000000002
 20
72.33615288636875
 30
0.0
 40
11.19999980926513
  1
AQUA802
  7
Text Style9
100
AcDbAttribute
  2
Auxiliary_Remark1_001
 70
     0
  0
ATTRIB
  5
25D
102
{ACAD_XDICTIONARY
360
7BA
102
}
330
259
100
AcDbEntity
  8
Symbols(ISO)
 62
     7
100
AcDbText
 10
389.2387449038142
 20
52.84638478765733
 30
0.0
 40
11.19999980926513
  1
Marketingzeichnung
  7
Text Style9
100
AcDbAttribute
  2
Auxiliary_Remark2_001
 70
     0
  0
ATTRIB
  5
25E
102
{ACAD_XDICTIONARY
360
7BD
102
}
330
259
100
AcDbEntity
  8
Symbols(ISO)
 62
     7
100
AcDbText
 10
523.0581173260572
 20
142.4518417462485
 30
0.0
 40
8.0
  1
49020804
  7
Text Style38
100
AcDbAttribute
  2
Part_number_001
 70
     0
  0
ATTRIB
  5
25F
102
{ACAD_XDICTIONARY
360
7C0
102
}
330
259
100
AcDbEntity
  8
Symbols(ISO)
 62
     7
100
AcDbText
 10
426.2723055934515
 20
20.9036834924966
 30
0.0
 40
16.0
  1
0222-218141
  7
Text Style20
100
AcDbAttribute
  2
Document_Number_001
 70
     0
  0
ATTRIB
  5
260
102
{ACAD_XDICTIONARY
360
7C3
102
}
330
259
100
AcDbEntity
  8
Symbols(ISO)
 62
     7
100
AcDbText
 10
227.2
 20
130.3999999046326
 30
0.0
 40
6.400000095367431
  1

  7
Text Style40
 11
227.2
 21
136.8000000000001
 31
0.0
100
AcDbAttribute
  2
Revision_Memo_1
 70
     0
 74
     3
  0
ATTRIB
  5
261
102
{ACAD_XDICTIONARY
360
7C6
102
}
330
259
100
AcDbEntity
  8
Symbols(ISO)
 62
     7
100
AcDbText
 10
576.0
 20
20.79999999999985
 30
0.0
 40
16.0
  1
A
  7
Text Style20
100
AcDbAttribute
  2
Revision_Index_1_001
 70
     0
  0
ATTRIB
  5
262
102
{ACAD_XDICTIONARY
360
7C9
102
}
330
259
100
AcDbEntity
  8
Symbols(ISO)
 62
     7
100
AcDbText
 10
387.2
 20
20.80000000000001
 30
0.0
 40
16.0
  1
A4
  7
Text Style20
100
AcDbAttribute
  2
Sheet_Size_001
 70
     0
  0
ATTRIB
  5
263
102
{ACAD_XDICTIONARY
360
7CC
102
}
330
259
100
AcDbEntity
  8
Symbols(ISO)
 62
     7
100
AcDbText
 10
18.49713505091797
 20
144.1407912350939
 30
0.0
 40
6.400000095367431
  1
Rataj
  7
Text Style40
100
AcDbAttribute
  2
Drawn_By_001
 70
     0
  0
ATTRIB
  5
264
102
{ACAD_XDICTIONARY
360
7CF
102
}
330
259
100
AcDbEntity
  8
Symbols(ISO)
 62
     7
100
AcDbText
 10
19.19999999999993
 20
119.1999999523165
 30
0.0
 40
6.400000095367431
  1

  7
Text Style40
 11
19.19999999999993
 21
122.4000000000002
 31
0.0
100
AcDbAttribute
  2
Modified_By
 70
     0
 74
     2
  0
ATTRIB
  5
265
102
{ACAD_XDICTIONARY
360
7D2
102
}
330
259
100
AcDbEntity
  8
Symbols(ISO)
 62
     7
100
AcDbText
 10
162.8289222318511
 20
143.243656160334
 30
0.0
 40
6.400000095367431
  1
05.03.2010
  7
Text Style40
100
AcDbAttribute
  2
Drawn_Date_001
 70
     0
  0
ATTRIB
  5
266
102
{ACAD_XDICTIONARY
360
7D5
102
}
330
259
100
AcDbEntity
  8
Symbols(ISO)
 62
     7
100
AcDbText
 10
163.2
 20
119.1999999523165
 30
0.0
 40
6.400000095367431
  1

  7
Text Style40
 11
163.2
 21
122.4000000000002
 31
0.0
100
AcDbAttribute
  2
Modified_Date
 70
     0
 74
     2
  0
ATTRIB
  5
267
102
{ACAD_XDICTIONARY
360
7D8
102
}
330
259
100
AcDbEntity
  8
Symbols(ISO)
 62
     7
100
AcDbText
 10
227.2
 20
143.1999999523164
 30
0.0
 40
6.400000095367431
  1

  7
Text Style40
 11
227.2
 21
146.4000000000001
 31
0.0
100
AcDbAttribute
  2
Revision_Titel_1
 70
     0
 74
     2
  0
ATTRIB
  5
268
102
{ACAD_XDICTIONARY
360
7DB
102
}
330
259
100
AcDbEntity
  8
Symbols(ISO)
 62
     7
100
AcDbText
 10
615.1574351978171
 20
20.76725784447461
 30
0.0
 40
16.0
  1
1
 41
0.9
  7
Text__5.0mm
100
AcDbAttribute
  2
Sheet_number_001
 70
     0
  0
ATTRIB
  5
269
102
{ACAD_XDICTIONARY
360
7DE
102
}
330
259
100
AcDbEntity
  8
Symbols(ISO)
 62
     7
100
AcDbText
 10
638.7645293315143
 20
20.79999999999985
 30
0.0
 40
16.0
  1
4
 41
0.9
  7
Text__5.0mm
100
AcDbAttribute
  2
Number_of_sheets_001
 70
     0
  0
ATTRIB
  5
26A
102
{ACAD_XDICTIONARY
360
7E1
102
}
330
259
100
AcDbEntity
  8
Symbols(ISO)
 62
     7
100
AcDbText
 10
387.2
 20
118.4000000000002
 30
0.0
 40
8.0
  1

  7
Text Style38
 11
387.2
 21
122.4000000000002
 31
0.0
100
AcDbAttribute
  2
FUN
 70
     0
 74
     2
  0
ATTRIB
  5
26B
102
{ACAD_XDICTIONARY
360
7E4
102
}
330
259
100
AcDbEntity
  8
Symbols(ISO)
 62
     7
100
AcDbText
 10
522.6706684856753
 20
118.4545702592089
 30
0.0
 40
8.0
  1
7612982130793
  7
Text Style38
100
AcDbAttribute
  2
EAN_001
 70
     0
  0
ATTRIB
  5
26C
102
{ACAD_XDICTIONARY
360
7E7
102
}
330
259
100
AcDbEntity
  8
Symbols(ISO)
 62
     7
100
AcDbText
 10
82.53642563813373
 20
120.1407912350939
 30
0.0
 40
6.400000095367431
  1
Marketing
  7
Text Style40
100
AcDbAttribute
  2
Departement_001
 70
     0
  0
ATTRIB
  5
26D
102
{ACAD_XDICTIONARY
360
7EA
102
}
330
259
100
AcDbEntity
  8
Symbols(ISO)
 62
     7
100
AcDbText
 10
82.53642563813373
 20
144.1407912350939
 30
0.0
 40
6.400000095367431
  1
Marketing
  7
Text Style40
100
AcDbAttribute
  2
Departement_001
 70
     0
  0
SEQEND
  5
25A
330
259
100
AcDbEntity
  8
0
  0
INSERT
  5
279
330
77
100
AcDbEntity
  8
0
100
AcDbBlockReference
  2
Borders Verkauf Border_85x80
 10
0.0
 20
0.0
 30
0.0
 41
3.2
 42
3.2
 43
3.2
  0
LINE
  5
27A
330
77
100
AcDbEntity
  8
MaVisibleEdge
100
AcDbLine
 10
297.8077534708024
 20
630.6170563920177
 30
0.0
 11
297.8077534708024
 21
654.6170563920177
 31
0.0
  0
ARC
  5
27B
330
77
100
AcDbEntity
  8
MaVisibleEdge
100
AcDbCircle
 10
292.8077534708024
 20
654.6170563920177
 30
0.0
 40
4.999999999999995
100
AcDbArc
 50
0.0
 51
90.0
  0
LINE
  5
27C
330
77
100
AcDbEntity
  8
MaVisibleEdge
100
AcDbLine
 10
292.8077534708024
 20
659.6170563920177
 30
0.0
 11
236.8077534708024
 21
659.6170563920177
 31
0.0
  0
LINE
  5
27D
330
77
100
AcDbEntity
  8
MaVisibleEdge
100
AcDbLine
 10
151.5077534708022
 20
627.6170563920177
 30
0.0
 11
151.9888671293158
 21
623.3943760053922
 31
0.0
  0
LINE
  5
27E
330
77
100
AcDbEntity
  8
MaVisibleEdge
100
AcDbLine
 10
152.1699922713445
 20
621.8046610363098
 30
0.0
 11
153.3359853731539
 21
611.5708709228409
 31
0.0
  0
LINE
  5
27F
330
77
100
AcDbEntity
  8
MaVisibleEdge
100
AcDbLine
 10
153.5171105151826
 20
609.9811559537584
 30
0.0
 11
153.9982241736962
 21
605.7584755671329
 31
0.0
  0
LINE
  5
280
330
77
100
AcDbEntity
  8
MaVisibleEdge
100
AcDbLine
 10
151.9614018695591
 20
605.5264089789086
 30
0.0
 11
150.8067290891266
 21
615.6608419068097
 31
0.0
  0
LINE
  5
281
330
77
100
AcDbEntity
  8
MaVisibleEdge
100
AcDbLine
 10
150.6256039470979
 20
617.2505568758923
 30
0.0
 11
149.4709311666652
 21
627.3849898037934
 31
0.0
  0
LINE
  5
282
330
77
100
AcDbEntity
  8
MaVisibleEdge
100
AcDbLine
 10
149.4709311666652
 20
627.3849898037934
 30
0.0
 11
151.5077534708022
 21
627.6170563920177
 31
0.0
  0
ARC
  5
283
330
77
100
AcDbEntity
  8
MaVisibleEdge
100
AcDbCircle
 10
146.8427912372075
 20
581.5894548178915
 30
0.0
 40
2.999999999999996
100
AcDbArc
 50
2.500000000000681
 51
182.5000000000006
  0
LINE
  5
284
330
77
100
AcDbEntity
  8
MaVisibleEdge
100
AcDbLine
 10
149.8399359019531
 20
581.7203129799877
 30
0.0
 11
150.7638712647934
 21
560.5587140475886
 31
0.0
  0
LINE
  5
285
330
77
100
AcDbEntity
  8
MaVisibleEdge
100
AcDbLine
 10
150.9390284098488
 20
556.5469558631065
 30
0.0
 11
150.9740399734519
 21
555.7450592188594
 31
0.0
  0
ARC
  5
286
330
77
100
AcDbEntity
  8
MaVisibleEdge
100
AcDbCircle
 10
147.9768953087063
 20
555.6142010567636
 30
0.0
 40
3.0
100
AcDbArc
 50
182.5000000000006
 51
2.50000000000063
  0
LINE
  5
287
330
77
100
AcDbEntity
  8
MaVisibleEdge
100
AcDbLine
 10
144.9797506439607
 20
555.4833428946673
 30
0.0
 11
144.9329738214421
 21
556.5547082707324
 31
0.0
  0
LINE
  5
288
330
77
100
AcDbEntity
  8
MaVisibleEdge
100
AcDbLine
 10
144.7584962011663
 20
560.550902778978
 30
0.0
 11
143.8456465724619
 21
581.4585966557957
 31
0.0
  0
LINE
  5
289
330
77
100
AcDbEntity
  8
MaVisibleEdge
100
AcDbLine
 10
178.1077534708022
 20
654.6170563920177
 30
0.0
 11
178.1077534708023
 21
547.6170563920178
 31
0.0
  0
ARC
  5
28A
330
77
100
AcDbEntity
  8
MaVisibleEdge
100
AcDbCircle
 10
173.107753470802
 20
654.6170563920177
 30
0.0
 40
4.999999999999995
100
AcDbArc
 50
0.0
 51
90.0
  0
LINE
  5
28B
330
77
100
AcDbEntity
  8
MaVisibleEdge
100
AcDbLine
 10
123.1077534708022
 20
659.6170563920177
 30
0.0
 11
173.1077534708022
 21
659.6170563920177
 31
0.0
  0
LINE
  5
28C
330
77
100
AcDbEntity
  8
MaVisibleEdge
100
AcDbLine
 10
152.0123330805503
 20
618.4914857201353
 30
0.0
 11
152.004789096791
 21
618.4906952909707
 31
0.0
  0
LINE
  5
28D
330
77
100
AcDbEntity
  8
MaVisibleEdge
100
AcDbLine
 10
153.1145794877297
 20
607.8986763480035
 30
0.0
 11
153.1221234714889
 21
607.8994667771683
 31
0.0
  0
CIRCLE
  5
28E
330
77
100
AcDbEntity
  8
MaVisibleEdge
100
AcDbCircle
 10
142.2077534708022
 20
592.6170563920177
 30
0.0
 40
6.499999999999996
  0
ARC
  5
28F
330
77
100
AcDbEntity
  8
MaVisibleEdge
100
AcDbCircle
 10
139.4268953087063
 20
557.6170563920178
 30
0.0
 40
1.999999999999998
100
AcDbArc
 50
180.0
 51
311.6721641332115
  0
ARC
  5
290
330
77
100
AcDbEntity
  8
MaVisibleEdge
100
AcDbCircle
 10
156.2768953087063
 20
557.6170563920178
 30
0.0
 40
1.999999999999998
100
AcDbArc
 50
228.3278358667891
 51
0.0
  0
LINE
  5
291
330
77
100
AcDbEntity
  8
MaVisibleEdge
100
AcDbLine
 10
137.4268953087063
 20
557.6345570025827
 30
0.0
 11
137.4268953087063
 21
557.6170563920178
 31
0.0
  0
POLYLINE
  5
292
330
77
100
AcDbEntity
  8
MaVisibleEdge
100
AcDb2dPolyline
 66
     1
 10
0.0
 20
0.0
 30
0.0
 70
   128
  0
VERTEX
  5
293
330
292
100
AcDbEntity
  8
MaVisibleEdge
100
AcDbVertex
100
AcDb2dVertex
 10
158.2768950971603
 20
557.6345563157238
 30
0.0
  0
VERTEX
  5
294
330
292
100
AcDbEntity
  8
MaVisibleEdge
100
AcDbVertex
100
AcDb2dVertex
 10
158.2649443658828
 20
557.8555178864636
 30
0.0
  0
VERTEX
  5
296
330
292
100
AcDbEntity
  8
MaVisibleEdge
100
AcDbVertex
100
AcDb2dVertex
 10
158.231093696022
 20
558.0700135453382
 30
0.0
  0
VERTEX
  5
297
330
292
100
AcDbEntity
  8
MaVisibleEdge
100
AcDbVertex
100
AcDb2dVertex
 10
158.1783495458602
 20
558.2727575524486
 30
0.0
  0
VERTEX
  5
298
330
292
100
AcDbEntity
  8
MaVisibleEdge
100
AcDbVertex
100
AcDb2dVertex
 10
158.1101105722427
 20
558.4587335808911
 30
0.0
  0
VERTEX
  5
299
330
292
100
AcDbEntity
  8
MaVisibleEdge
100
AcDbVertex
100
AcDb2dVertex
 10
157.9447720560073
 20
558.7753272278943
 30
0.0
  0
VERTEX
  5
29A
330
292
100
AcDbEntity
  8
MaVisibleEdge
100
AcDbVertex
100
AcDb2dVertex
 10
157.7648411306381
 20
559.0210771783032
 30
0.0
  0
VERTEX
  5
29B
330
292
100
AcDbEntity
  8
MaVisibleEdge
100
AcDbVertex
100
AcDb2dVertex
 10
157.5883899244308
 20
559.2079591973462
 30
0.0
  0
VERTEX
  5
29C
330
292
100
AcDbEntity
  8
MaVisibleEdge
100
AcDbVertex
100
AcDb2dVertex
 10
157.4221501859665
 20
559.3508243783153
 30
0.0
  0
VERTEX
  5
29D
330
292
100
AcDbEntity
  8
MaVisibleEdge
100
AcDbVertex
100
AcDb2dVertex
 10
157.2689674409866
 20
559.4629764779248
 30
0.0
  0
VERTEX
  5
29E
330
292
100
AcDbEntity
  8
MaVisibleEdge
100
AcDbVertex
100
AcDb2dVertex
 10
157.1269891771316
 20
559.5521497948802
 30
0.0
  0
VERTEX
  5
29F
330
292
100
AcDbEntity
  8
MaVisibleEdge
100
AcDbVertex
100
AcDb2dVertex
 10
156.8685994657516
 20
559.6868205292858
 30
0.0
  0
VERTEX
  5
2A0
330
292
100
AcDbEntity
  8
MaVisibleEdge
100
AcDbVertex
100
AcDb2dVertex
 10
156.6304038080215
 20
559.7892260773816
 30
0.0
  0
VERTEX
  5
2A1
330
292
100
AcDbEntity
  8
MaVisibleEdge
100
AcDbVertex
100
AcDb2dVertex
 10
156.177506259346
 20
559.9362445099988
 30
0.0
  0
VERTEX
  5
2A2
330
292
100
AcDbEntity
  8
MaVisibleEdge
100
AcDbVertex
100
AcDb2dVertex
 10
155.7073567422865
 20
560.0526261552013
 30
0.0
  0
VERTEX
  5
2A3
330
292
100
AcDbEntity
  8
MaVisibleEdge
100
AcDbVertex
100
AcDb2dVertex
 10
155.1990817102432
 20
560.1519203408399
 30
0.0
  0
VERTEX
  5
2A4
330
292
100
AcDbEntity
  8
MaVisibleEdge
100
AcDbVertex
100
AcDb2dVertex
 10
154.64562635746
 20
560.2384233697095
 30
0.0
  0
VERTEX
  5
2A5
330
292
100
AcDbEntity
  8
MaVisibleEdge
100
AcDbVertex
100
AcDb2dVertex
 10
154.0408478292465
 20
560.3161692841687
 30
0.0
  0
VERTEX
  5
2A6
330
292
100
AcDbEntity
  8
MaVisibleEdge
100
AcDbVertex
100
AcDb2dVertex
 10
153.3866653951645
 20
560.3853845818677
 30
0.0
  0
VERTEX
  5
2A7
330
292
100
AcDbEntity
  8
MaVisibleEdge
100
AcDbVertex
100
AcDb2dVertex
 10
152.6875708612442
 20
560.4458689911998
 30
0.0
  0
VERTEX
  5
2A8
330
292
100
AcDbEntity
  8
MaVisibleEdge
100
AcDbVertex
100
AcDb2dVertex
 10
151.9478790077209
 20
560.4975676758924
 30
0.0
  0
VERTEX
  5
2A9
330
292
100
AcDbEntity
  8
MaVisibleEdge
100
AcDbVertex
100
AcDb2dVertex
 10
151.5642229827879
 20
560.5200934632458
 30
0.0
  0
VERTEX
  5
2AA
330
292
100
AcDbEntity
  8
MaVisibleEdge
100
AcDbVertex
100
AcDb2dVertex
 10
151.1724666866302
 20
560.5403447373546
 30
0.0
  0
VERTEX
  5
2AB
330
292
100
AcDbEntity
  8
MaVisibleEdge
100
AcDbVertex
100
AcDb2dVertex
 10
150.7734880956649
 20
560.5582952721753
 30
0.0
  0
VERTEX
  5
2AC
330
292
100
AcDbEntity
  8
MaVisibleEdge
100
AcDbVertex
100
AcDb2dVertex
 10
150.3681544574737
 20
560.5739140732921
 30
0.0
  0
VERTEX
  5
2AD
330
292
100
AcDbEntity
  8
MaVisibleEdge
100
AcDbVertex
100
AcDb2dVertex
 10
149.9573342117309
 20
560.587184451405
 30
0.0
  0
VERTEX
  5
2AE
330
292
100
AcDbEntity
  8
MaVisibleEdge
100
AcDbVertex
100
AcDb2dVertex
 10
149.5418952020645
 20
560.5980777962842
 30
0.0
  0
VERTEX
  5
2AF
330
292
100
AcDbEntity
  8
MaVisibleEdge
100
AcDbVertex
100
AcDb2dVertex
 10
149.1227064641952
 20
560.6065702660718
 30
0.0
  0
VERTEX
  5
2B0
330
292
100
AcDbEntity
  8
MaVisibleEdge
100
AcDbVertex
100
AcDb2dVertex
 10
148.700670412445
 20
560.6126380189099
 30
0.0
  0
VERTEX
  5
2B1
330
292
100
AcDbEntity
  8
MaVisibleEdge
100
AcDbVertex
100
AcDb2dVertex
 10
148.276756218338
 20
560.616276286427
 30
0.0
  0
VERTEX
  5
2B2
330
292
100
AcDbEntity
  8
MaVisibleEdge
100
AcDbVertex
100
AcDb2dVertex
 10
147.8519020589828
 20
560.6174850686231
 30
0.0
  0
VERTEX
  5
2B3
330
292
100
AcDbEntity
  8
MaVisibleEdge
100
AcDbVertex
100
AcDb2dVertex
 10
147.4270473035812
 20
560.6162691338696
 30
0.0
  0
VERTEX
  5
2B4
330
292
100
AcDbEntity
  8
MaVisibleEdge
100
AcDbVertex
100
AcDb2dVertex
 10
147.0031295331954
 20
560.6126284821668
 30
0.0
  0
VERTEX
  5
2B5
330
292
100
AcDbEntity
  8
MaVisibleEdge
100
AcDbVertex
100
AcDb2dVertex
 10
146.5810869249343
 20
560.6065654977002
 30
0.0
  0
VERTEX
  5
2B6
330
292
100
AcDbEntity
  8
MaVisibleEdge
100
AcDbVertex
100
AcDb2dVertex
 10
146.161858251953
 20
560.5980825646557
 30
0.0
  0
VERTEX
  5
2B7
330
292
100
AcDbEntity
  8
MaVisibleEdge
100
AcDbVertex
100
AcDb2dVertex
 10
145.746406427288
 20
560.5871916039624
 30
0.0
  0
VERTEX
  5
2B8
330
292
100
AcDbEntity
  8
MaVisibleEdge
100
AcDbVertex
100
AcDb2dVertex
 10
145.3356135996818
 20
560.5739212258496
 30
0.0
  0
VERTEX
  5
2B9
330
292
100
AcDbEntity
  8
MaVisibleEdge
100
AcDbVertex
100
AcDb2dVertex
 10
144.9303237709045
 20
560.5582976563611
 30
0.0
  0
VERTEX
  5
2BA
330
292
100
AcDbEntity
  8
MaVisibleEdge
100
AcDbVertex
100
AcDb2dVertex
 10
144.5313804956913
 20
560.5403447373546
 30
0.0
  0
VERTEX
  5
2BB
330
292
100
AcDbEntity
  8
MaVisibleEdge
100
AcDbVertex
100
AcDb2dVertex
 10
144.1396285208702
 20
560.5200910790601
 30
0.0
  0
VERTEX
  5
2BC
330
292
100
AcDbEntity
  8
MaVisibleEdge
100
AcDbVertex
100
AcDb2dVertex
 10
143.7559114011764
 20
560.4975629075206
 30
0.0
  0
VERTEX
  5
2BD
330
292
100
AcDbEntity
  8
MaVisibleEdge
100
AcDbVertex
100
AcDb2dVertex
 10
143.3810861023902
 20
560.4727936013379
 30
0.0
  0
VERTEX
  5
2BE
330
292
100
AcDbEntity
  8
MaVisibleEdge
100
AcDbVertex
100
AcDb2dVertex
 10
143.015977701807
 20
560.4458356125989
 30
0.0
  0
VERTEX
  5
2BF
330
292
100
AcDbEntity
  8
MaVisibleEdge
100
AcDbVertex
100
AcDb2dVertex
 10
142.3170070617288
 20
560.3853750451245
 30
0.0
  0
VERTEX
  5
2C0
330
292
100
AcDbEntity
  8
MaVisibleEdge
100
AcDbVertex
100
AcDb2dVertex
 10
141.662987059617
 20
560.3161812050976
 30
0.0
  0
VERTEX
  5
2C1
330
292
100
AcDbEntity
  8
MaVisibleEdge
100
AcDbVertex
100
AcDb2dVertex
 10
141.0581530990839
 20
560.238451979939
 30
0.0
  0
VERTEX
  5
2C2
330
292
100
AcDbEntity
  8
MaVisibleEdge
100
AcDbVertex
100
AcDb2dVertex
 10
140.5069738241672
 20
560.1535487397351
 30
0.0
  0
VERTEX
  5
2C3
330
292
100
AcDbEntity
  8
MaVisibleEdge
100
AcDbVertex
100
AcDb2dVertex
 10
140.00066932168
 20
560.0556040032544
 30
0.0
  0
VERTEX
  5
2C4
330
292
100
AcDbEntity
  8
MaVisibleEdge
100
AcDbVertex
100
AcDb2dVertex
 10
139.5273638876915
 20
559.9368190987743
 30
0.0
  0
VERTEX
  5
2C5
330
292
100
AcDbEntity
  8
MaVisibleEdge
100
AcDbVertex
100
AcDb2dVertex
 10
139.0728856238365
 20
559.7899008019603
 30
0.0
  0
VERTEX
  5
2C6
330
292
100
AcDbEntity
  8
MaVisibleEdge
100
AcDbVertex
100
AcDb2dVertex
 10
138.8364977749824
 20
559.6915936692395
 30
0.0
  0
VERTEX
  5
2C7
330
292
100
AcDbEntity
  8
MaVisibleEdge
100
AcDbVertex
100
AcDb2dVertex
 10
138.5772318753242
 20
559.5528793557323
 30
0.0
  0
VERTEX
  5
2C8
330
292
100
AcDbEntity
  8
MaVisibleEdge
100
AcDbVertex
100
AcDb2dVertex
 10
138.4349621447563
 20
559.4623089059033
 30
0.0
  0
VERTEX
  5
2C9
330
292
100
AcDbEntity
  8
MaVisibleEdge
100
AcDbVertex
100
AcDb2dVertex
 10
138.2814876350403
 20
559.3509984238782
 30
0.0
  0
VERTEX
  5
2CA
330
292
100
AcDbEntity
  8
MaVisibleEdge
100
AcDbVertex
100
AcDb2dVertex
 10
138.1158472212791
 20
559.2078328354991
 30
0.0
  0
VERTEX
  5
2CB
330
292
100
AcDbEntity
  8
MaVisibleEdge
100
AcDbVertex
100
AcDb2dVertex
 10
137.9377705964088
 20
559.0203190072217
 30
0.0
  0
VERTEX
  5
2CC
330
292
100
AcDbEntity
  8
MaVisibleEdge
100
AcDbVertex
100
AcDb2dVertex
 10
137.7575040968895
 20
558.7745070679821
 30
0.0
  0
VERTEX
  5
2CD
330
292
100
AcDbEntity
  8
MaVisibleEdge
100
AcDbVertex
100
AcDb2dVertex
 10
137.5937859329223
 20
558.4589338524976
 30
0.0
  0
VERTEX
  5
2CE
330
292
100
AcDbEntity
  8
MaVisibleEdge
100
AcDbVertex
100
AcDb2dVertex
 10
137.5256977590561
 20
558.2722544892468
 30
0.0
  0
VERTEX
  5
2CF
330
292
100
AcDbEntity
  8
MaVisibleEdge
100
AcDbVertex
100
AcDb2dVertex
 10
137.4728943022728
 20
558.0695533974805
 30
0.0
  0
VERTEX
  5
2D0
330
292
100
AcDbEntity
  8
MaVisibleEdge
100
AcDbVertex
100
AcDb2dVertex
 10
137.4388210090637
 20
557.8554415925183
 30
0.0
  0
VERTEX
  5
2D1
330
292
100
AcDbEntity
  8
MaVisibleEdge
100
AcDbVertex
100
AcDb2dVertex
 10
137.426895311737
 20
557.6345563157238
 30
0.0
  0
SEQEND
  5
295
330
292
100
AcDbEntity
  8
MaVisibleEdge
  0
POLYLINE
  5
2D2
330
77
100
AcDbEntity
  8
MaVisibleEdge
100
AcDb2dPolyline
 66
     1
 10
0.0
 20
0.0
 30
0.0
 70
   128
  0
VERTEX
  5
2D3
330
2D2
100
AcDbEntity
  8
MaVisibleEdge
100
AcDbVertex
100
AcDb2dVertex
 10
155.1971052202224
 20
556.0528326256908
 30
0.0
  0
VERTEX
  5
2D4
330
2D2
100
AcDbEntity
  8
MaVisibleEdge
100
AcDbVertex
100
AcDb2dVertex
 10
155.1814470800399
 20
556.058444999043
 30
0.0
  0
VERTEX
  5
2D6
330
2D2
100
AcDbEntity
  8
MaVisibleEdge
100
AcDbVertex
100
AcDb2dVertex
 10
155.1374600442886
 20
556.0727143510022
 30
0.0
  0
VERTEX
  5
2D7
330
2D2
100
AcDbEntity
  8
MaVisibleEdge
100
AcDbVertex
100
AcDb2dVertex
 10
155.0693975004196
 20
556.0921406968274
 30
0.0
  0
VERTEX
  5
2D8
330
2D2
100
AcDbEntity
  8
MaVisibleEdge
100
AcDbVertex
100
AcDb2dVertex
 10
154.9798510583876
 20
556.1150717957652
 30
0.0
  0
VERTEX
  5
2D9
330
2D2
100
AcDbEntity
  8
MaVisibleEdge
100
AcDbVertex
100
AcDb2dVertex
 10
154.7439179929733
 20
556.1672854645886
 30
0.0
  0
VERTEX
  5
2DA
330
2D2
100
AcDbEntity
  8
MaVisibleEdge
100
AcDbVertex
100
AcDb2dVertex
 10
154.443262627983
 20
556.2223172410169
 30
0.0
  0
VERTEX
  5
2DB
330
2D2
100
AcDbEntity
  8
MaVisibleEdge
100
AcDbVertex
100
AcDb2dVertex
 10
154.0854690584182
 20
556.2775922043956
 30
0.0
  0
VERTEX
  5
2DC
330
2D2
100
AcDbEntity
  8
MaVisibleEdge
100
AcDbVertex
100
AcDb2dVertex
 10
153.6768744501114
 20
556.3312745316663
 30
0.0
  0
VERTEX
  5
2DD
330
2D2
100
AcDbEntity
  8
MaVisibleEdge
100
AcDbVertex
100
AcDb2dVertex
 10
153.2232294591903
 20
556.3818836434522
 30
0.0
  0
VERTEX
  5
2DE
330
2D2
100
AcDbEntity
  8
MaVisibleEdge
100
AcDbVertex
100
AcDb2dVertex
 10
152.7290246995925
 20
556.428785346333
 30
0.0
  0
VERTEX
  5
2DF
330
2D2
100
AcDbEntity
  8
MaVisibleEdge
100
AcDbVertex
100
AcDb2dVertex
 10
152.1987656864166
 20
556.47139551479
 30
0.0
  0
VERTEX
  5
2E0
330
2D2
100
AcDbEntity
  8
MaVisibleEdge
100
AcDbVertex
100
AcDb2dVertex
 10
151.6369430335998
 20
556.5091395600476
 30
0.0
  0
VERTEX
  5
2E1
330
2D2
100
AcDbEntity
  8
MaVisibleEdge
100
AcDbVertex
100
AcDb2dVertex
 10
151.0479388746261
 20
556.5416336281932
 30
0.0
  0
VERTEX
  5
2E2
330
2D2
100
AcDbEntity
  8
MaVisibleEdge
100
AcDbVertex
100
AcDb2dVertex
 10
150.436202696228
 20
556.5686345322766
 30
0.0
  0
VERTEX
  5
2E3
330
2D2
100
AcDbEntity
  8
MaVisibleEdge
100
AcDbVertex
100
AcDb2dVertex
 10
149.8062072309494
 20
556.589894316975
 30
0.0
  0
VERTEX
  5
2E4
330
2D2
100
AcDbEntity
  8
MaVisibleEdge
100
AcDbVertex
100
AcDb2dVertex
 10
149.1624359401702
 20
556.6051864846387
 30
0.0
  0
VERTEX
  5
2E5
330
2D2
100
AcDbEntity
  8
MaVisibleEdge
100
AcDbVertex
100
AcDb2dVertex
 10
148.5094634803772
 20
556.6143965943494
 30
0.0
  0
VERTEX
  5
2E6
330
2D2
100
AcDbEntity
  8
MaVisibleEdge
100
AcDbVertex
100
AcDb2dVertex
 10
147.8518913301468
 20
556.6174864991345
 30
0.0
  0
VERTEX
  5
2E7
330
2D2
100
AcDbEntity
  8
MaVisibleEdge
100
AcDbVertex
100
AcDb2dVertex
 10
147.194320073986
 20
556.6144228203929
 30
0.0
  0
VERTEX
  5
2E8
330
2D2
100
AcDbEntity
  8
MaVisibleEdge
100
AcDbVertex
100
AcDb2dVertex
 10
146.5413616212844
 20
556.6051817162671
 30
0.0
  0
VERTEX
  5
2E9
330
2D2
100
AcDbEntity
  8
MaVisibleEdge
100
AcDbVertex
100
AcDb2dVertex
 10
145.8976046356201
 20
556.5898680909314
 30
0.0
  0
VERTEX
  5
2EA
330
2D2
100
AcDbEntity
  8
MaVisibleEdge
100
AcDbVertex
100
AcDb2dVertex
 10
145.2675835403442
 20
556.5686393006481
 30
0.0
  0
VERTEX
  5
2EB
330
2D2
100
AcDbEntity
  8
MaVisibleEdge
100
AcDbVertex
100
AcDb2dVertex
 10
144.6558309706688
 20
556.5416622384227
 30
0.0
  0
VERTEX
  5
2EC
330
2D2
100
AcDbEntity
  8
MaVisibleEdge
100
AcDbVertex
100
AcDb2dVertex
 10
144.0668411168098
 20
556.5091181023753
 30
0.0
  0
VERTEX
  5
2ED
330
2D2
100
AcDbEntity
  8
MaVisibleEdge
100
AcDbVertex
100
AcDb2dVertex
 10
143.5050256165504
 20
556.4713549836316
 30
0.0
  0
VERTEX
  5
2EE
330
2D2
100
AcDbEntity
  8
MaVisibleEdge
100
AcDbVertex
100
AcDb2dVertex
 10
142.9748048248529
 20
556.4288139565625
 30
0.0
  0
VERTEX
  5
2EF
330
2D2
100
AcDbEntity
  8
MaVisibleEdge
100
AcDbVertex
100
AcDb2dVertex
 10
142.4805966007352
 20
556.3819217904248
 30
0.0
  0
VERTEX
  5
2F0
330
2D2
100
AcDbEntity
  8
MaVisibleEdge
100
AcDbVertex
100
AcDb2dVertex
 10
142.0266547414303
 20
556.3311100228466
 30
0.0
  0
VERTEX
  5
2F1
330
2D2
100
AcDbEntity
  8
MaVisibleEdge
100
AcDbVertex
100
AcDb2dVertex
 10
141.6181324037552
 20
556.2774729951062
 30
0.0
  0
VERTEX
  5
2F2
330
2D2
100
AcDbEntity
  8
MaVisibleEdge
100
AcDbVertex
100
AcDb2dVertex
 10
141.2606190505266
 20
556.2223744614758
 30
0.0
  0
VERTEX
  5
2F3
330
2D2
100
AcDbEntity
  8
MaVisibleEdge
100
AcDbVertex
100
AcDb2dVertex
 10
140.9594415488481
 20
556.1669087632337
 30
0.0
  0
VERTEX
  5
2F4
330
2D2
100
AcDbEntity
  8
MaVisibleEdge
100
AcDbVertex
100
AcDb2dVertex
 10
140.7223133358002
 20
556.1135769112743
 30
0.0
  0
VERTEX
  5
2F5
330
2D2
100
AcDbEntity
  8
MaVisibleEdge
100
AcDbVertex
100
AcDb2dVertex
 10
140.6327566119671
 20
556.0906052811779
 30
0.0
  0
VERTEX
  5
2F6
330
2D2
100
AcDbEntity
  8
MaVisibleEdge
100
AcDbVertex
100
AcDb2dVertex
 10
140.5653921875
 20
556.071815512959
 30
0.0
  0
VERTEX
  5
2F7
330
2D2
100
AcDbEntity
  8
MaVisibleEdge
100
AcDbVertex
100
AcDb2dVertex
 10
140.5223606142044
 20
556.0584879143872
 30
0.0
  0
VERTEX
  5
2F8
330
2D2
100
AcDbEntity
  8
MaVisibleEdge
100
AcDbVertex
100
AcDb2dVertex
 10
140.506685933733
 20
556.0528326256908
 30
0.0
  0
SEQEND
  5
2D5
330
2D2
100
AcDbEntity
  8
MaVisibleEdge
  0
LINE
  5
2F9
330
77
100
AcDbEntity
  8
MaVisibleEdge
100
AcDbLine
 10
158.2768953087063
 20
557.6170563920178
 30
0.0
 11
158.2768953087063
 21
557.6345570025828
 31
0.0
  0
LINE
  5
2FA
330
77
100
AcDbEntity
  8
MaVisibleEdge
100
AcDbLine
 10
151.9888671293158
 20
623.3943760053922
 30
0.0
 11
151.3927240159098
 21
623.3264540771315
 31
0.0
  0
LINE
  5
2FB
330
77
100
AcDbEntity
  8
MaVisibleEdge
100
AcDbLine
 10
151.3927240159098
 20
623.3264540771316
 30
0.0
 11
151.5738491579385
 21
621.736739108049
 31
0.0
  0
LINE
  5
2FC
330
77
100
AcDbEntity
  8
MaVisibleEdge
100
AcDbLine
 10
151.5738491579385
 20
621.736739108049
 30
0.0
 11
152.1699922713445
 21
621.8046610363098
 31
0.0
  0
LINE
  5
2FD
330
77
100
AcDbEntity
  8
MaVisibleEdge
100
AcDbLine
 10
153.3359853731539
 20
611.5708709228409
 30
0.0
 11
152.739842259748
 21
611.5029489945802
 31
0.0
  0
LINE
  5
2FE
330
77
100
AcDbEntity
  8
MaVisibleEdge
100
AcDbLine
 10
152.739842259748
 20
611.5029489945802
 30
0.0
 11
152.9209674017766
 21
609.9132340254977
 31
0.0
  0
LINE
  5
2FF
330
77
100
AcDbEntity
  8
MaVisibleEdge
100
AcDbLine
 10
152.9209674017766
 20
609.9132340254977
 30
0.0
 11
153.5171105151826
 21
609.9811559537584
 31
0.0
  0
LINE
  5
300
330
77
100
AcDbEntity
  8
MaVisibleEdge
100
AcDbLine
 10
153.9982241736962
 20
605.7584755671329
 30
0.0
 11
151.9614018695591
 21
605.5264089789087
 31
0.0
  0
LINE
  5
301
330
77
100
AcDbEntity
  8
MaVisibleEdge
100
AcDbLine
 10
150.8067290891265
 20
615.6608419068097
 30
0.0
 11
151.4028722025325
 21
615.7287638350704
 31
0.0
  0
LINE
  5
302
330
77
100
AcDbEntity
  8
MaVisibleEdge
100
AcDbLine
 10
151.4028722025325
 20
615.7287638350704
 30
0.0
 11
151.2217470605039
 21
617.3184788041531
 31
0.0
  0
LINE
  5
303
330
77
100
AcDbEntity
  8
MaVisibleEdge
100
AcDbLine
 10
151.2217470605038
 20
617.3184788041531
 30
0.0
 11
150.6256039470979
 21
617.2505568758923
 31
0.0
  0
LINE
  5
304
330
77
100
AcDbEntity
  8
MaVisibleEdge
100
AcDbLine
 10
185.3077534708022
 20
659.3170563920177
 30
0.0
 11
224.3077534708023
 21
659.3170563920177
 31
0.0
  0
LINE
  5
305
330
77
100
AcDbEntity
  8
MaVisibleEdge
100
AcDbLine
 10
224.3077534708023
 20
659.3170563920177
 30
0.0
 11
224.3077534708023
 21
542.3170563920177
 31
0.0
  0
LINE
  5
306
330
77
100
AcDbEntity
  8
MaVisibleEdge
100
AcDbLine
 10
224.3077534708023
 20
542.3170563920177
 30
0.0
 11
185.3077534708022
 21
542.3170563920177
 31
0.0
  0
LINE
  5
307
330
77
100
AcDbEntity
  8
MaVisibleEdge
100
AcDbLine
 10
185.3077534708022
 20
542.3170563920177
 30
0.0
 11
185.3077534708022
 21
659.3170563920177
 31
0.0
  0
LINE
  5
308
330
77
100
AcDbEntity
  8
MaVisibleEdge
100
AcDbLine
 10
172.9577534708022
 20
542.3170563920177
 30
0.0
 11
122.9577534708022
 21
542.3170563920177
 31
0.0
  0
ARC
  5
309
330
77
100
AcDbEntity
  8
MaVisibleEdge
100
AcDbCircle
 10
122.9577534708022
 20
547.4670563920176
 30
0.0
 40
5.150000000000004
100
AcDbArc
 50
180.0
 51
270.0
  0
LINE
  5
30A
330
77
100
AcDbEntity
  8
MaVisibleEdge
100
AcDbLine
 10
117.8077534708022
 20
547.4670563920176
 30
0.0
 11
117.8077534708022
 21
654.4670563920178
 31
0.0
  0
ARC
  5
30B
330
77
100
AcDbEntity
  8
MaVisibleEdge
100
AcDbCircle
 10
122.9577534708022
 20
654.4670563920178
 30
0.0
 40
5.149999999999987
100
AcDbArc
 50
89.99999999999984
 51
180.0
  0
LINE
  5
30C
330
77
100
AcDbEntity
  8
MaVisibleEdge
100
AcDbLine
 10
122.9577534708022
 20
659.6170563920177
 30
0.0
 11
172.9577534708022
 21
659.6170563920177
 31
0.0
  0
LINE
  5
30D
330
77
100
AcDbEntity
  8
MaVisibleEdge
100
AcDbLine
 10
178.1077534708022
 20
654.4670563920178
 30
0.0
 11
178.1077534708022
 21
547.4670563920176
 31
0.0
  0
ARC
  5
30E
330
77
100
AcDbEntity
  8
MaVisibleEdge
100
AcDbCircle
 10
172.9577534708022
 20
547.4670563920176
 30
0.0
 40
5.149999999999995
100
AcDbArc
 50
270.0
 51
0.0
  0
LINE
  5
30F
330
77
100
AcDbEntity
  8
MaVisibleEdge
100
AcDbLine
 10
292.6577534708022
 20
625.3170563920178
 30
0.0
 11
236.6577534708023
 21
625.3170563920178
 31
0.0
  0
ARC
  5
310
330
77
100
AcDbEntity
  8
MaVisibleEdge
100
AcDbCircle
 10
236.6577534708022
 20
630.4670563920177
 30
0.0
 40
5.150000000000001
100
AcDbArc
 50
180.0
 51
270.0
  0
LINE
  5
311
330
77
100
AcDbEntity
  8
MaVisibleEdge
100
AcDbLine
 10
231.5077534708022
 20
630.4670563920177
 30
0.0
 11
231.5077534708022
 21
654.4670563920178
 31
0.0
  0
ARC
  5
312
330
77
100
AcDbEntity
  8
MaVisibleEdge
100
AcDbCircle
 10
236.6577534708022
 20
654.4670563920178
 30
0.0
 40
5.149999999999992
100
AcDbArc
 50
89.99999999999969
 51
180.0
  0
LINE
  5
313
330
77
100
AcDbEntity
  8
MaVisibleEdge
100
AcDbLine
 10
236.6577534708023
 20
659.6170563920177
 30
0.0
 11
292.6577534708022
 21
659.6170563920177
 31
0.0
  0
LINE
  5
314
330
77
100
AcDbEntity
  8
MaVisibleEdge
100
AcDbLine
 10
297.8077534708022
 20
654.4670563920178
 30
0.0
 11
297.8077534708022
 21
630.4670563920177
 31
0.0
  0
ARC
  5
315
330
77
100
AcDbEntity
  8
MaVisibleEdge
100
AcDbCircle
 10
292.6577534708022
 20
630.4670563920177
 30
0.0
 40
5.150000000000023
100
AcDbArc
 50
270.0000000000006
 51
0.0
  0
LINE
  5
316
330
77
100
AcDbEntity
  8
MaVisibleEdge
100
AcDbLine
 10
327.8077534708022
 20
512.6170563920178
 30
0.0
 11
327.8077534708022
 21
675.6170563920179
 31
0.0
  0
LINE
  5
317
330
77
100
AcDbEntity
  8
MaVisibleEdge
100
AcDbLine
 10
87.8077534708022
 20
512.6170563920178
 30
0.0
 11
87.8077534708022
 21
675.6170563920179
 31
0.0
  0
LINE
  5
318
330
77
100
AcDbEntity
  8
MaVisibleEdge
100
AcDbLine
 10
327.8077534708022
 20
512.6170563920178
 30
0.0
 11
327.8077534708022
 21
484.1170563920178
 31
0.0
  0
LINE
  5
319
330
77
100
AcDbEntity
  8
MaVisibleEdge
100
AcDbLine
 10
87.8077534708022
 20
512.6170563920178
 30
0.0
 11
87.8077534708022
 21
484.1170563920178
 31
0.0
  0
LINE
  5
31A
330
77
100
AcDbEntity
  8
MaVisibleEdge
100
AcDbLine
 10
87.8077534708022
 20
484.1170563920178
 30
0.0
 11
327.8077534708022
 21
484.1170563920178
 31
0.0
  0
LINE
  5
31B
330
77
100
AcDbEntity
  8
MaVisibleEdge
100
AcDbLine
 10
327.8077534708022
 20
704.1170563920178
 30
0.0
 11
327.8077534708022
 21
675.6170563920179
 31
0.0
  0
LINE
  5
31C
330
77
100
AcDbEntity
  8
MaVisibleEdge
100
AcDbLine
 10
87.8077534708022
 20
704.1170563920178
 30
0.0
 11
327.8077534708022
 21
704.1170563920178
 31
0.0
  0
LINE
  5
31D
330
77
100
AcDbEntity
  8
MaVisibleEdge
100
AcDbLine
 10
87.8077534708022
 20
704.1170563920178
 30
0.0
 11
87.8077534708022
 21
675.6170563920179
 31
0.0
  0
LINE
  5
31E
330
77
100
AcDbEntity
  8
MaVisibleEdge
100
AcDbLine
 10
280.3077534708013
 20
482.1670563920178
 30
0.0
 11
275.3077534708013
 21
482.1670563920178
 31
0.0
  0
ARC
  5
31F
330
77
100
AcDbEntity
  8
MaVisibleEdge
100
AcDbCircle
 10
279.4952534708013
 20
484.1170563920178
 30
0.0
 40
2.1125
100
AcDbArc
 50
292.6198649480405
 51
0.0
  0
ARC
  5
320
330
77
100
AcDbEntity
  8
MaVisibleEdge
100
AcDbCircle
 10
276.1202534708013
 20
484.1170563920178
 30
0.0
 40
2.1125
100
AcDbArc
 50
180.0
 51
247.3801350519595
  0
LINE
  5
321
330
77
100
AcDbEntity
  8
MaVisibleEdge
100
AcDbLine
 10
112.3684136425818
 20
482.1670563920178
 30
0.0
 11
107.3684136425819
 21
482.1670563920178
 31
0.0
  0
ARC
  5
322
330
77
100
AcDbEntity
  8
MaVisibleEdge
100
AcDbCircle
 10
111.5559136425819
 20
484.1170563920178
 30
0.0
 40
2.1125
100
AcDbArc
 50
292.6198649480405
 51
0.0
  0
ARC
  5
323
330
77
100
AcDbEntity
  8
MaVisibleEdge
100
AcDbCircle
 10
108.1809136425819
 20
484.1170563920178
 30
0.0
 40
2.1125
100
AcDbArc
 50
180.0
 51
247.3801350519595
  0
CIRCLE
  5
324
330
77
100
AcDbEntity
  8
MaVisibleEdge
100
AcDbCircle
 10
264.6577534708022
 20
580.3170563920177
 30
0.0
 40
7.500000000000007
  0
CIRCLE
  5
325
330
77
100
AcDbEntity
  8
MaVisibleEdge
100
AcDbCircle
 10
264.6577534708022
 20
580.3170563920177
 30
0.0
 40
12.50000000000001
  0
LINE
  5
326
330
77
100
AcDbEntity
  8
MaVisibleEdge
100
AcDbLine
 10
560.9149815121099
 20
638.7575747127645
 30
0.0
 11
561.0149815121101
 21
638.7575747127645
 31
0.0
  0
LINE
  5
327
330
77
100
AcDbEntity
  8
MaVisibleEdge
100
AcDbLine
 10
561.0149814763473
 20
638.7575745804944
 30
0.0
 11
561.0149814763473
 21
638.7859368546642
 31
0.0
  0
LINE
  5
328
330
77
100
AcDbEntity
  8
MaVisibleEdge
100
AcDbLine
 10
560.9149815121017
 20
638.9050625546612
 30
0.0
 11
561.0149815121017
 21
638.9050625546612
 31
0.0
  0
LINE
  5
329
330
77
100
AcDbEntity
  8
MaVisibleEdge
100
AcDbLine
 10
561.0149815121017
 20
638.9050625546612
 30
0.0
 11
561.0149815121011
 21
645.905062435452
 31
0.0
  0
LINE
  5
32A
330
77
100
AcDbEntity
  8
MaVisibleEdge
100
AcDbLine
 10
560.9149815121011
 20
645.905062435452
 30
0.0
 11
561.0149815121011
 21
645.905062435452
 31
0.0
  0
LINE
  5
32B
330
77
100
AcDbEntity
  8
MaVisibleEdge
100
AcDbLine
 10
560.9149815121045
 20
638.7859377592831
 30
0.0
 11
561.0149815121046
 21
638.7859377592831
 31
0.0
  0
LINE
  5
32C
330
77
100
AcDbEntity
  8
MaVisibleEdge
100
AcDbLine
 10
561.0149814763417
 20
638.7859368546642
 30
0.0
 11
561.0149814763415
 21
638.9050603135266
 31
0.0
  0
LINE
  5
32D
330
77
100
AcDbEntity
  8
MaVisibleEdge
100
AcDbLine
 10
561.0149815121124
 20
645.905062435452
 30
0.0
 11
561.0149815121124
 21
646.2170559471566
 31
0.0
  0
LINE
  5
32E
330
77
100
AcDbEntity
  8
MaVisibleEdge
100
AcDbLine
 10
560.9149815121121
 20
646.2170559471566
 30
0.0
 11
561.0149815121124
 21
646.2170559471566
 31
0.0
  0
LINE
  5
32F
330
77
100
AcDbEntity
  8
MaVisibleEdge
100
AcDbLine
 10
566.4149815121062
 20
586.1170563920177
 30
0.0
 11
566.4149815121062
 21
599.1170563920177
 31
0.0
  0
LINE
  5
330
330
77
100
AcDbEntity
  8
MaVisibleEdge
100
AcDbLine
 10
569.794981512105
 20
557.6170563920178
 30
0.0
 11
569.9120520069238
 21
555.6170563920178
 31
0.0
  0
LINE
  5
331
330
77
100
AcDbEntity
  8
MaVisibleEdge
100
AcDbLine
 10
560.9149815121063
 20
598.3670563920177
 30
0.0
 11
566.4149815121062
 21
598.3670563920177
 31
0.0
  0
LINE
  5
332
330
77
100
AcDbEntity
  8
MaVisibleEdge
100
AcDbLine
 10
560.9149815121063
 20
586.8670563920177
 30
0.0
 11
566.4149815121062
 21
586.8670563920177
 31
0.0
  0
LINE
  5
333
330
77
100
AcDbEntity
  8
MaVisibleEdge
100
AcDbLine
 10
566.4149815121062
 20
599.1170563920177
 30
0.0
 11
567.9149815121062
 21
599.1170563920177
 31
0.0
  0
LINE
  5
334
330
77
100
AcDbEntity
  8
MaVisibleEdge
100
AcDbLine
 10
566.4149815121062
 20
586.1170563920177
 30
0.0
 11
567.9149815121062
 21
586.1170563920177
 31
0.0
  0
ARC
  5
335
330
77
100
AcDbEntity
  8
MaVisibleEdge
100
AcDbCircle
 10
554.3964756775105
 20
592.6170563920177
 30
0.0
 40
15.00000000000001
100
AcDbArc
 50
334.3207113805431
 51
25.67928861945686
  0
LINE
  5
336
330
77
100
AcDbEntity
  8
MaVisibleEdge
100
AcDbLine
 10
570.177298583735
 20
555.6482157035056
 30
0.0
 11
569.9120520069238
 21
555.6170563920178
 31
0.0
  0
LINE
  5
337
330
77
100
AcDbEntity
  8
MaVisibleEdge
100
AcDbLine
 10
569.7106156353376
 20
559.6208983016597
 30
0.0
 11
569.6779110172871
 21
559.6170563920178
 31
0.0
  0
LINE
  5
338
330
77
100
AcDbEntity
  8
MaVisibleEdge
100
AcDbLine
 10
569.9120520069238
 20
555.6170563920178
 30
0.0
 11
560.9149815121054
 21
555.6170563920178
 31
0.0
  0
LINE
  5
339
330
77
100
AcDbEntity
  8
MaVisibleEdge
100
AcDbLine
 10
569.6779110172871
 20
559.6170563920178
 30
0.0
 11
560.9149815121054
 21
559.6170563920178
 31
0.0
  0
ARC
  5
33A
330
77
100
AcDbEntity
  8
MaVisibleEdge
100
AcDbCircle
 10
578.3114198319005
 20
558.6175079626447
 30
0.0
 40
2.0
100
AcDbArc
 50
276.7000000000011
 51
96.70000000000106
  0
LINE
  5
33B
330
77
100
AcDbEntity
  8
MaVisibleEdge
100
AcDbLine
 10
570.177298583735
 20
555.6482157035056
 30
0.0
 11
578.5447613060991
 21
556.6311666635677
 31
0.0
  0
LINE
  5
33C
330
77
100
AcDbEntity
  8
MaVisibleEdge
100
AcDbLine
 10
578.0780783577019
 20
560.6038492617216
 30
0.0
 11
569.7106156353376
 21
559.6208983016597
 31
0.0
  0
LINE
  5
33D
330
77
100
AcDbEntity
  8
MaVisibleEdge
100
AcDbLine
 10
560.9149815121191
 20
659.3170563920177
 30
0.0
 11
561.1149815121191
 21
659.3170563920177
 31
0.0
  0
LINE
  5
33E
330
77
100
AcDbEntity
  8
MaVisibleEdge
100
AcDbLine
 10
560.9149815121191
 20
542.3170563920177
 30
0.0
 11
561.1149815121191
 21
542.3170563920177
 31
0.0
  0
LINE
  5
33F
330
77
100
AcDbEntity
  8
MaVisibleEdge
100
AcDbLine
 10
561.1149815121191
 20
542.3170563920177
 30
0.0
 11
561.1149815121191
 21
555.6170563920178
 31
0.0
  0
LINE
  5
340
330
77
100
AcDbEntity
  8
MaVisibleEdge
100
AcDbLine
 10
561.1149815121191
 20
559.6170563920178
 30
0.0
 11
561.1149815121191
 21
586.8670563920177
 31
0.0
  0
LINE
  5
341
330
77
100
AcDbEntity
  8
MaVisibleEdge
100
AcDbLine
 10
561.1149815121191
 20
598.3670563920177
 30
0.0
 11
561.1149815121191
 21
659.3170563920177
 31
0.0
  0
LINE
  5
342
330
77
100
AcDbEntity
  8
MaVisibleEdge
100
AcDbLine
 10
560.91498151209
 20
512.6170563920178
 30
0.0
 11
560.91498151209
 21
675.6170563920179
 31
0.0
  0
ARC
  5
343
330
77
100
AcDbEntity
  8
MaVisibleEdge
100
AcDbCircle
 10
532.4149815120902
 20
512.6170563920178
 30
0.0
 40
28.50000000000001
100
AcDbArc
 50
270.0
 51
0.0
  0
ARC
  5
344
330
77
100
AcDbEntity
  8
MaVisibleEdge
100
AcDbCircle
 10
532.4149815120902
 20
675.6170563920179
 30
0.0
 40
28.5
100
AcDbArc
 50
0.0
 51
90.0
  0
LINE
  5
345
330
77
100
AcDbEntity
  8
MaVisibleEdge
100
AcDbLine
 10
532.4149815120902
 20
704.1170563920178
 30
0.0
 11
430.9149815120902
 21
704.1170563920178
 31
0.0
  0
LINE
  5
346
330
77
100
AcDbEntity
  8
MaVisibleEdge
100
AcDbLine
 10
430.9149815120902
 20
704.1170563920178
 30
0.0
 11
430.9149815120902
 21
702.6170563920178
 31
0.0
  0
LINE
  5
347
330
77
100
AcDbEntity
  8
MaVisibleEdge
100
AcDbLine
 10
430.9149815120902
 20
702.6170563920178
 30
0.0
 11
532.4149815120902
 21
702.6170563920178
 31
0.0
  0
ARC
  5
348
330
77
100
AcDbEntity
  8
MaVisibleEdge
100
AcDbCircle
 10
532.4149815120902
 20
675.6170563920179
 30
0.0
 40
27.00000000000001
100
AcDbArc
 50
0.0
 51
90.0
  0
LINE
  5
349
330
77
100
AcDbEntity
  8
MaVisibleEdge
100
AcDbLine
 10
559.4149815120902
 20
675.6170563920179
 30
0.0
 11
559.4149815120902
 21
512.6170563920178
 31
0.0
  0
ARC
  5
34A
330
77
100
AcDbEntity
  8
MaVisibleEdge
100
AcDbCircle
 10
532.4149815120902
 20
512.6170563920178
 30
0.0
 40
26.99999999999999
100
AcDbArc
 50
270.0
 51
0.0
  0
LINE
  5
34B
330
77
100
AcDbEntity
  8
MaVisibleEdge
100
AcDbLine
 10
532.4149815120902
 20
485.6170563920178
 30
0.0
 11
430.9149815120902
 21
485.6170563920178
 31
0.0
  0
LINE
  5
34C
330
77
100
AcDbEntity
  8
MaVisibleEdge
100
AcDbLine
 10
430.9149815120902
 20
485.6170563920178
 30
0.0
 11
430.9149815120902
 21
484.1170563920178
 31
0.0
  0
LINE
  5
34D
330
77
100
AcDbEntity
  8
MaVisibleEdge
100
AcDbLine
 10
430.9149815120902
 20
484.1170563920178
 30
0.0
 11
532.4149815120902
 21
484.1170563920178
 31
0.0
  0
LINE
  5
34E
330
77
100
AcDbEntity
  8
MaVisibleEdge
100
AcDbLine
 10
430.9149815120909
 20
485.6170563920178
 30
0.0
 11
430.9149815120909
 21
702.6170563920178
 31
0.0
  0
LINE
  5
34F
330
77
100
AcDbEntity
  8
MaVisibleEdge
100
AcDbLine
 10
445.0399815120968
 20
482.1670563920178
 30
0.0
 11
440.0399815120968
 21
482.1670563920178
 31
0.0
  0
ARC
  5
350
330
77
100
AcDbEntity
  8
MaVisibleEdge
100
AcDbCircle
 10
444.2274815120968
 20
484.1170563920178
 30
0.0
 40
2.1125
100
AcDbArc
 50
292.6198649480405
 51
0.0
  0
ARC
  5
351
330
77
100
AcDbEntity
  8
MaVisibleEdge
100
AcDbCircle
 10
440.8524815120967
 20
484.1170563920178
 30
0.0
 40
2.112500000000002
100
AcDbArc
 50
180.0
 51
247.3801350519595
  0
LINE
  5
352
330
77
100
AcDbEntity
  8
MaVisibleEdge
100
AcDbLine
 10
562.9149815121413
 20
586.8670563920177
 30
0.0
 11
562.9149815121426
 21
572.8170563920179
 31
0.0
  0
LINE
  5
353
330
77
100
AcDbEntity
  8
MaVisibleEdge
100
AcDbLine
 10
562.9149815121426
 20
572.8170563920179
 30
0.0
 11
561.7149815121424
 21
567.8170563920177
 31
0.0
  0
LINE
  5
354
330
77
100
AcDbEntity
  8
MaVisibleEdge
100
AcDbLine
 10
561.7149815121424
 20
567.8170563920177
 30
0.0
 11
561.1149815121426
 21
567.8170563920177
 31
0.0
  0
DIMENSION
  5
355
330
77
100
AcDbEntity
  8
Bemaßungen(DIN)
  6
Continuous
 62
     7
370
    30
100
AcDbDimension
  2
*D11
 10
430.9149815120909
 20
451.6170563920178
 30
0.0
 11
495.9149815120905
 21
451.6170563920178
 31
0.0
 70
   160
  1
<>
 71
     4
 42
129.9999999999992
  3
MarketingDrawing
100
AcDbAlignedDimension
 13
560.91498151209
 23
512.6170563920178
 33
0.0
 14
430.9149815120909
 24
485.6170563920178
 34
0.0
100
AcDbRotatedDimension
1001
ACAD
1000
DSTYLE
1002
{
1070
   289
1070
     1
1070
    73
1070
     0
1070
    74
1070
     0
1070
   271
1070
     0
1070
   272
1070
     4
1070
    48
1040
0.0
1070
    47
1040
0.0
1002
}
  0
DIMENSION
  5
440
330
77
100
AcDbEntity
  8
Bemaßungen(DIN)
  6
Continuous
 62
     7
370
    30
100
AcDbDimension
  2
*D12
 10
430.9149815120909
 20
417.3663296130077
 30
0.0
 11
505.6132006719956
 21
417.3663296130077
 31
0.0
 70
   160
  1
<>
 71
     4
 42
149.3964383198095
  3
MarketingDrawing
100
AcDbAlignedDimension
 13
580.3114198319003
 23
558.6175079626444
 33
0.0
 14
430.9149815120909
 24
485.6170563920178
 34
0.0
100
AcDbRotatedDimension
1001
ACAD
1000
DSTYLE
1002
{
1070
   289
1070
     1
1070
    73
1070
     0
1070
    74
1070
     0
1070
   271
1070
     0
1070
   272
1070
     4
1070
    48
1040
0.0
1070
    47
1040
0.0
1002
}
  0
DIMENSION
  5
52A
330
77
100
AcDbEntity
  8
Bemaßungen(DIN)
  6
Continuous
 62
     7
370
    30
100
AcDbDimension
  2
*D13
 10
374.9176057036228
 20
484.1170563920178
 30
0.0
 11
374.9176057036228
 21
594.1170563920177
 31
0.0
 70
   160
  1
<>
 71
     4
 42
220.0000000000001
  3
MarketingDrawing
100
AcDbAlignedDimension
 13
327.8077534708022
 23
704.1170563920178
 33
0.0
 14
327.8077534708022
 24
484.1170563920178
 34
0.0
 50
270.0
100
AcDbRotatedDimension
1001
ACAD
1000
DSTYLE
1002
{
1070
   289
1070
     1
1070
   271
1070
     0
1070
   272
1070
     4
1070
    48
1040
0.0
1070
    47
1040
0.0
1002
}
  0
DIMENSION
  5
61A
330
77
100
AcDbEntity
  8
Bemaßungen(DIN)
  6
Continuous
 62
     7
370
    30
100
AcDbDimension
  2
*D14
 10
327.8077534708022
 20
451.6170563920177
 30
0.0
 11
207.8077534708023
 21
451.6170563920177
 31
0.0
 70
   160
  1
<>
 71
     4
 42
240.0000000000001
  3
MarketingDrawing
100
AcDbAlignedDimension
 13
87.8077534708022
 23
512.6170563920178
 33
0.0
 14
327.8077534708022
 24
512.6170563920178
 34
0.0
100
AcDbRotatedDimension
1001
ACAD
1000
DSTYLE
1002
{
1070
   289
1070
     1
1070
    73
1070
     0
1070
    74
1070
     0
1070
   271
1070
     0
1070
   272
1070
     4
1070
    48
1040
0.0
1070
    47
1040
0.0
1002
}
  0
LINE
  5
704
330
77
100
AcDbEntity
  8
MaVisibleEdge
100
AcDbLine
 10
153.3962456871821
 20
268.3935157246787
 30
0.0
 11
153.3962456871821
 21
268.2935157246788
 31
0.0
  0
SPLINE
  5
705
330
77
100
AcDbEntity
  8
MaVisibleEdge
100
AcDbSpline
210
0.0
220
0.0
230
1.0
 70
    24
 71
     2
 72
     7
 73
     4
 74
     0
 42
0.000000001
 43
0.0000000001
 40
0.0
 40
0.0
 40
0.0
 40
1.0
 40
1.352895857029082
 40
1.352895857029082
 40
1.352895857029082
 10
153.3962456871821
 20
268.2935157246788
 30
0.0
 10
153.3962456871821
 20
268.2935157246789
 30
0.0
 10
153.7070608970168
 20
268.293515724679
 30
0.0
 10
153.8216913849611
 20
268.2935157246791
 30
0.0
  0
LINE
  5
706
330
77
100
AcDbEntity
  8
MaVisibleEdge
100
AcDbLine
 10
153.8216913849611
 20
268.3935157246798
 30
0.0
 11
153.8216913849611
 21
268.2935157246798
 31
0.0
  0
SPLINE
  5
707
330
77
100
AcDbEntity
  8
MaVisibleEdge
100
AcDbSpline
210
0.0
220
0.0
230
1.0
 70
    24
 71
     2
 72
     7
 73
     4
 74
     0
 42
0.000000001
 43
0.0000000001
 40
0.0
 40
0.0
 40
0.0
 40
1.0
 40
2.0
 40
2.0
 40
2.0
 10
153.8216913849611
 20
268.2935157246798
 30
0.0
 10
154.0656135850211
 20
268.2935157246798
 30
0.0
 10
154.97890368292
 20
268.2935157246799
 30
0.0
 10
155.4270398179139
 20
268.2935157246799
 30
0.0
  0
SPLINE
  5
708
330
77
100
AcDbEntity
  8
MaVisibleEdge
100
AcDbSpline
210
0.0
220
0.0
230
1.0
 70
    24
 71
     2
 72
     7
 73
     4
 74
     0
 42
0.000000001
 43
0.0000000001
 40
0.0
 40
0.0
 40
0.0
 40
1.0
 40
2.0
 40
2.0
 40
2.0
 10
155.4270398179139
 20
268.2935157246799
 30
0.0
 10
155.9716103110711
 20
268.2935157246799
 30
0.0
 10
156.7147221298584
 20
268.2935157246798
 30
0.0
 10
157.0096978136519
 20
268.2935157246798
 30
0.0
  0
SPLINE
  5
709
330
77
100
AcDbEntity
  8
MaVisibleEdge
100
AcDbSpline
210
0.0
220
0.0
230
1.0
 70
    24
 71
     2
 72
     7
 73
     4
 74
     0
 42
0.000000001
 43
0.0000000001
 40
0.0
 40
0.0
 40
0.0
 40
1.0
 40
2.0
 40
2.0
 40
2.0
 10
157.0096978136519
 20
268.2935157246798
 30
0.0
 10
157.2990008881416
 20
268.2935157246797
 30
0.0
 10
157.5826313533276
 20
268.2935157246795
 30
0.0
 10
157.5826313533276
 20
268.2935157246794
 30
0.0
  0
LINE
  5
70A
330
77
100
AcDbEntity
  8
MaVisibleEdge
100
AcDbLine
 10
157.5826313533276
 20
268.3935157246793
 30
0.0
 11
157.5826313533276
 21
268.2935157246794
 31
0.0
  0
LINE
  5
70B
330
77
100
AcDbEntity
  8
MaVisibleEdge
100
AcDbLine
 10
145.6871696434264
 20
268.3935157246799
 30
0.0
 11
145.6871696434264
 21
268.2935157246798
 31
0.0
  0
LINE
  5
70C
330
77
100
AcDbEntity
  8
MaVisibleEdge
100
AcDbLine
 10
145.6871696434264
 20
268.2935157246798
 30
0.0
 11
146.5720966948067
 21
268.2935157246798
 31
0.0
  0
LINE
  5
70D
330
77
100
AcDbEntity
  8
MaVisibleEdge
100
AcDbLine
 10
146.5720966948067
 20
268.3935157246799
 30
0.0
 11
146.5720966948067
 21
268.2935157246798
 31
0.0
  0
SPLINE
  5
70E
330
77
100
AcDbEntity
  8
MaVisibleEdge
100
AcDbSpline
210
0.0
220
0.0
230
1.0
 70
    24
 71
     2
 72
     7
 73
     4
 74
     0
 42
0.000000001
 43
0.0000000001
 40
0.0
 40
0.0
 40
0.0
 40
1.0
 40
2.0
 40
2.0
 40
2.0
 10
146.5720966948067
 20
268.2935157246796
 30
0.0
 10
146.9181258623336
 20
268.2935157246798
 30
0.0
 10
147.5988389787801
 20
268.2935157246799
 30
0.0
 10
148.0072668486479
 20
268.2935157246799
 30
0.0
  0
SPLINE
  5
70F
330
77
100
AcDbEntity
  8
MaVisibleEdge
100
AcDbSpline
210
0.0
220
0.0
230
1.0
 70
    24
 71
     2
 72
     7
 73
     4
 74
     0
 42
0.000000001
 43
0.0000000001
 40
0.0
 40
0.0
 40
0.0
 40
1.0
 40
2.0
 40
2.0
 40
2.0
 10
148.0072668486479
 20
268.2935157246799
 30
0.0
 10
148.472420811553
 20
268.2935157246799
 30
0.0
 10
149.1928421931254
 20
268.2935157246798
 30
0.0
 10
149.3800383001482
 20
268.2935157246796
 30
0.0
  0
LINE
  5
710
330
77
100
AcDbEntity
  8
MaVisibleEdge
100
AcDbLine
 10
149.3800383001482
 20
268.3935157246796
 30
0.0
 11
149.3800383001482
 21
268.2935157246796
 31
0.0
  0
SPLINE
  5
711
330
77
100
AcDbEntity
  8
MaVisibleEdge
100
AcDbSpline
210
0.0
220
0.0
230
1.0
 70
    24
 71
     2
 72
     7
 73
     4
 74
     0
 42
0.000000001
 43
0.0000000001
 40
0.0
 40
0.0
 40
0.0
 40
1.0
 40
2.0
 40
2.0
 40
2.0
 10
149.3800383001482
 20
268.2935157246796
 30
0.0
 10
149.7827935607124
 20
268.2935157246798
 30
0.0
 10
150.5429232074108
 20
268.2935157246799
 30
0.0
 10
150.985386733101
 20
268.2935157246799
 30
0.0
  0
SPLINE
  5
712
330
77
100
AcDbEntity
  8
MaVisibleEdge
100
AcDbSpline
210
0.0
220
0.0
230
1.0
 70
    24
 71
     2
 72
     7
 73
     4
 74
     0
 42
0.000000001
 43
0.0000000001
 40
0.0
 40
0.0
 40
0.0
 40
1.0
 40
2.0
 40
2.0
 40
2.0
 10
150.985386733101
 20
268.2935157246799
 30
0.0
 10
151.3257432913242
 20
268.2935157246799
 30
0.0
 10
151.8816590030888
 20
268.2935157246798
 30
0.0
 10
152.0858729380227
 20
268.2935157246798
 30
0.0
  0
SPLINE
  5
713
330
77
100
AcDbEntity
  8
MaVisibleEdge
100
AcDbSpline
210
0.0
220
0.0
230
1.0
 70
    24
 71
     2
 72
     7
 73
     4
 74
     0
 42
0.000000001
 43
0.0000000001
 40
0.0
 40
0.0
 40
0.0
 40
1.0
 40
2.0
 40
2.0
 40
2.0
 10
152.0858729380227
 20
268.2935157246798
 30
0.0
 10
152.2957594822604
 20
268.2935157246797
 30
0.0
 10
152.5283364637129
 20
268.2935157246795
 30
0.0
 10
152.5283364637129
 20
268.2935157246793
 30
0.0
  0
LINE
  5
714
330
77
100
AcDbEntity
  8
MaVisibleEdge
100
AcDbLine
 10
152.5283364637129
 20
268.3935157246793
 30
0.0
 11
152.5283364637129
 21
268.2935157246793
 31
0.0
  0
LINE
  5
715
330
77
100
AcDbEntity
  8
MaVisibleEdge
100
AcDbLine
 10
141.9262296750599
 20
268.3935157246799
 30
0.0
 11
141.9262296750599
 21
268.2935157246798
 31
0.0
  0
LINE
  5
716
330
77
100
AcDbEntity
  8
MaVisibleEdge
100
AcDbLine
 10
141.9262296750599
 20
268.2935157246798
 30
0.0
 11
142.5218536519505
 21
268.2935157246798
 31
0.0
  0
LINE
  5
717
330
77
100
AcDbEntity
  8
MaVisibleEdge
100
AcDbLine
 10
142.5218536519505
 20
268.3935157246803
 30
0.0
 11
142.5218536519505
 21
268.2935157246803
 31
0.0
  0
LINE
  5
718
330
77
100
AcDbEntity
  8
MaVisibleEdge
100
AcDbLine
 10
142.5218536519505
 20
268.2935157246803
 30
0.0
 11
143.4067807033309
 21
268.2935157246803
 31
0.0
  0
LINE
  5
719
330
77
100
AcDbEntity
  8
MaVisibleEdge
100
AcDbLine
 10
143.4067807033309
 20
268.3935157246803
 30
0.0
 11
143.4067807033309
 21
268.2935157246803
 31
0.0
  0
LINE
  5
71A
330
77
100
AcDbEntity
  8
MaVisibleEdge
100
AcDbLine
 10
143.4067807033309
 20
268.2935157246798
 30
0.0
 11
145.0348195734985
 21
268.2935157246798
 31
0.0
  0
LINE
  5
71B
330
77
100
AcDbEntity
  8
MaVisibleEdge
100
AcDbLine
 10
145.0348195734985
 20
268.3935157246799
 30
0.0
 11
145.0348195734985
 21
268.2935157246798
 31
0.0
  0
LINE
  5
71C
330
77
100
AcDbEntity
  8
MaVisibleEdge
100
AcDbLine
 10
138.9934906650366
 20
268.3935157246799
 30
0.0
 11
138.9934906650366
 21
268.2935157246798
 31
0.0
  0
LINE
  5
71D
330
77
100
AcDbEntity
  8
MaVisibleEdge
100
AcDbLine
 10
138.9934906650366
 20
268.2935157246798
 30
0.0
 11
139.8784177164169
 21
268.2935157246798
 31
0.0
  0
LINE
  5
71E
330
77
100
AcDbEntity
  8
MaVisibleEdge
100
AcDbLine
 10
139.8784177164169
 20
268.3935157246799
 30
0.0
 11
139.8784177164169
 21
268.2935157246798
 31
0.0
  0
SPLINE
  5
71F
330
77
100
AcDbEntity
  8
MaVisibleEdge
100
AcDbSpline
210
0.0
220
0.0
230
1.0
 70
    24
 71
     2
 72
     7
 73
     4
 74
     0
 42
0.000000001
 43
0.0000000001
 40
0.0
 40
0.0
 40
0.0
 40
1.0
 40
2.0
 40
2.0
 40
2.0
 10
139.8784177164169
 20
268.2935157246796
 30
0.0
 10
140.360589507233
 20
268.2935157246798
 30
0.0
 10
141.0810108888056
 20
268.2935157246798
 30
0.0
 10
141.4213674470288
 20
268.2935157246798
 30
0.0
  0
SPLINE
  5
720
330
77
100
AcDbEntity
  8
MaVisibleEdge
100
AcDbSpline
210
0.0
220
0.0
230
1.0
 70
    24
 71
     2
 72
     7
 73
     4
 74
     0
 42
0.000000001
 43
0.0000000001
 40
0.0
 40
0.0
 40
0.0
 40
1.0
 40
2.0
 40
2.0
 40
2.0
 10
141.4213674470288
 20
268.2935157246798
 30
0.0
 10
141.5575100703181
 20
268.2935157246798
 30
0.0
 10
141.6936526936074
 20
268.2935157246798
 30
0.0
 10
141.7787418331632
 20
268.2935157246798
 30
0.0
  0
LINE
  5
721
330
77
100
AcDbEntity
  8
MaVisibleEdge
100
AcDbLine
 10
141.7787418331632
 20
268.3935157246799
 30
0.0
 11
141.7787418331632
 21
268.2935157246798
 31
0.0
  0
LINE
  5
722
330
77
100
AcDbEntity
  8
MaVisibleEdge
100
AcDbLine
 10
124.732550875484
 20
268.3935157246803
 30
0.0
 11
124.732550875484
 21
268.2935157246803
 31
0.0
  0
LINE
  5
723
330
77
100
AcDbEntity
  8
MaVisibleEdge
100
AcDbLine
 10
124.732550875484
 20
268.2935157246803
 30
0.0
 11
125.6912218478127
 21
268.2935157246803
 31
0.0
  0
LINE
  5
724
330
77
100
AcDbEntity
  8
MaVisibleEdge
100
AcDbLine
 10
125.6912218478127
 20
268.3935157246803
 30
0.0
 11
125.6912218478127
 21
268.2935157246803
 31
0.0
  0
LINE
  5
725
330
77
100
AcDbEntity
  8
MaVisibleEdge
100
AcDbLine
 10
125.6912218478127
 20
268.2935157246803
 30
0.0
 11
127.0980289551354
 21
268.2935157246786
 31
0.0
  0
LINE
  5
726
330
77
100
AcDbEntity
  8
MaVisibleEdge
100
AcDbLine
 10
127.0980289551354
 20
268.3935157246787
 30
0.0
 11
127.0980289551354
 21
268.2935157246786
 31
0.0
  0
LINE
  5
727
330
77
100
AcDbEntity
  8
MaVisibleEdge
100
AcDbLine
 10
127.0980289551354
 20
268.2935157246786
 30
0.0
 11
128.4934908438505
 21
268.2935157246803
 31
0.0
  0
LINE
  5
728
330
77
100
AcDbEntity
  8
MaVisibleEdge
100
AcDbLine
 10
128.4934908438505
 20
268.3935157246803
 30
0.0
 11
128.4934908438505
 21
268.2935157246803
 31
0.0
  0
LINE
  5
729
330
77
100
AcDbEntity
  8
MaVisibleEdge
100
AcDbLine
 10
128.4934908438505
 20
268.2935157246803
 30
0.0
 11
129.4408165975718
 21
268.2935157246803
 31
0.0
  0
LINE
  5
72A
330
77
100
AcDbEntity
  8
MaVisibleEdge
100
AcDbLine
 10
129.4408165975718
 20
268.3935157246803
 30
0.0
 11
129.4408165975718
 21
268.2935157246803
 31
0.0
  0
LINE
  5
72B
330
77
100
AcDbEntity
  8
MaVisibleEdge
100
AcDbLine
 10
129.4408165975718
 20
268.2935157246803
 30
0.0
 11
130.8476237048944
 21
268.2935157246786
 31
0.0
  0
LINE
  5
72C
330
77
100
AcDbEntity
  8
MaVisibleEdge
100
AcDbLine
 10
130.8476237048944
 20
268.3935157246786
 30
0.0
 11
130.8476237048944
 21
268.2935157246786
 31
0.0
  0
LINE
  5
72D
330
77
100
AcDbEntity
  8
MaVisibleEdge
100
AcDbLine
 10
130.8476237048944
 20
268.2935157246786
 30
0.0
 11
132.2487582029133
 21
268.2935157246803
 31
0.0
  0
LINE
  5
72E
330
77
100
AcDbEntity
  8
MaVisibleEdge
100
AcDbLine
 10
132.2487582029133
 20
268.3935157246803
 30
0.0
 11
132.2487582029133
 21
268.2935157246803
 31
0.0
  0
LINE
  5
72F
330
77
100
AcDbEntity
  8
MaVisibleEdge
100
AcDbLine
 10
132.2487582029133
 20
268.2935157246803
 30
0.0
 11
133.1620483008122
 21
268.2935157246803
 31
0.0
  0
LINE
  5
730
330
77
100
AcDbEntity
  8
MaVisibleEdge
100
AcDbLine
 10
133.1620483008122
 20
268.3935157246803
 30
0.0
 11
133.1620483008122
 21
268.2935157246803
 31
0.0
  0
SPLINE
  5
731
330
77
100
AcDbEntity
  8
MaVisibleEdge
100
AcDbSpline
210
0.0
220
0.0
230
1.0
 70
    24
 71
     2
 72
     7
 73
     4
 74
     0
 42
0.000000001
 43
0.0000000001
 40
0.0
 40
0.0
 40
0.0
 40
1.0
 40
2.0
 40
2.0
 40
2.0
 10
133.5648035613764
 20
268.2935157246791
 30
0.0
 10
133.5648035613764
 20
268.2935157246794
 30
0.0
 10
134.909211966358
 20
268.2935157246799
 30
0.0
 10
135.9926803433686
 20
268.2935157246799
 30
0.0
  0
LINE
  5
732
330
77
100
AcDbEntity
  8
MaVisibleEdge
100
AcDbLine
 10
133.5648035613764
 20
268.3935157246791
 30
0.0
 11
133.5648035613764
 21
268.293515724679
 31
0.0
  0
SPLINE
  5
733
330
77
100
AcDbEntity
  8
MaVisibleEdge
100
AcDbSpline
210
0.0
220
0.0
230
1.0
 70
    24
 71
     2
 72
     7
 73
     4
 74
     0
 42
0.000000001
 43
0.0000000001
 40
0.0
 40
0.0
 40
0.0
 40
1.0
 40
2.0
 40
2.0
 40
2.0
 10
135.9926803433686
 20
268.2935157246799
 30
0.0
 10
136.4805247434885
 20
268.2935157246799
 30
0.0
 10
137.2349817808833
 20
268.2935157246798
 30
0.0
 10
137.5129396367656
 20
268.2935157246797
 30
0.0
  0
SPLINE
  5
734
330
77
100
AcDbEntity
  8
MaVisibleEdge
100
AcDbSpline
210
0.0
220
0.0
230
1.0
 70
    24
 71
     2
 72
     7
 73
     4
 74
     0
 42
0.000000001
 43
0.0000000001
 40
0.0
 40
0.0
 40
0.0
 40
1.0
 40
2.0
 40
2.0
 40
2.0
 10
137.5129396367656
 20
268.2935157246797
 30
0.0
 10
137.7965701019516
 20
268.2935157246796
 30
0.0
 10
138.0972183950488
 20
268.2935157246794
 30
0.0
 10
138.0972183950488
 20
268.2935157246792
 30
0.0
  0
LINE
  5
735
330
77
100
AcDbEntity
  8
MaVisibleEdge
100
AcDbLine
 10
138.0972183950488
 20
268.3935157246791
 30
0.0
 11
138.0972183950488
 21
268.2935157246792
 31
0.0
  0
LINE
  5
736
330
77
100
AcDbEntity
  8
MaVisibleEdge
100
AcDbLine
 10
158.8249327908423
 20
268.3935157246799
 30
0.0
 11
158.8249327908423
 21
268.2935157246798
 31
0.0
  0
LINE
  5
737
330
77
100
AcDbEntity
  8
MaVisibleEdge
100
AcDbLine
 10
158.8249327908423
 20
268.2935157246798
 30
0.0
 11
159.7098598422227
 21
268.2935157246798
 31
0.0
  0
LINE
  5
738
330
77
100
AcDbEntity
  8
MaVisibleEdge
100
AcDbLine
 10
159.7098598422227
 20
268.3935157246799
 30
0.0
 11
159.7098598422227
 21
268.2935157246798
 31
0.0
  0
SPLINE
  5
739
330
77
100
AcDbEntity
  8
MaVisibleEdge
100
AcDbSpline
210
0.0
220
0.0
230
1.0
 70
    24
 71
     2
 72
     7
 73
     4
 74
     0
 42
0.000000001
 43
0.0000000001
 40
0.0
 40
0.0
 40
0.0
 40
1.0
 40
2.0
 40
2.0
 40
2.0
 10
159.7098598422227
 20
268.2935157246796
 30
0.0
 10
160.1920316330389
 20
268.2935157246798
 30
0.0
 10
160.9124530146113
 20
268.2935157246798
 30
0.0
 10
161.2528095728344
 20
268.2935157246798
 30
0.0
  0
SPLINE
  5
73A
330
77
100
AcDbEntity
  8
MaVisibleEdge
100
AcDbSpline
210
0.0
220
0.0
230
1.0
 70
    24
 71
     2
 72
     7
 73
     4
 74
     0
 42
0.000000001
 43
0.0000000001
 40
0.0
 40
0.0
 40
0.0
 40
1.0
 40
2.0
 40
2.0
 40
2.0
 10
161.2528095728344
 20
268.2935157246798
 30
0.0
 10
161.3889521961238
 20
268.2935157246798
 30
0.0
 10
161.5250948194131
 20
268.2935157246798
 30
0.0
 10
161.6101839589689
 20
268.2935157246798
 30
0.0
  0
LINE
  5
73B
330
77
100
AcDbEntity
  8
MaVisibleEdge
100
AcDbLine
 10
161.6101839589689
 20
268.3935157246799
 30
0.0
 11
161.6101839589689
 21
268.2935157246798
 31
0.0
  0
LINE
  5
73C
330
77
100
AcDbEntity
  8
MaVisibleEdge
100
AcDbLine
 10
162.2965696847191
 20
268.3935157246805
 30
0.0
 11
162.2965696847191
 21
268.2935157246804
 31
0.0
  0
LINE
  5
73D
330
77
100
AcDbEntity
  8
MaVisibleEdge
100
AcDbLine
 10
162.2965696847191
 20
268.2935157246804
 30
0.0
 11
163.1814967360995
 21
268.2935157246804
 31
0.0
  0
LINE
  5
73E
330
77
100
AcDbEntity
  8
MaVisibleEdge
100
AcDbLine
 10
163.1814967360995
 20
268.3935157246805
 30
0.0
 11
163.1814967360995
 21
268.2935157246804
 31
0.0
  0
LINE
  5
73F
330
77
100
AcDbEntity
  8
MaVisibleEdge
100
AcDbLine
 10
163.1814967360995
 20
268.2935157246792
 30
0.0
 11
165.257671741261
 21
268.2935157246798
 31
0.0
  0
LINE
  5
740
330
77
100
AcDbEntity
  8
MaVisibleEdge
100
AcDbLine
 10
165.257671741261
 20
268.3935157246799
 30
0.0
 11
165.257671741261
 21
268.2935157246798
 31
0.0
  0
LINE
  5
741
330
77
100
AcDbEntity
  8
MaVisibleEdge
100
AcDbLine
 10
165.257671741261
 20
268.2935157246798
 30
0.0
 11
166.3581579461827
 21
268.2935157246798
 31
0.0
  0
LINE
  5
742
330
77
100
AcDbEntity
  8
MaVisibleEdge
100
AcDbLine
 10
166.3581579461827
 20
268.3935157246799
 30
0.0
 11
166.3581579461827
 21
268.2935157246798
 31
0.0
  0
LINE
  5
743
330
77
100
AcDbEntity
  8
MaVisibleEdge
100
AcDbLine
 10
166.3581579461827
 20
268.2935157246784
 30
0.0
 11
166.6474610206725
 21
268.2935157246783
 31
0.0
  0
LINE
  5
744
330
77
100
AcDbEntity
  8
MaVisibleEdge
100
AcDbLine
 10
166.6474610206725
 20
268.3935157246783
 30
0.0
 11
166.6474610206725
 21
268.2935157246783
 31
0.0
  0
SPLINE
  5
745
330
77
100
AcDbEntity
  8
MaVisibleEdge
100
AcDbSpline
210
0.0
220
0.0
230
1.0
 70
    24
 71
     2
 72
     7
 73
     4
 74
     0
 42
0.000000001
 43
0.0000000001
 40
0.0
 40
0.0
 40
0.0
 40
1.0
 40
2.0
 40
2.0
 40
2.0
 10
166.7268775509245
 20
268.2935157246791
 30
0.0
 10
166.7268775509245
 20
268.2935157246794
 30
0.0
 10
168.0712859559062
 20
268.2935157246799
 30
0.0
 10
169.1547543329168
 20
268.2935157246799
 30
0.0
  0
LINE
  5
746
330
77
100
AcDbEntity
  8
MaVisibleEdge
100
AcDbLine
 10
166.7268775509245
 20
268.3935157246791
 30
0.0
 11
166.7268775509245
 21
268.293515724679
 31
0.0
  0
SPLINE
  5
747
330
77
100
AcDbEntity
  8
MaVisibleEdge
100
AcDbSpline
210
0.0
220
0.0
230
1.0
 70
    24
 71
     2
 72
     7
 73
     4
 74
     0
 42
0.000000001
 43
0.0000000001
 40
0.0
 40
0.0
 40
0.0
 40
1.0
 40
2.0
 40
2.0
 40
2.0
 10
169.1547543329168
 20
268.2935157246799
 30
0.0
 10
169.6425987330367
 20
268.2935157246799
 30
0.0
 10
170.3970557704315
 20
268.2935157246798
 30
0.0
 10
170.6750136263138
 20
268.2935157246797
 30
0.0
  0
SPLINE
  5
748
330
77
100
AcDbEntity
  8
MaVisibleEdge
100
AcDbSpline
210
0.0
220
0.0
230
1.0
 70
    24
 71
     2
 72
     7
 73
     4
 74
     0
 42
0.000000001
 43
0.0000000001
 40
0.0
 40
0.0
 40
0.0
 40
1.0
 40
2.0
 40
2.0
 40
2.0
 10
170.6750136263138
 20
268.2935157246797
 30
0.0
 10
170.9586440914998
 20
268.2935157246796
 30
0.0
 10
171.259292384597
 20
268.2935157246794
 30
0.0
 10
171.259292384597
 20
268.2935157246792
 30
0.0
  0
LINE
  5
749
330
77
100
AcDbEntity
  8
MaVisibleEdge
100
AcDbLine
 10
171.259292384597
 20
268.3935157246791
 30
0.0
 11
171.259292384597
 21
268.2935157246792
 31
0.0
  0
LINE
  5
74A
330
77
100
AcDbEntity
  8
MaVisibleEdge
100
AcDbLine
 10
135.7077534708022
 20
262.8935157246646
 30
0.0
 11
148.7077534708022
 21
262.8935157246646
 31
0.0
  0
LINE
  5
74B
330
77
100
AcDbEntity
  8
MaVisibleEdge
100
AcDbLine
 10
135.7077534708022
 20
261.3935157246646
 30
0.0
 11
148.7077534708022
 21
261.3935157246646
 31
0.0
  0
ELLIPSE
  5
74C
330
77
100
AcDbEntity
  8
MaVisibleEdge
100
AcDbEllipse
 10
139.4268953087063
 20
259.5135157246541
 30
0.0
 11
-1.999999999999998
 21
0.0
 31
0.0
210
0.0
220
0.0
230
1.0
 40
0.058535247409418
 41
3.141592653589438
 42
6.283185307179231
  0
ELLIPSE
  5
74D
330
77
100
AcDbEntity
  8
MaVisibleEdge
100
AcDbEllipse
 10
156.2768953087063
 20
259.5135157246541
 30
0.0
 11
1.999999999999998
 21
0.0
 31
0.0
210
0.0
220
0.0
230
1.0
 40
0.058535247409418
 41
0.0000000149006434
 42
3.141592653589435
  0
LINE
  5
74E
330
77
100
AcDbEntity
  8
MaVisibleEdge
100
AcDbLine
 10
147.9577534708022
 20
268.2935157246645
 30
0.0
 11
147.9577534708022
 21
262.8935157246646
 31
0.0
  0
LINE
  5
74F
330
77
100
AcDbEntity
  8
MaVisibleEdge
100
AcDbLine
 10
136.4577534708022
 20
268.2935157246645
 30
0.0
 11
136.4577534708022
 21
262.8935157246646
 31
0.0
  0
LINE
  5
750
330
77
100
AcDbEntity
  8
MaVisibleEdge
100
AcDbLine
 10
148.7077534708022
 20
262.8935157246646
 30
0.0
 11
148.7077534708022
 21
261.3935157246646
 31
0.0
  0
LINE
  5
751
330
77
100
AcDbEntity
  8
MaVisibleEdge
100
AcDbLine
 10
135.7077534708023
 20
262.8935157246646
 30
0.0
 11
135.7077534708023
 21
261.3935157246646
 31
0.0
  0
ARC
  5
752
330
77
100
AcDbEntity
  8
MaVisibleEdge
100
AcDbCircle
 10
142.2077534708022
 20
274.9120215592603
 30
0.0
 40
15.00000000000001
100
AcDbArc
 50
244.3207113805432
 51
295.6792886194568
  0
LINE
  5
753
330
77
100
AcDbEntity
  8
MaVisibleEdge
100
AcDbLine
 10
137.4268953087063
 20
259.3645401272234
 30
0.0
 11
137.4268953087063
 21
259.5135157246541
 31
0.0
  0
LINE
  5
754
330
77
100
AcDbEntity
  8
MaVisibleEdge
100
AcDbLine
 10
141.4268953087063
 20
259.3645401272234
 30
0.0
 11
141.4268953087063
 21
259.5135157246541
 31
0.0
  0
LINE
  5
755
330
77
100
AcDbEntity
  8
MaVisibleEdge
100
AcDbLine
 10
137.4268953087063
 20
259.5135157246541
 30
0.0
 11
137.4268953087063
 21
260.6943074239215
 31
0.0
  0
LINE
  5
756
330
77
100
AcDbEntity
  8
MaVisibleEdge
100
AcDbLine
 10
141.4268953087063
 20
259.5135157246541
 30
0.0
 11
141.4268953087063
 21
259.9323599966282
 31
0.0
  0
SPLINE
  5
757
330
77
100
AcDbEntity
  8
MaVisibleEdge
100
AcDbSpline
210
0.0
220
0.0
230
1.0
 70
     8
 71
     3
 72
    26
 73
    22
 74
     0
 42
0.000000001
 43
0.0000000001
 40
6.283185307179585
 40
6.283185307179585
 40
6.283185307179585
 40
6.283185307179585
 40
6.604780658626607
 40
6.604780658626607
 40
6.926045226634593
 40
6.926045226634593
 40
7.246469450680612
 40
7.246469450680612
 40
7.565909458123587
 40
7.565909458123587
 40
7.884608709465235
 40
7.884608709465235
 40
8.203071586841751
 40
8.203071586841751
 40
8.521879083757102
 40
8.521879083757102
 40
8.841496795080082
 40
8.841496795080082
 40
9.162100255819787
 40
9.162100255819787
 40
9.424777960769381
 40
9.424777960769381
 40
9.424777960769381
 40
9.424777960769381
 10
154.2768953087063
 20
259.3645401272234
 30
0.0
 10
154.2768953087063
 20
258.6834322496937
 30
0.0
 10
154.1657145686625
 20
258.0024296916241
 30
0.0
 10
153.7321234011313
 20
256.7098709653154
 30
0.0
 10
153.4099832967022
 20
256.0984551091538
 30
0.0
 10
152.5877351415753
 20
255.0081557292223
 30
0.0
 10
152.0882152350244
 20
254.5291294299642
 30
0.0
 10
150.9629750305843
 20
253.7521800076739
 30
0.0
 10
150.3378390395196
 20
253.4538634015167
 30
0.0
 10
149.0253567134044
 20
253.0676118512502
 30
0.0
 10
148.3384029929726
 20
252.979273893293
 30
0.0
 10
146.9715625534844
 20
253.0208633308164
 30
0.0
 10
146.2919319454425
 20
253.1506179205435
 30
0.0
 10
145.0076538414571
 20
253.6148994339695
 30
0.0
 10
144.4033233280012
 20
253.9495461346882
 30
0.0
 10
143.3301600524194
 20
254.7903162908151
 30
0.0
 10
142.8618525470812
 20
255.2967051875986
 30
0.0
 10
142.1084310360926
 20
256.4306834215963
 30
0.0
 10
141.8239937099529
 20
257.0584403913324
 30
0.0
 10
141.5008695822741
 20
258.2519264072354
 30
0.0
 10
141.4268953087063
 20
258.8082141315659
 30
0.0
 10
141.4268953087063
 20
259.3645401272234
 30
0.0
  0
SPLINE
  5
758
330
77
100
AcDbEntity
  8
MaVisibleEdge
100
AcDbSpline
210
0.0
220
0.0
230
1.0
 70
     8
 71
     3
 72
    26
 73
    22
 74
     0
 42
0.000000001
 43
0.0000000001
 40
6.283185307179585
 40
6.283185307179585
 40
6.283185307179585
 40
6.283185307179585
 40
6.602421395895458
 40
6.602421395895458
 40
6.921811061084143
 40
6.921811061084143
 40
7.241597007041909
 40
7.241597007041909
 40
7.561859704225549
 40
7.561859704225549
 40
7.882491616690154
 40
7.882491616690154
 40
8.203244841797481
 40
8.203244841797481
 40
8.523826102513959
 40
8.523826102513959
 40
8.84400592128909
 40
8.84400592128909
 40
9.163708603059331
 40
9.163708603059331
 40
9.424777960769381
 40
9.424777960769381
 40
9.424777960769381
 40
9.424777960769381
 10
158.2768953087063
 20
259.3645401272234
 30
0.0
 10
158.2768953087063
 20
258.2598539329637
 30
0.0
 10
158.0978298969082
 20
257.1553729911402
 30
0.0
 10
157.3997773162225
 20
255.0579520279351
 30
0.0
 10
156.8807703449591
 20
254.0654449048521
 30
0.0
 10
155.5551453088864
 20
252.2920690545279
 30
0.0
 10
154.748425289
 20
251.5117631300884
 30
0.0
 10
152.9284648984942
 20
250.2420189173812
 30
0.0
 10
151.9152398853132
 20
249.7532125777049
 30
0.0
 10
149.7845878986727
 20
249.116847798203
 30
0.0
 10
148.6673954602438
 20
248.9697762352685
 30
0.0
 10
146.4423997895264
 20
249.0327946814741
 30
0.0
 10
145.3349621331415
 20
249.243012297894
 30
0.0
 10
143.2426662550689
 20
249.9998094126802
 30
0.0
 10
142.2580939035516
 20
250.5460991705078
 30
0.0
 10
140.5122385111021
 20
251.9193754041643
 30
0.0
 10
139.7509914600156
 20
252.7457937770105
 30
0.0
 10
138.5292154391349
 20
254.594769914833
 30
0.0
 10
138.0684773566875
 20
255.6167160782287
 30
0.0
 10
137.5463169158374
 20
257.5578039204548
 30
0.0
 10
137.4268953087063
 20
258.4611343864544
 30
0.0
 10
137.4268953087063
 20
259.3645401272234
 30
0.0
  0
LINE
  5
759
330
77
100
AcDbEntity
  8
MaVisibleEdge
100
AcDbLine
 10
158.2768953087063
 20
259.5135157246541
 30
0.0
 11
158.2768953087063
 21
259.3645401272234
 31
0.0
  0
LINE
  5
75A
330
77
100
AcDbEntity
  8
MaVisibleEdge
100
AcDbLine
 10
154.2768953087063
 20
259.5135157246541
 30
0.0
 11
154.2768953087063
 21
259.3645401272234
 31
0.0
  0
LINE
  5
75B
330
77
100
AcDbEntity
  8
MaVisibleEdge
100
AcDbLine
 10
158.2768953087063
 20
268.3935157246541
 30
0.0
 11
158.2768953087063
 21
259.5135157246541
 31
0.0
  0
LINE
  5
75C
330
77
100
AcDbEntity
  8
MaVisibleEdge
100
AcDbLine
 10
154.2768953087063
 20
268.2935157246542
 30
0.0
 11
154.2768953087063
 21
259.5135157246541
 31
0.0
  0
LINE
  5
75D
330
77
100
AcDbEntity
  8
MaVisibleEdge
100
AcDbLine
 10
185.3077534708022
 20
268.1935157246844
 30
0.0
 11
224.3077534708023
 21
268.1935157246844
 31
0.0
  0
LINE
  5
75E
330
77
100
AcDbEntity
  8
MaVisibleEdge
100
AcDbLine
 10
224.3077534708023
 20
268.3935157246843
 30
0.0
 11
224.3077534708023
 21
268.1935157246844
 31
0.0
  0
LINE
  5
75F
330
77
100
AcDbEntity
  8
MaVisibleEdge
100
AcDbLine
 10
185.3077534708022
 20
268.3935157246843
 30
0.0
 11
185.3077534708022
 21
268.1935157246844
 31
0.0
  0
LINE
  5
760
330
77
100
AcDbEntity
  8
MaVisibleEdge
100
AcDbLine
 10
87.8077534708022
 20
268.3935157246892
 30
0.0
 11
327.8077534708022
 21
268.3935157246892
 31
0.0
  0
LINE
  5
761
330
77
100
AcDbEntity
  8
MaVisibleEdge
100
AcDbLine
 10
327.8077534708022
 20
296.8935157246976
 30
0.0
 11
327.8077534708022
 21
268.3935157246892
 31
0.0
  0
LINE
  5
762
330
77
100
AcDbEntity
  8
MaVisibleEdge
100
AcDbLine
 10
87.8077534708022
 20
296.8935157246976
 30
0.0
 11
87.8077534708022
 21
268.3935157246892
 31
0.0
  0
LINE
  5
763
330
77
100
AcDbEntity
  8
MaVisibleEdge
100
AcDbLine
 10
327.8077534708022
 20
296.8935157246976
 30
0.0
 11
327.8077534708022
 21
398.3935157246976
 31
0.0
  0
LINE
  5
764
330
77
100
AcDbEntity
  8
MaVisibleEdge
100
AcDbLine
 10
87.8077534708022
 20
398.3935157246976
 30
0.0
 11
327.8077534708022
 21
398.3935157246976
 31
0.0
  0
LINE
  5
765
330
77
100
AcDbEntity
  8
MaVisibleEdge
100
AcDbLine
 10
87.8077534708022
 20
296.8935157246976
 30
0.0
 11
87.8077534708022
 21
398.3935157246976
 31
0.0
  0
LINE
  5
766
330
77
100
AcDbEntity
  8
MaVisibleEdge
100
AcDbLine
 10
272.1577534708022
 20
266.3935157246609
 30
0.0
 11
257.1577534708022
 21
266.3935157246609
 31
0.0
  0
LINE
  5
767
330
77
100
AcDbEntity
  8
MaVisibleEdge
100
AcDbLine
 10
277.1577534708022
 20
267.5935157246609
 30
0.0
 11
252.1577534708022
 21
267.5935157246609
 31
0.0
  0
LINE
  5
768
330
77
100
AcDbEntity
  8
MaVisibleEdge
100
AcDbLine
 10
257.1577534708022
 20
266.3935157246609
 30
0.0
 11
252.1577534708022
 21
267.5935157246609
 31
0.0
  0
LINE
  5
769
330
77
100
AcDbEntity
  8
MaVisibleEdge
100
AcDbLine
 10
272.1577534708022
 20
266.3935157246609
 30
0.0
 11
277.1577534708022
 21
267.5935157246609
 31
0.0
  0
LINE
  5
76A
330
77
100
AcDbEntity
  8
MaVisibleEdge
100
AcDbLine
 10
252.1577534708022
 20
267.5935157246609
 30
0.0
 11
252.1577534708022
 21
268.3935157246609
 31
0.0
  0
LINE
  5
76B
330
77
100
AcDbEntity
  8
MaVisibleEdge
100
AcDbLine
 10
277.1577534708022
 20
267.5935157246609
 30
0.0
 11
277.1577534708022
 21
268.3935157246609
 31
0.0
  0
ENDSEC
  0
SECTION
  2
OBJECTS
  0
DICTIONARY
  5
C
330
0
100
AcDbDictionary
281
     1
  3
ACAD_CIP_PREVIOUS_PRODUCT_INFO
350
82C
  3
ACAD_COLOR
350
6E
  3
ACAD_DETAILVIEWSTYLE
350
825
  3
ACAD_GROUP
350
D
  3
ACAD_LAYOUT
350
6D
  3
ACAD_MATERIAL
350
10
  3
ACAD_MLEADERSTYLE
350
71
  3
ACAD_MLINESTYLE
350
6A
  3
ACAD_PLOTSETTINGS
350
6C
  3
ACAD_PLOTSTYLENAME
350
E
  3
ACAD_SCALELIST
350
3D
  3
ACAD_SECTIONVIEWSTYLE
350
823
  3
ACAD_TABLESTYLE
350
6F
  3
ACAD_VISUALSTYLE
350
29
  3
ACDB_RECOMPOSE_DATA
350
9A9
  3
AcDbVariableDictionary
350
76C
  3
DWGPROPS
350
9AA
  0
DICTIONARY
  5
94B
330
14D
100
AcDbDictionary
280
     1
281
     1
  0
DICTIONARY
  5
777
330
104
100
AcDbDictionary
280
     1
281
     1
  3
ACAD_MLATT
360
95B
  3
ACAD_XREC_ROUNDTRIP
360
95A
  0
DICTIONARY
  5
925
330
924
100
AcDbDictionary
280
     1
281
     1
  3
ACAD_MLATT
360
984
  3
ACAD_XREC_ROUNDTRIP
360
983
  0
DICTIONARY
  5
927
330
926
100
AcDbDictionary
280
     1
281
     1
  3
ACAD_MLATT
360
986
  3
ACAD_XREC_ROUNDTRIP
360
985
  0
DICTIONARY
  5
929
330
928
100
AcDbDictionary
280
     1
281
     1
  3
ACAD_MLATT
360
988
  3
ACAD_XREC_ROUNDTRIP
360
987
  0
DICTIONARY
  5
92B
330
92A
100
AcDbDictionary
280
     1
281
     1
  3
ACAD_MLATT
360
98A
  3
ACAD_XREC_ROUNDTRIP
360
989
  0
DICTIONARY
  5
92D
330
92C
100
AcDbDictionary
280
     1
281
     1
  3
ACAD_MLATT
360
98C
  3
ACAD_XREC_ROUNDTRIP
360
98B
  0
DICTIONARY
  5
92F
330
92E
100
AcDbDictionary
280
     1
281
     1
  3
ACAD_MLATT
360
98E
  3
ACAD_XREC_ROUNDTRIP
360
98D
  0
DICTIONARY
  5
931
330
930
100
AcDbDictionary
280
     1
281
     1
  3
ACAD_MLATT
360
990
  3
ACAD_XREC_ROUNDTRIP
360
98F
  0
DICTIONARY
  5
933
330
932
100
AcDbDictionary
280
     1
281
     1
  3
ACAD_MLATT
360
992
  3
ACAD_XREC_ROUNDTRIP
360
991
  0
DICTIONARY
  5
935
330
934
100
AcDbDictionary
280
     1
281
     1
  3
ACAD_MLATT
360
994
  3
ACAD_XREC_ROUNDTRIP
360
993
  0
DICTIONARY
  5
937
330
936
100
AcDbDictionary
280
     1
281
     1
  3
ACAD_MLATT
360
996
  3
ACAD_XREC_ROUNDTRIP
360
995
  0
DICTIONARY
  5
939
330
938
100
AcDbDictionary
280
     1
281
     1
  3
ACAD_MLATT
360
998
  3
ACAD_XREC_ROUNDTRIP
360
997
  0
DICTIONARY
  5
93B
330
93A
100
AcDbDictionary
280
     1
281
     1
  3
ACAD_MLATT
360
99A
  3
ACAD_XREC_ROUNDTRIP
360
999
  0
DICTIONARY
  5
93D
330
93C
100
AcDbDictionary
280
     1
281
     1
  3
ACAD_MLATT
360
99C
  3
ACAD_XREC_ROUNDTRIP
360
99B
  0
DICTIONARY
  5
93F
330
93E
100
AcDbDictionary
280
     1
281
     1
  3
ACAD_MLATT
360
99E
  3
ACAD_XREC_ROUNDTRIP
360
99D
  0
DICTIONARY
  5
941
330
940
100
AcDbDictionary
280
     1
281
     1
  3
ACAD_MLATT
360
9A0
  3
ACAD_XREC_ROUNDTRIP
360
99F
  0
DICTIONARY
  5
943
330
942
100
AcDbDictionary
280
     1
281
     1
  3
ACAD_MLATT
360
9A2
  3
ACAD_XREC_ROUNDTRIP
360
9A1
  0
DICTIONARY
  5
945
330
944
100
AcDbDictionary
280
     1
281
     1
  3
ACAD_MLATT
360
9A4
  3
ACAD_XREC_ROUNDTRIP
360
9A3
  0
DICTIONARY
  5
947
330
946
100
AcDbDictionary
280
     1
281
     1
  3
ACAD_MLATT
360
9A6
  3
ACAD_XREC_ROUNDTRIP
360
9A5
  0
DICTIONARY
  5
949
330
948
100
AcDbDictionary
280
     1
281
     1
  3
ACAD_MLATT
360
9A8
  3
ACAD_XREC_ROUNDTRIP
360
9A7
  0
DICTIONARY
  5
7B4
330
25B
100
AcDbDictionary
280
     1
281
     1
  3
ACAD_MLATT
360
95E
  3
ACAD_XREC_ROUNDTRIP
360
95D
  0
DICTIONARY
  5
7B7
330
25C
100
AcDbDictionary
280
     1
281
     1
  3
ACAD_MLATT
360
960
  3
ACAD_XREC_ROUNDTRIP
360
95F
  0
DICTIONARY
  5
7BA
330
25D
100
AcDbDictionary
280
     1
281
     1
  3
ACAD_MLATT
360
962
  3
ACAD_XREC_ROUNDTRIP
360
961
  0
DICTIONARY
  5
7BD
330
25E
100
AcDbDictionary
280
     1
281
     1
  3
ACAD_MLATT
360
964
  3
ACAD_XREC_ROUNDTRIP
360
963
  0
DICTIONARY
  5
7C0
330
25F
100
AcDbDictionary
280
     1
281
     1
  3
ACAD_MLATT
360
966
  3
ACAD_XREC_ROUNDTRIP
360
965
  0
DICTIONARY
  5
7C3
330
260
100
AcDbDictionary
280
     1
281
     1
  3
ACAD_MLATT
360
968
  3
ACAD_XREC_ROUNDTRIP
360
967
  0
DICTIONARY
  5
7C6
330
261
100
AcDbDictionary
280
     1
281
     1
  3
ACAD_MLATT
360
96A
  3
ACAD_XREC_ROUNDTRIP
360
969
  0
DICTIONARY
  5
7C9
330
262
100
AcDbDictionary
280
     1
281
     1
  3
ACAD_MLATT
360
96C
  3
ACAD_XREC_ROUNDTRIP
360
96B
  0
DICTIONARY
  5
7CC
330
263
100
AcDbDictionary
280
     1
281
     1
  3
ACAD_MLATT
360
96E
  3
ACAD_XREC_ROUNDTRIP
360
96D
  0
DICTIONARY
  5
7CF
330
264
100
AcDbDictionary
280
     1
281
     1
  3
ACAD_MLATT
360
970
  3
ACAD_XREC_ROUNDTRIP
360
96F
  0
DICTIONARY
  5
7D2
330
265
100
AcDbDictionary
280
     1
281
     1
  3
ACAD_MLATT
360
972
  3
ACAD_XREC_ROUNDTRIP
360
971
  0
DICTIONARY
  5
7D5
330
266
100
AcDbDictionary
280
     1
281
     1
  3
ACAD_MLATT
360
974
  3
ACAD_XREC_ROUNDTRIP
360
973
  0
DICTIONARY
  5
7D8
330
267
100
AcDbDictionary
280
     1
281
     1
  3
ACAD_MLATT
360
976
  3
ACAD_XREC_ROUNDTRIP
360
975
  0
DICTIONARY
  5
7DB
330
268
100
AcDbDictionary
280
     1
281
     1
  3
ACAD_MLATT
360
978
  3
ACAD_XREC_ROUNDTRIP
360
977
  0
DICTIONARY
  5
7DE
330
269
100
AcDbDictionary
280
     1
281
     1
  3
ACAD_MLATT
360
97A
  3
ACAD_XREC_ROUNDTRIP
360
979
  0
DICTIONARY
  5
7E1
330
26A
100
AcDbDictionary
280
     1
281
     1
  3
ACAD_MLATT
360
97C
  3
ACAD_XREC_ROUNDTRIP
360
97B
  0
DICTIONARY
  5
7E4
330
26B
100
AcDbDictionary
280
     1
281
     1
  3
ACAD_MLATT
360
97E
  3
ACAD_XREC_ROUNDTRIP
360
97D
  0
DICTIONARY
  5
7E7
330
26C
100
AcDbDictionary
280
     1
281
     1
  3
ACAD_MLATT
360
980
  3
ACAD_XREC_ROUNDTRIP
360
97F
  0
DICTIONARY
  5
7EA
330
26D
100
AcDbDictionary
280
     1
281
     1
  3
ACAD_MLATT
360
982
  3
ACAD_XREC_ROUNDTRIP
360
981
  0
XRECORD
  5
82C
102
{ACAD_REACTORS
330
C
102
}
330
C
100
AcDbXrecord
280
     1
300
ACD
300
2021
300

  0
DICTIONARY
  5
6E
102
{ACAD_REACTORS
330
C
102
}
330
C
100
AcDbDictionary
281
     1
  0
DICTIONARY
  5
825
102
{ACAD_REACTORS
330
C
102
}
330
C
100
AcDbDictionary
281
     1
  3
Metric50
350
826
  0
DICTIONARY
  5
D
102
{ACAD_REACTORS
330
C
102
}
330
C
100
AcDbDictionary
281
     1
  0
DICTIONARY
  5
6D
102
{ACAD_REACTORS
330
C
102
}
330
C
100
AcDbDictionary
281
     1
  3
Layout1
350
76
  3
Layout2
350
7E
  3
Model
350
7A
  0
DICTIONARY
  5
10
102
{ACAD_REACTORS
330
C
102
}
330
C
100
AcDbDictionary
281
     1
  3
ByBlock
350
19
  3
ByLayer
350
11
  3
Global
350
21
  0
DICTIONARY
  5
71
102
{ACAD_REACTORS
330
C
102
}
330
C
100
AcDbDictionary
281
     1
  3
Standard
350
72
  0
DICTIONARY
  5
6A
102
{ACAD_REACTORS
330
C
102
}
330
C
100
AcDbDictionary
281
     1
  3
Standard
350
6B
  0
DICTIONARY
  5
6C
102
{ACAD_REACTORS
330
C
102
}
330
C
100
AcDbDictionary
281
     1
  0
ACDBDICTIONARYWDFLT
  5
E
102
{ACAD_REACTORS
330
C
102
}
330
C
100
AcDbDictionary
281
     1
  3
Normal
350
F
100
AcDbDictionaryWithDefault
340
F
  0
DICTIONARY
  5
3D
102
{ACAD_REACTORS
330
C
102
}
330
C
100
AcDbDictionary
281
     1
  3
A0
350
3E
  3
A1
350
3F
  3
A2
350
40
  3
A3
350
41
  3
A4
350
42
  3
A5
350
43
  3
A6
350
44
  3
A7
350
45
  3
A8
350
46
  3
A9
350
47
  3
B0
350
48
  3
B1
350
49
  3
B2
350
4A
  3
B3
350
4B
  3
B4
350
4C
  3
B5
350
4D
  3
B6
350
4E
  3
B7
350
4F
  3
B8
350
50
  3
B9
350
51
  3
C0
350
52
  3
C1
350
53
  3
C2
350
54
  3
C3
350
55
  3
C4
350
56
  3
C5
350
57
  3
C6
350
58
  3
C7
350
59
  3
C8
350
5A
  3
C9
350
5B
  3
D0
350
5C
  3
D1
350
5D
  3
D2
350
5E
  0
DICTIONARY
  5
823
102
{ACAD_REACTORS
330
C
102
}
330
C
100
AcDbDictionary
281
     1
  3
Metric50
350
824
  0
DICTIONARY
  5
6F
102
{ACAD_REACTORS
330
C
102
}
330
C
100
AcDbDictionary
281
     1
  3
Standard
350
70
  0
DICTIONARY
  5
29
102
{ACAD_REACTORS
330
C
102
}
330
C
100
AcDbDictionary
281
     1
  3
2dWireframe
350
2F
  3
3D Hidden
350
31
  3
3dWireframe
350
30
  3
Basic
350
2E
  3
Brighten
350
35
  3
ColorChange
350
39
  3
Conceptual
350
32
  3
Dim
350
34
  3
EdgeColorOff
350
3C
  3
Facepattern
350
38
  3
Flat
350
2A
  3
FlatWithEdges
350
2B
  3
Gouraud
350
2C
  3
GouraudWithEdges
350
2D
  3
Hidden
350
81D
  3
JitterOff
350
3A
  3
Linepattern
350
37
  3
OverhangOff
350
3B
  3
Realistic
350
33
  3
Shaded
350
822
  3
Shaded with edges
350
821
  3
Shades of Gray
350
81E
  3
Sketchy
350
81F
  3
Thicken
350
36
  3
Wireframe
350
81C
  3
X-Ray
350
820
  0
XRECORD
  5
9A9
102
{ACAD_REACTORS
330
C
102
}
330
C
100
AcDbXrecord
280
     1
 90
        1
330
70
330
104
330
25B
330
25C
330
25D
330
25E
330
25F
330
260
330
261
330
262
330
263
330
264
330
265
330
266
330
267
330
268
330
269
330
26A
330
26B
330
26C
330
26D
330
924
330
926
330
928
330
92A
330
92C
330
92E
330
930
330
932
330
934
330
936
330
938
330
93A
330
93C
330
93E
330
940
330
942
330
944
330
946
330
948
  0
DICTIONARY
  5
76C
102
{ACAD_REACTORS
330
C
102
}
330
C
100
AcDbDictionary
281
     1
  3
CANNOSCALE
350
770
  3
CMLEADERSTYLE
350
76E
  3
CTABLESTYLE
350
76D
  3
CVIEWDETAILSTYLE
350
951
  3
CVIEWSECTIONSTYLE
350
952
  3
DIMASSOC
350
956
  3
HIDETEXT
350
955
  3
INDEXCTL
350
954
  3
LAYEREVAL
350
772
  3
LAYERNOTIFY
350
773
  3
LIGHTINGUNITS
350
771
  3
MSLTSCALE
350
76F
  3
SORTENTS
350
953
  3
XCLIPFRAME
350
957
  0
XRECORD
  5
9AA
102
{ACAD_REACTORS
330
C
102
}
330
C
100
AcDbXrecord
280
     1
  1
DWGPROPS COOKIE
  2

  3

  4

  6

  7

  8
BE010
  9

300
Manager=
301
Company=
302
Category=
303
Part Number=0222-218141
304
Description=Münzkontaktgeber
305
Project=
306
Designer=
307
Engineer=
308
Authority=
309
Cost Center=
 40
0.0008136226851852
 41
2455482.468969908
 42
2460056.590983796
  1

 90
       42
300
Vendor=
300
User Status=
300
Design Status=WorkInProgress
300
Checked by=
300
Engr Approved by=
300
Mfg Approved by=
300
Departement=FAR-Marketing
300
Collection=AQUAPAY
300
Document_Number=0222-218141
300
Unit=mm
300
Scale=NTS
300
Tolerance=
300
Drawn_By=Rataj
300
Drawn_Date=03/05/2010
300
Modified_By=
300
Revision_Index_1=A
300
Revision_By_1=LI004
300
Revision_Memo_1=
300
Revision_Titel_1=
300
Status=
300
ECN=
300
Quantity=
300
EAN=7612982130793
300
FUN=
300
Part_number=49020804
300
Title=Münzkontaktgeber
300
Auxiliary_Remark1=AQUA802
300
Auxiliary_Remark2=Marketingzeichnung
300
Remark=Mehrfach Wertm.
300
Checked_By=Rataj
300
Checked_Date=03/05/2010
300
Revision_Date_1=10/12/2010
  0
XRECORD
  5
95B
102
{ACAD_REACTORS
330
777
102
}
330
777
100
AcDbXrecord
280
     1
 70
     4
 70
     0
 70
     0
 40
1.0
  2
<Enter_Prompt_for_Field>
  1
Embedded Object
 10
0.0
 20
0.0
 30
0.0
 40
2.5
 41
0.0
 46
0.0
 71
     5
 72
     5
  1
\W0.9000;
  7
Text Style49
 73
     1
 44
1.0
  0
XRECORD
  5
95A
102
{ACAD_REACTORS
330
777
102
}
330
777
100
AcDbXrecord
280
     1
102
ACAD_MATT_HEIGHT
140
2.5
  0
XRECORD
  5
984
102
{ACAD_REACTORS
330
925
102
}
330
925
100
AcDbXrecord
280
     1
 70
     4
 70
     0
 70
     0
 40
1.0
  2
Title
  1
Embedded Object
 10
206.6
 20
126.0241925130958
 30
0.0
 40
5.0
 41
89.14362202638884
 46
0.0
 71
     4
 72
     5
  1
Münzkontaktgeber
  7
Text Style20
 73
     1
 44
1.0
  0
XRECORD
  5
983
102
{ACAD_REACTORS
330
925
102
}
330
925
100
AcDbXrecord
280
     1
102
ACAD_MATT_HEIGHT
140
5.0
  0
XRECORD
  5
986
102
{ACAD_REACTORS
330
927
102
}
330
927
100
AcDbXrecord
280
     1
 70
     4
 70
     0
 70
     0
 40
1.0
  2
Auxiliary_Remark1
  1
Embedded Object
 10
206.6000000000001
 20
119.5241925130958
 30
0.0
 40
3.499999940395355
 41
88.8588638187849
 46
0.0
 71
     4
 72
     5
  1
AQUA802
  7
Text Style9
 73
     1
 44
1.0
  0
XRECORD
  5
985
102
{ACAD_REACTORS
330
927
102
}
330
927
100
AcDbXrecord
280
     1
102
ACAD_MATT_HEIGHT
140
3.499999940395355
  0
XRECORD
  5
988
102
{ACAD_REACTORS
330
929
102
}
330
929
100
AcDbXrecord
280
     1
 70
     4
 70
     0
 70
     0
 40
1.0
  2
Auxiliary_Remark2
  1
Embedded Object
 10
206.6
 20
113.0241925130958
 30
0.0
 40
3.499999940395355
 41
88.50560020660971
 46
0.0
 71
     4
 72
     5
  1
Marketingzeichnung
  7
Text Style9
 73
     1
 44
1.0
  0
XRECORD
  5
987
102
{ACAD_REACTORS
330
929
102
}
330
929
100
AcDbXrecord
280
     1
102
ACAD_MATT_HEIGHT
140
3.499999940395355
  0
XRECORD
  5
98A
102
{ACAD_REACTORS
330
92B
102
}
330
92B
100
AcDbXrecord
280
     1
 70
     4
 70
     0
 70
     0
 40
1.0
  2
Part_number
  1
Embedded Object
 10
248.1
 20
141.0241925130958
 30
0.0
 40
2.5
 41
35.7212232739224
 46
0.0
 71
     4
 72
     5
  1
49020804
  7
Text Style38
 73
     1
 44
1.0
  0
XRECORD
  5
989
102
{ACAD_REACTORS
330
92B
102
}
330
92B
100
AcDbXrecord
280
     1
102
ACAD_MATT_HEIGHT
140
2.5
  0
XRECORD
  5
98C
102
{ACAD_REACTORS
330
92D
102
}
330
92D
100
AcDbXrecord
280
     1
 70
     4
 70
     0
 70
     0
 40
1.0
  2
Document_Number
  1
Embedded Object
 10
218.1
 20
104.2741925130957
 30
0.0
 40
5.0
 41
45.26060067066413
 46
0.0
 71
     4
 72
     5
  1
0222-218141
  7
Text Style20
 73
     1
 44
1.0
  0
XRECORD
  5
98B
102
{ACAD_REACTORS
330
92D
102
}
330
92D
100
AcDbXrecord
280
     1
102
ACAD_MATT_HEIGHT
140
5.0
  0
XRECORD
  5
98E
102
{ACAD_REACTORS
330
92F
102
}
330
92F
100
AcDbXrecord
280
     1
 70
     4
 70
     0
 70
     0
 40
1.0
  2
Revision_Memo_1
  1
Embedded Object
 10
155.6
 20
138.0241925130958
 30
0.0
 40
2.000000029802321
 41
46.75017271010267
 46
0.0
 71
     1
 72
     5
  1

  7
Text Style40
 73
     1
 44
1.0
  0
XRECORD
  5
98D
102
{ACAD_REACTORS
330
92F
102
}
330
92F
100
AcDbXrecord
280
     1
102
ACAD_MATT_HEIGHT
140
2.000000029802321
  0
XRECORD
  5
990
102
{ACAD_REACTORS
330
931
102
}
330
931
100
AcDbXrecord
280
     1
 70
     4
 70
     0
 70
     0
 40
1.0
  2
Revision_Index_1
  1
Embedded Object
 10
264.6
 20
104.2741925130957
 30
0.0
 40
5.0
 41
11.14714749717635
 46
0.0
 71
     4
 72
     5
  1
A
  7
Text Style20
 73
     1
 44
1.0
  0
XRECORD
  5
98F
102
{ACAD_REACTORS
330
931
102
}
330
931
100
AcDbXrecord
280
     1
102
ACAD_MATT_HEIGHT
140
5.0
  0
XRECORD
  5
992
102
{ACAD_REACTORS
330
933
102
}
330
933
100
AcDbXrecord
280
     1
 70
     4
 70
     0
 70
     0
 40
1.0
  2
Sheet_Size
  1
Embedded Object
 10
205.6
 20
104.2741925130957
 30
0.0
 40
5.0
 41
44.17438307011514
 46
0.0
 71
     4
 72
     5
  1
A4
  7
Text Style20
 73
     1
 44
1.0
  0
XRECORD
  5
991
102
{ACAD_REACTORS
330
933
102
}
330
933
100
AcDbXrecord
280
     1
102
ACAD_MATT_HEIGHT
140
5.0
  0
XRECORD
  5
994
102
{ACAD_REACTORS
330
935
102
}
330
935
100
AcDbXrecord
280
     1
 70
     4
 70
     0
 70
     0
 40
1.0
  2
Drawn_By
  1
Embedded Object
 10
90.6
 20
141.0241925130958
 30
0.0
 40
2.000000029802321
 41
14.31996733840145
 46
0.0
 71
     4
 72
     5
  1
Rataj
  7
Text Style40
 73
     1
 44
1.0
  0
XRECORD
  5
993
102
{ACAD_REACTORS
330
935
102
}
330
935
100
AcDbXrecord
280
     1
102
ACAD_MATT_HEIGHT
140
2.000000029802321
  0
XRECORD
  5
996
102
{ACAD_REACTORS
330
937
102
}
330
937
100
AcDbXrecord
280
     1
 70
     4
 70
     0
 70
     0
 40
1.0
  2
Modified_By
  1
Embedded Object
 10
90.6
 20
133.5241925130958
 30
0.0
 40
2.000000029802321
 41
13.91658797675633
 46
0.0
 71
     4
 72
     5
  1

  7
Text Style40
 73
     1
 44
1.0
  0
XRECORD
  5
995
102
{ACAD_REACTORS
330
937
102
}
330
937
100
AcDbXrecord
280
     1
102
ACAD_MATT_HEIGHT
140
2.000000029802321
  0
XRECORD
  5
998
102
{ACAD_REACTORS
330
939
102
}
330
939
100
AcDbXrecord
280
     1
 70
     4
 70
     0
 70
     0
 40
1.0
  2
Drawn_Date
  1
Embedded Object
 10
135.6
 20
141.0241925130958
 30
0.0
 40
2.000000029802321
 41
20.97572680554579
 46
0.0
 71
     4
 72
     5
  1
05.03.2010
  7
Text Style40
 73
     1
 44
1.0
  0
XRECORD
  5
997
102
{ACAD_REACTORS
330
939
102
}
330
939
100
AcDbXrecord
280
     1
102
ACAD_MATT_HEIGHT
140
2.000000029802321
  0
XRECORD
  5
99A
102
{ACAD_REACTORS
330
93B
102
}
330
93B
100
AcDbXrecord
280
     1
 70
     4
 70
     0
 70
     0
 40
1.0
  2
Modified_Date
  1
Embedded Object
 10
135.6
 20
133.5241925130958
 30
0.0
 40
2.000000029802321
 41
20.16896808225555
 46
0.0
 71
     4
 72
     5
  1

  7
Text Style40
 73
     1
 44
1.0
  0
XRECORD
  5
999
102
{ACAD_REACTORS
330
93B
102
}
330
93B
100
AcDbXrecord
280
     1
102
ACAD_MATT_HEIGHT
140
2.000000029802321
  0
XRECORD
  5
99C
102
{ACAD_REACTORS
330
93D
102
}
330
93D
100
AcDbXrecord
280
     1
 70
     4
 70
     0
 70
     0
 40
1.0
  2
Revision_Titel_1
  1
Embedded Object
 10
155.6
 20
141.0241925130958
 30
0.0
 40
2.000000029802321
 41
52.8572926113155
 46
0.0
 71
     4
 72
     5
  1

  7
Text Style40
 73
     1
 44
1.0
  0
XRECORD
  5
99B
102
{ACAD_REACTORS
330
93D
102
}
330
93D
100
AcDbXrecord
280
     1
102
ACAD_MATT_HEIGHT
140
2.000000029802321
  0
XRECORD
  5
99E
102
{ACAD_REACTORS
330
93F
102
}
330
93F
100
AcDbXrecord
280
     1
 70
     4
 70
     0
 70
     0
 40
1.0
  2
Sheet_number
  1
Embedded Object
 10
278.35
 20
104.2741925130957
 30
0.0
 40
5.0
 41
0.0
 46
0.0
 71
     5
 72
     5
  1
\W0.9000;1 
  7
Text__5.0mm
 73
     1
 44
1.0
  0
XRECORD
  5
99D
102
{ACAD_REACTORS
330
93F
102
}
330
93F
100
AcDbXrecord
280
     1
102
ACAD_MATT_HEIGHT
140
5.0
  0
XRECORD
  5
9A0
102
{ACAD_REACTORS
330
941
102
}
330
941
100
AcDbXrecord
280
     1
 70
     4
 70
     0
 70
     0
 40
1.0
  2
Number_of_sheets
  1
Embedded Object
 10
285.85
 20
104.2741925130957
 30
0.0
 40
5.0
 41
0.0
 46
0.0
 71
     5
 72
     5
  1
\W0.9000;4 
  7
Text__5.0mm
 73
     1
 44
1.0
  0
XRECORD
  5
99F
102
{ACAD_REACTORS
330
941
102
}
330
941
100
AcDbXrecord
280
     1
102
ACAD_MATT_HEIGHT
140
5.0
  0
XRECORD
  5
9A2
102
{ACAD_REACTORS
330
943
102
}
330
943
100
AcDbXrecord
280
     1
 70
     4
 70
     0
 70
     0
 40
1.0
  2
FUN
  1
Embedded Object
 10
205.6
 20
133.5241925130958
 30
0.0
 40
2.5
 41
35.7212232739224
 46
0.0
 71
     4
 72
     5
  1

  7
Text Style38
 73
     1
 44
1.0
  0
XRECORD
  5
9A1
102
{ACAD_REACTORS
330
943
102
}
330
943
100
AcDbXrecord
280
     1
102
ACAD_MATT_HEIGHT
140
2.5
  0
XRECORD
  5
9A4
102
{ACAD_REACTORS
330
945
102
}
330
945
100
AcDbXrecord
280
     1
 70
     4
 70
     0
 70
     0
 40
1.0
  2
EAN
  1
Embedded Object
 10
248.1
 20
133.5241925130958
 30
0.0
 40
2.5
 41
35.7212232739224
 46
0.0
 71
     4
 72
     5
  1
7612982130793
  7
Text Style38
 73
     1
 44
1.0
  0
XRECORD
  5
9A3
102
{ACAD_REACTORS
330
945
102
}
330
945
100
AcDbXrecord
280
     1
102
ACAD_MATT_HEIGHT
140
2.5
  0
XRECORD
  5
9A6
102
{ACAD_REACTORS
330
947
102
}
330
947
100
AcDbXrecord
280
     1
 70
     4
 70
     0
 70
     0
 40
1.0
  2
Departement
  1
Embedded Object
 10
110.6
 20
133.5241925130958
 30
0.0
 40
2.000000029802321
 41
17.55611008168829
 46
0.0
 71
     4
 72
     5
  1
FAR-Marketing
  7
Text Style40
 73
     1
 44
1.0
  0
XRECORD
  5
9A5
102
{ACAD_REACTORS
330
947
102
}
330
947
100
AcDbXrecord
280
     1
102
ACAD_MATT_HEIGHT
140
2.000000029802321
  0
XRECORD
  5
9A8
102
{ACAD_REACTORS
330
949
102
}
330
949
100
AcDbXrecord
280
     1
 70
     4
 70
     0
 70
     0
 40
1.0
  2
Departement
  1
Embedded Object
 10
110.6
 20
141.0241925130958
 30
0.0
 40
2.000000029802321
 41
18.45803981954006
 46
0.0
 71
     4
 72
     5
  1
FAR-Marketing
  7
Text Style40
 73
     1
 44
1.0
  0
XRECORD
  5
9A7
102
{ACAD_REACTORS
330
949
102
}
330
949
100
AcDbXrecord
280
     1
102
ACAD_MATT_HEIGHT
140
2.000000029802321
  0
XRECORD
  5
95E
102
{ACAD_REACTORS
330
7B4
102
}
330
7B4
100
AcDbXrecord
280
     1
 70
     2
 70
     0
 70
     0
 40
1.0
  2
Title
  1
Embedded Object
 10
390.4
 20
98.40000000000021
 30
0.0
 40
16.0
 41
285.2595904844443
 46
0.0
 71
     4
 72
     5
  1
Münzkontaktgeber
  7
Text Style20
 73
     1
 44
1.0
  0
XRECORD
  5
95D
102
{ACAD_REACTORS
330
7B4
102
}
330
7B4
100
AcDbXrecord
280
     1
102
ACAD_MATT_HEIGHT
140
16.0
  0
XRECORD
  5
960
102
{ACAD_REACTORS
330
7B7
102
}
330
7B7
100
AcDbXrecord
280
     1
 70
     2
 70
     0
 70
     0
 40
1.0
  2
Auxiliary_Remark1
  1
Embedded Object
 10
390.4000000000002
 20
77.60000000000019
 30
0.0
 40
11.19999980926513
 41
284.3483642201117
 46
0.0
 71
     4
 72
     5
  1
AQUA802
  7
Text Style9
 73
     1
 44
1.0
  0
XRECORD
  5
95F
102
{ACAD_REACTORS
330
7B7
102
}
330
7B7
100
AcDbXrecord
280
     1
102
ACAD_MATT_HEIGHT
140
11.19999980926513
  0
XRECORD
  5
962
102
{ACAD_REACTORS
330
7BA
102
}
330
7BA
100
AcDbXrecord
280
     1
 70
     2
 70
     0
 70
     0
 40
1.0
  2
Auxiliary_Remark2
  1
Embedded Object
 10
390.4
 20
56.80000000000024
 30
0.0
 40
11.19999980926513
 41
283.2179206611511
 46
0.0
 71
     4
 72
     5
  1
Marketingzeichnung
  7
Text Style9
 73
     1
 44
1.0
  0
XRECORD
  5
961
102
{ACAD_REACTORS
330
7BA
102
}
330
7BA
100
AcDbXrecord
280
     1
102
ACAD_MATT_HEIGHT
140
11.19999980926513
  0
XRECORD
  5
964
102
{ACAD_REACTORS
330
7BD
102
}
330
7BD
100
AcDbXrecord
280
     1
 70
     2
 70
     0
 70
     0
 40
1.0
  2
Part_number
  1
Embedded Object
 10
523.2
 20
146.4000000000002
 30
0.0
 40
8.0
 41
114.3079144765517
 46
0.0
 71
     4
 72
     5
  1
49020804
  7
Text Style38
 73
     1
 44
1.0
  0
XRECORD
  5
963
102
{ACAD_REACTORS
330
7BD
102
}
330
7BD
100
AcDbXrecord
280
     1
102
ACAD_MATT_HEIGHT
140
8.0
  0
XRECORD
  5
966
102
{ACAD_REACTORS
330
7C0
102
}
330
7C0
100
AcDbXrecord
280
     1
 70
     2
 70
     0
 70
     0
 40
1.0
  2
Document_Number
  1
Embedded Object
 10
427.2
 20
28.80000000000001
 30
0.0
 40
16.0
 41
144.8339221461252
 46
0.0
 71
     4
 72
     5
  1
0222-218141
  7
Text Style20
 73
     1
 44
1.0
  0
XRECORD
  5
965
102
{ACAD_REACTORS
330
7C0
102
}
330
7C0
100
AcDbXrecord
280
     1
102
ACAD_MATT_HEIGHT
140
16.0
  0
XRECORD
  5
968
102
{ACAD_REACTORS
330
7C3
102
}
330
7C3
100
AcDbXrecord
280
     1
 70
     2
 70
     0
 70
     0
 40
1.0
  2
Revision_Memo_1
  1
Embedded Object
 10
227.2
 20
136.8000000000001
 30
0.0
 40
6.400000095367431
 41
149.6005526723285
 46
0.0
 71
     1
 72
     5
  1

  7
Text Style40
 73
     1
 44
1.0
  0
XRECORD
  5
967
102
{ACAD_REACTORS
330
7C3
102
}
330
7C3
100
AcDbXrecord
280
     1
102
ACAD_MATT_HEIGHT
140
6.400000095367431
  0
XRECORD
  5
96A
102
{ACAD_REACTORS
330
7C6
102
}
330
7C6
100
AcDbXrecord
280
     1
 70
     2
 70
     0
 70
     0
 40
1.0
  2
Revision_Index_1
  1
Embedded Object
 10
576.0
 20
28.79999999999985
 30
0.0
 40
16.0
 41
35.67087199096433
 46
0.0
 71
     4
 72
     5
  1
A
  7
Text Style20
 73
     1
 44
1.0
  0
XRECORD
  5
969
102
{ACAD_REACTORS
330
7C6
102
}
330
7C6
100
AcDbXrecord
280
     1
102
ACAD_MATT_HEIGHT
140
16.0
  0
XRECORD
  5
96C
102
{ACAD_REACTORS
330
7C9
102
}
330
7C9
100
AcDbXrecord
280
     1
 70
     2
 70
     0
 70
     0
 40
1.0
  2
Sheet_Size
  1
Embedded Object
 10
387.2
 20
28.80000000000001
 30
0.0
 40
16.0
 41
141.3580258243685
 46
0.0
 71
     4
 72
     5
  1
A4
  7
Text Style20
 73
     1
 44
1.0
  0
XRECORD
  5
96B
102
{ACAD_REACTORS
330
7C9
102
}
330
7C9
100
AcDbXrecord
280
     1
102
ACAD_MATT_HEIGHT
140
16.0
  0
XRECORD
  5
96E
102
{ACAD_REACTORS
330
7CC
102
}
330
7CC
100
AcDbXrecord
280
     1
 70
     2
 70
     0
 70
     0
 40
1.0
  2
Drawn_By
  1
Embedded Object
 10
19.19999999999993
 20
146.4000000000002
 30
0.0
 40
6.400000095367431
 41
45.82389548288467
 46
0.0
 71
     4
 72
     5
  1
Rataj
  7
Text Style40
 73
     1
 44
1.0
  0
XRECORD
  5
96D
102
{ACAD_REACTORS
330
7CC
102
}
330
7CC
100
AcDbXrecord
280
     1
102
ACAD_MATT_HEIGHT
140
6.400000095367431
  0
XRECORD
  5
970
102
{ACAD_REACTORS
330
7CF
102
}
330
7CF
100
AcDbXrecord
280
     1
 70
     2
 70
     0
 70
     0
 40
1.0
  2
Modified_By
  1
Embedded Object
 10
19.19999999999993
 20
122.4000000000002
 30
0.0
 40
6.400000095367431
 41
44.53308152562026
 46
0.0
 71
     4
 72
     5
  1

  7
Text Style40
 73
     1
 44
1.0
  0
XRECORD
  5
96F
102
{ACAD_REACTORS
330
7CF
102
}
330
7CF
100
AcDbXrecord
280
     1
102
ACAD_MATT_HEIGHT
140
6.400000095367431
  0
XRECORD
  5
972
102
{ACAD_REACTORS
330
7D2
102
}
330
7D2
100
AcDbXrecord
280
     1
 70
     2
 70
     0
 70
     0
 40
1.0
  2
Drawn_Date
  1
Embedded Object
 10
163.2
 20
146.4000000000002
 30
0.0
 40
6.400000095367431
 41
67.12232577774654
 46
0.0
 71
     4
 72
     5
  1
05.03.2010
  7
Text Style40
 73
     1
 44
1.0
  0
XRECORD
  5
971
102
{ACAD_REACTORS
330
7D2
102
}
330
7D2
100
AcDbXrecord
280
     1
102
ACAD_MATT_HEIGHT
140
6.400000095367431
  0
XRECORD
  5
974
102
{ACAD_REACTORS
330
7D5
102
}
330
7D5
100
AcDbXrecord
280
     1
 70
     2
 70
     0
 70
     0
 40
1.0
  2
Modified_Date
  1
Embedded Object
 10
163.2
 20
122.4000000000002
 30
0.0
 40
6.400000095367431
 41
64.54069786321776
 46
0.0
 71
     4
 72
     5
  1

  7
Text Style40
 73
     1
 44
1.0
  0
XRECORD
  5
973
102
{ACAD_REACTORS
330
7D5
102
}
330
7D5
100
AcDbXrecord
280
     1
102
ACAD_MATT_HEIGHT
140
6.400000095367431
  0
XRECORD
  5
976
102
{ACAD_REACTORS
330
7D8
102
}
330
7D8
100
AcDbXrecord
280
     1
 70
     2
 70
     0
 70
     0
 40
1.0
  2
Revision_Titel_1
  1
Embedded Object
 10
227.2
 20
146.4000000000001
 30
0.0
 40
6.400000095367431
 41
169.1433363562096
 46
0.0
 71
     4
 72
     5
  1

  7
Text Style40
 73
     1
 44
1.0
  0
XRECORD
  5
975
102
{ACAD_REACTORS
330
7D8
102
}
330
7D8
100
AcDbXrecord
280
     1
102
ACAD_MATT_HEIGHT
140
6.400000095367431
  0
XRECORD
  5
978
102
{ACAD_REACTORS
330
7DB
102
}
330
7DB
100
AcDbXrecord
280
     1
 70
     2
 70
     0
 70
     0
 40
1.0
  2
Sheet_number
  1
Embedded Object
 10
620.0
 20
28.79999999999985
 30
0.0
 40
16.0
 41
0.0
 46
0.0
 71
     5
 72
     5
  1
\W0.9000;1 
  7
Text__5.0mm
 73
     1
 44
1.0
  0
XRECORD
  5
977
102
{ACAD_REACTORS
330
7DB
102
}
330
7DB
100
AcDbXrecord
280
     1
102
ACAD_MATT_HEIGHT
140
16.0
  0
XRECORD
  5
97A
102
{ACAD_REACTORS
330
7DE
102
}
330
7DE
100
AcDbXrecord
280
     1
 70
     2
 70
     0
 70
     0
 40
1.0
  2
Number_of_sheets
  1
Embedded Object
 10
644.0
 20
28.79999999999985
 30
0.0
 40
16.0
 41
0.0
 46
0.0
 71
     5
 72
     5
  1
\W0.9000;4 
  7
Text__5.0mm
 73
     1
 44
1.0
  0
XRECORD
  5
979
102
{ACAD_REACTORS
330
7DE
102
}
330
7DE
100
AcDbXrecord
280
     1
102
ACAD_MATT_HEIGHT
140
16.0
  0
XRECORD
  5
97C
102
{ACAD_REACTORS
330
7E1
102
}
330
7E1
100
AcDbXrecord
280
     1
 70
     2
 70
     0
 70
     0
 40
1.0
  2
FUN
  1
Embedded Object
 10
387.2
 20
122.4000000000002
 30
0.0
 40
8.0
 41
114.3079144765517
 46
0.0
 71
     4
 72
     5
  1

  7
Text Style38
 73
     1
 44
1.0
  0
XRECORD
  5
97B
102
{ACAD_REACTORS
330
7E1
102
}
330
7E1
100
AcDbXrecord
280
     1
102
ACAD_MATT_HEIGHT
140
8.0
  0
XRECORD
  5
97E
102
{ACAD_REACTORS
330
7E4
102
}
330
7E4
100
AcDbXrecord
280
     1
 70
     2
 70
     0
 70
     0
 40
1.0
  2
EAN
  1
Embedded Object
 10
523.2
 20
122.4000000000002
 30
0.0
 40
8.0
 41
114.3079144765517
 46
0.0
 71
     4
 72
     5
  1
7612982130793
  7
Text Style38
 73
     1
 44
1.0
  0
XRECORD
  5
97D
102
{ACAD_REACTORS
330
7E4
102
}
330
7E4
100
AcDbXrecord
280
     1
102
ACAD_MATT_HEIGHT
140
8.0
  0
XRECORD
  5
980
102
{ACAD_REACTORS
330
7E7
102
}
330
7E7
100
AcDbXrecord
280
     1
 70
     2
 70
     0
 70
     0
 40
1.0
  2
Departement
  1
Embedded Object
 10
83.19999999999993
 20
122.4000000000002
 30
0.0
 40
6.400000095367431
 41
56.17955226140253
 46
0.0
 71
     4
 72
     5
  1
Marketing
  7
Text Style40
 73
     1
 44
1.0
  0
XRECORD
  5
97F
102
{ACAD_REACTORS
330
7E7
102
}
330
7E7
100
AcDbXrecord
280
     1
102
ACAD_MATT_HEIGHT
140
6.400000095367431
  0
XRECORD
  5
982
102
{ACAD_REACTORS
330
7EA
102
}
330
7EA
100
AcDbXrecord
280
     1
 70
     2
 70
     0
 70
     0
 40
1.0
  2
Departement
  1
Embedded Object
 10
83.19999999999993
 20
146.4000000000002
 30
0.0
 40
6.400000095367431
 41
59.06572742252819
 46
0.0
 71
     4
 72
     5
  1
Marketing
  7
Text Style40
 73
     1
 44
1.0
  0
XRECORD
  5
981
102
{ACAD_REACTORS
330
7EA
102
}
330
7EA
100
AcDbXrecord
280
     1
102
ACAD_MATT_HEIGHT
140
6.400000095367431
  0
ACDBDETAILVIEWSTYLE
  5
826
102
{ACAD_XDICTIONARY
360
9E8
102
}
102
{ACAD_REACTORS
330
825
102
}
330
825
100
AcDbModelDocViewStyle
 70
     0
  3
Metric50
290
     0
100
AcDbDetailViewStyle
 70
     0
 71
     0
 90
        3
 71
     1
340
60
 40
5.0
340
0
 40
5.0
300

 40
0.0
280
     1
 71
     2
340
68
 90
       25
 71
     3
340
60
 40
5.0
 90
        0
 40
15.0
 90
        1
300
%<\AcVar ViewDetailId>% (%<\AcVar ViewScale \f "%sn">%)
 71
     4
340
68
 90
       25
340
68
 90
       25
280
     0
  0
LAYOUT
  5
76
102
{ACAD_XDICTIONARY
360
9D2
102
}
102
{ACAD_REACTORS
330
6D
102
}
330
6D
100
AcDbPlotSettings
  1

  2

  4

  6

 40
0.0
 41
0.0
 42
0.0
 43
0.0
 44
0.0
 45
0.0
 46
0.0
 47
0.0
 48
0.0
 49
0.0
140
0.0
141
0.0
142
1.0
143
1.0
 70
   688
 72
     0
 73
     0
 74
     5
  7

 75
    16
147
1.0
148
0.0
149
0.0
100
AcDbLayout
  1
Layout1
 70
     1
 71
     1
 10
0.0
 20
0.0
 11
672.0
 21
950.3999999999999
 12
0.0
 22
0.0
 32
0.0
 14
0.0
 24
0.0
 34
0.0
 15
672.0
 25
950.3999999999999
 35
0.0
146
0.0
 13
0.0
 23
0.0
 33
0.0
 16
1.0
 26
0.0
 36
0.0
 17
0.0
 27
1.0
 37
0.0
 76
     0
330
73
  0
LAYOUT
  5
7E
102
{ACAD_XDICTIONARY
360
9D6
102
}
102
{ACAD_REACTORS
330
6D
102
}
330
6D
100
AcDbPlotSettings
  1

  2

  4

  6

 40
0.0
 41
0.0
 42
0.0
 43
0.0
 44
0.0
 45
0.0
 46
0.0
 47
0.0
 48
0.0
 49
0.0
140
0.0
141
0.0
142
1.0
143
1.0
 70
   688
 72
     0
 73
     0
 74
     5
  7

 75
    16
147
1.0
148
0.0
149
0.0
100
AcDbLayout
  1
Layout2
 70
     1
 71
     2
 10
0.0
 20
0.0
 11
12.0
 21
9.0
 12
0.0
 22
0.0
 32
0.0
 14
0.0
 24
0.0
 34
0.0
 15
0.0
 25
0.0
 35
0.0
146
0.0
 13
0.0
 23
0.0
 33
0.0
 16
1.0
 26
0.0
 36
0.0
 17
0.0
 27
1.0
 37
0.0
 76
     0
330
7B
  0
LAYOUT
  5
7A
102
{ACAD_XDICTIONARY
360
9D4
102
}
102
{ACAD_REACTORS
330
6D
102
}
330
6D
100
AcDbPlotSettings
  1

  2

  4

  6

 40
0.0
 41
0.0
 42
0.0
 43
0.0
 44
0.0
 45
0.0
 46
0.0
 47
0.0
 48
0.0
 49
0.0
140
0.0
141
0.0
142
1.0
143
1.0
 70
  1712
 72
     0
 73
     0
 74
     0
  7

 75
     0
147
1.0
148
0.0
149
0.0
100
AcDbLayout
  1
Model
 70
     1
 71
     0
 10
0.0
 20
0.0
 11
12.0
 21
9.0
 12
0.0
 22
0.0
 32
0.0
 14
0.0
 24
0.0
 34
0.0
 15
0.0
 25
0.0
 35
0.0
146
0.0
 13
0.0
 23
0.0
 33
0.0
 16
1.0
 26
0.0
 36
0.0
 17
0.0
 27
1.0
 37
0.0
 76
     0
330
77
331
62
  0
MATERIAL
  5
19
102
{ACAD_XDICTIONARY
360
1A
102
}
102
{ACAD_REACTORS
330
10
102
}
330
10
100
AcDbMaterial
  1
ByBlock
 72
     0
 43
0.0208333333333333
 43
0.0
 43
0.0
 43
0.0
 43
0.0
 43
0.0208333333333333
 43
0.0
 43
0.0
 43
0.0
 43
0.0
 43
1.0
 43
0.0
 43
0.0
 43
0.0
 43
0.0
 43
1.0
 77
     0
 47
0.0208333333333333
 47
0.0
 47
0.0
 47
0.0
 47
0.0
 47
0.0208333333333333
 47
0.0
 47
0.0
 47
0.0
 47
0.0
 47
1.0
 47
0.0
 47
0.0
 47
0.0
 47
0.0
 47
1.0
171
     0
 49
0.0208333333333333
 49
0.0
 49
0.0
 49
0.0
 49
0.0
 49
0.0208333333333333
 49
0.0
 49
0.0
 49
0.0
 49
0.0
 49
1.0
 49
0.0
 49
0.0
 49
0.0
 49
0.0
 49
1.0
175
     0
142
0.0208333333333333
142
0.0
142
0.0
142
0.0
142
0.0
142
0.0208333333333333
142
0.0
142
0.0
142
0.0
142
0.0
142
1.0
142
0.0
142
0.0
142
0.0
142
0.0
142
1.0
179
     0
144
0.0208333333333333
144
0.0
144
0.0
144
0.0
144
0.0
144
0.0208333333333333
144
0.0
144
0.0
144
0.0
144
0.0
144
1.0
144
0.0
144
0.0
144
0.0
144
0.0
144
1.0
147
0.0208333333333333
147
0.0
147
0.0
147
0.0
147
0.0
147
0.0208333333333333
147
0.0
147
0.0
147
0.0
147
0.0
147
1.0
147
0.0
147
0.0
147
0.0
147
0.0
147
1.0
  0
MATERIAL
  5
11
102
{ACAD_XDICTIONARY
360
12
102
}
102
{ACAD_REACTORS
330
10
102
}
330
10
100
AcDbMaterial
  1
ByLayer
 72
     0
 43
0.0208333333333333
 43
0.0
 43
0.0
 43
0.0
 43
0.0
 43
0.0208333333333333
 43
0.0
 43
0.0
 43
0.0
 43
0.0
 43
1.0
 43
0.0
 43
0.0
 43
0.0
 43
0.0
 43
1.0
 77
     0
 47
0.0208333333333333
 47
0.0
 47
0.0
 47
0.0
 47
0.0
 47
0.0208333333333333
 47
0.0
 47
0.0
 47
0.0
 47
0.0
 47
1.0
 47
0.0
 47
0.0
 47
0.0
 47
0.0
 47
1.0
171
     0
 49
0.0208333333333333
 49
0.0
 49
0.0
 49
0.0
 49
0.0
 49
0.0208333333333333
 49
0.0
 49
0.0
 49
0.0
 49
0.0
 49
1.0
 49
0.0
 49
0.0
 49
0.0
 49
0.0
 49
1.0
175
     0
142
0.0208333333333333
142
0.0
142
0.0
142
0.0
142
0.0
142
0.0208333333333333
142
0.0
142
0.0
142
0.0
142
0.0
142
1.0
142
0.0
142
0.0
142
0.0
142
0.0
142
1.0
179
     0
144
0.0208333333333333
144
0.0
144
0.0
144
0.0
144
0.0
144
0.0208333333333333
144
0.0
144
0.0
144
0.0
144
0.0
144
1.0
144
0.0
144
0.0
144
0.0
144
0.0
144
1.0
147
0.0208333333333333
147
0.0
147
0.0
147
0.0
147
0.0
147
0.0208333333333333
147
0.0
147
0.0
147
0.0
147
0.0
147
1.0
147
0.0
147
0.0
147
0.0
147
0.0
147
1.0
  0
MATERIAL
  5
21
102
{ACAD_XDICTIONARY
360
22
102
}
102
{ACAD_REACTORS
330
10
102
}
330
10
100
AcDbMaterial
  1
Global
 72
     0
 43
0.0208333333333333
 43
0.0
 43
0.0
 43
0.0
 43
0.0
 43
0.0208333333333333
 43
0.0
 43
0.0
 43
0.0
 43
0.0
 43
1.0
 43
0.0
 43
0.0
 43
0.0
 43
0.0
 43
1.0
 77
     0
 47
0.0208333333333333
 47
0.0
 47
0.0
 47
0.0
 47
0.0
 47
0.0208333333333333
 47
0.0
 47
0.0
 47
0.0
 47
0.0
 47
1.0
 47
0.0
 47
0.0
 47
0.0
 47
0.0
 47
1.0
171
     0
 49
0.0208333333333333
 49
0.0
 49
0.0
 49
0.0
 49
0.0
 49
0.0208333333333333
 49
0.0
 49
0.0
 49
0.0
 49
0.0
 49
1.0
 49
0.0
 49
0.0
 49
0.0
 49
0.0
 49
1.0
175
     0
142
0.0208333333333333
142
0.0
142
0.0
142
0.0
142
0.0
142
0.0208333333333333
142
0.0
142
0.0
142
0.0
142
0.0
142
1.0
142
0.0
142
0.0
142
0.0
142
0.0
142
1.0
179
     0
144
0.0208333333333333
144
0.0
144
0.0
144
0.0
144
0.0
144
0.0208333333333333
144
0.0
144
0.0
144
0.0
144
0.0
144
1.0
144
0.0
144
0.0
144
0.0
144
0.0
144
1.0
147
0.0208333333333333
147
0.0
147
0.0
147
0.0
147
0.0
147
0.0208333333333333
147
0.0
147
0.0
147
0.0
147
0.0
147
1.0
147
0.0
147
0.0
147
0.0
147
0.0
147
1.0
  0
MLEADERSTYLE
  5
72
102
{ACAD_REACTORS
330
71
102
}
330
71
100
AcDbMLeaderStyle
170
     2
171
     1
172
     0
 90
        2
 40
0.0
 41
0.0
173
     1
 91
-1056964608
340
66
 92
       -2
290
     1
 42
0.09
291
     1
 43
0.36
  3
Standard
 44
0.18
300

342
60
174
     1
178
     6
175
     1
176
     0
 93
-1056964608
 45
0.18
292
     0
297
     0
 46
0.18
 94
-1056964608
 47
1.0
 49
1.0
140
1.0
293
     1
141
0.0
294
     1
177
     0
142
1.0
295
     0
296
     0
143
0.125
1001
ACAD_MLEADERVER
1070
     2
  0
MLINESTYLE
  5
6B
102
{ACAD_REACTORS
330
6A
102
}
330
6A
100
AcDbMlineStyle
  2
STANDARD
 70
     0
  3

 62
   256
 51
90.0
 52
90.0
 71
     2
 49
0.5
 62
   256
  6
BYLAYER
 49
-0.5
 62
   256
  6
BYLAYER
  0
ACDBPLACEHOLDER
  5
F
102
{ACAD_REACTORS
330
E
102
}
330
E
  0
SCALE
  5
3E
102
{ACAD_REACTORS
330
3D
102
}
330
3D
100
AcDbScale
 70
     0
300
1:1
140
1.0
141
1.0
290
     1
  0
SCALE
  5
3F
102
{ACAD_REACTORS
330
3D
102
}
330
3D
100
AcDbScale
 70
     0
300
1:2
140
1.0
141
2.0
290
     0
  0
SCALE
  5
40
102
{ACAD_REACTORS
330
3D
102
}
330
3D
100
AcDbScale
 70
     0
300
1:4
140
1.0
141
4.0
290
     0
  0
SCALE
  5
41
102
{ACAD_REACTORS
330
3D
102
}
330
3D
100
AcDbScale
 70
     0
300
1:5
140
1.0
141
5.0
290
     0
  0
SCALE
  5
42
102
{ACAD_REACTORS
330
3D
102
}
330
3D
100
AcDbScale
 70
     0
300
1:8
140
1.0
141
8.0
290
     0
  0
SCALE
  5
43
102
{ACAD_REACTORS
330
3D
102
}
330
3D
100
AcDbScale
 70
     0
300
1:10
140
1.0
141
10.0
290
     0
  0
SCALE
  5
44
102
{ACAD_REACTORS
330
3D
102
}
330
3D
100
AcDbScale
 70
     0
300
1:16
140
1.0
141
16.0
290
     0
  0
SCALE
  5
45
102
{ACAD_REACTORS
330
3D
102
}
330
3D
100
AcDbScale
 70
     0
300
1:20
140
1.0
141
20.0
290
     0
  0
SCALE
  5
46
102
{ACAD_REACTORS
330
3D
102
}
330
3D
100
AcDbScale
 70
     0
300
1:30
140
1.0
141
30.0
290
     0
  0
SCALE
  5
47
102
{ACAD_REACTORS
330
3D
102
}
330
3D
100
AcDbScale
 70
     0
300
1:40
140
1.0
141
40.0
290
     0
  0
SCALE
  5
48
102
{ACAD_REACTORS
330
3D
102
}
330
3D
100
AcDbScale
 70
     0
300
1:50
140
1.0
141
50.0
290
     0
  0
SCALE
  5
49
102
{ACAD_REACTORS
330
3D
102
}
330
3D
100
AcDbScale
 70
     0
300
1:100
140
1.0
141
100.0
290
     0
  0
SCALE
  5
4A
102
{ACAD_REACTORS
330
3D
102
}
330
3D
100
AcDbScale
 70
     0
300
2:1
140
2.0
141
1.0
290
     0
  0
SCALE
  5
4B
102
{ACAD_REACTORS
330
3D
102
}
330
3D
100
AcDbScale
 70
     0
300
4:1
140
4.0
141
1.0
290
     0
  0
SCALE
  5
4C
102
{ACAD_REACTORS
330
3D
102
}
330
3D
100
AcDbScale
 70
     0
300
8:1
140
8.0
141
1.0
290
     0
  0
SCALE
  5
4D
102
{ACAD_REACTORS
330
3D
102
}
330
3D
100
AcDbScale
 70
     0
300
10:1
140
10.0
141
1.0
290
     0
  0
SCALE
  5
4E
102
{ACAD_REACTORS
330
3D
102
}
330
3D
100
AcDbScale
 70
     0
300
100:1
140
100.0
141
1.0
290
     0
  0
SCALE
  5
4F
102
{ACAD_REACTORS
330
3D
102
}
330
3D
100
AcDbScale
 70
     0
300
1/128" = 1'-0"
140
0.0078125
141
12.0
290
     0
  0
SCALE
  5
50
102
{ACAD_REACTORS
330
3D
102
}
330
3D
100
AcDbScale
 70
     0
300
1/64" = 1'-0"
140
0.015625
141
12.0
290
     0
  0
SCALE
  5
51
102
{ACAD_REACTORS
330
3D
102
}
330
3D
100
AcDbScale
 70
     0
300
1/32" = 1'-0"
140
0.03125
141
12.0
290
     0
  0
SCALE
  5
52
102
{ACAD_REACTORS
330
3D
102
}
330
3D
100
AcDbScale
 70
     0
300
1/16" = 1'-0"
140
0.0625
141
12.0
290
     0
  0
SCALE
  5
53
102
{ACAD_REACTORS
330
3D
102
}
330
3D
100
AcDbScale
 70
     0
300
3/32" = 1'-0"
140
0.09375
141
12.0
290
     0
  0
SCALE
  5
54
102
{ACAD_REACTORS
330
3D
102
}
330
3D
100
AcDbScale
 70
     0
300
1/8" = 1'-0"
140
0.125
141
12.0
290
     0
  0
SCALE
  5
55
102
{ACAD_REACTORS
330
3D
102
}
330
3D
100
AcDbScale
 70
     0
300
3/16" = 1'-0"
140
0.1875
141
12.0
290
     0
  0
SCALE
  5
56
102
{ACAD_REACTORS
330
3D
102
}
330
3D
100
AcDbScale
 70
     0
300
1/4" = 1'-0"
140
0.25
141
12.0
290
     0
  0
SCALE
  5
57
102
{ACAD_REACTORS
330
3D
102
}
330
3D
100
AcDbScale
 70
     0
300
3/8" = 1'-0"
140
0.375
141
12.0
290
     0
  0
SCALE
  5
58
102
{ACAD_REACTORS
330
3D
102
}
330
3D
100
AcDbScale
 70
     0
300
1/2" = 1'-0"
140
0.5
141
12.0
290
     0
  0
SCALE
  5
59
102
{ACAD_REACTORS
330
3D
102
}
330
3D
100
AcDbScale
 70
     0
300
3/4" = 1'-0"
140
0.75
141
12.0
290
     0
  0
SCALE
  5
5A
102
{ACAD_REACTORS
330
3D
102
}
330
3D
100
AcDbScale
 70
     0
300
1" = 1'-0"
140
1.0
141
12.0
290
     0
  0
SCALE
  5
5B
102
{ACAD_REACTORS
330
3D
102
}
330
3D
100
AcDbScale
 70
     0
300
1-1/2" = 1'-0"
140
1.5
141
12.0
290
     0
  0
SCALE
  5
5C
102
{ACAD_REACTORS
330
3D
102
}
330
3D
100
AcDbScale
 70
     0
300
3" = 1'-0"
140
3.0
141
12.0
290
     0
  0
SCALE
  5
5D
102
{ACAD_REACTORS
330
3D
102
}
330
3D
100
AcDbScale
 70
     0
300
6" = 1'-0"
140
6.0
141
12.0
290
     0
  0
SCALE
  5
5E
102
{ACAD_REACTORS
330
3D
102
}
330
3D
100
AcDbScale
 70
     0
300
1'-0" = 1'-0"
140
12.0
141
12.0
290
     0
  0
ACDBSECTIONVIEWSTYLE
  5
824
102
{ACAD_XDICTIONARY
360
9E6
102
}
102
{ACAD_REACTORS
330
823
102
}
330
823
100
AcDbModelDocViewStyle
 70
     0
  3
Metric50
290
     0
100
AcDbSectionViewStyle
 70
     0
 71
     0
 90
      102
 71
     1
340
60
 40
5.0
340
0
340
0
 40
5.0
300
I, O, Q, S, X, Z
 40
10.0
 90
        0
 40
2.5
 90
        0
 71
     2
340
68
 90
       25
340
68
 90
       50
 40
5.0
 40
2.5
 40
5.0
 71
     3
340
60
 40
5.0
 90
        0
 40
15.0
 90
        1
300
%<\AcVar ViewSectionStartId>%-%<\AcVar ViewSectionEndId>% (%<\AcVar ViewScale \f "%sn">%)
 71
     4
300
ANSI31
 40
1.0
 90
        0
290
     0
290
     0
 90
        6
 40
0.0
 40
1.570796326794896
 40
0.2617993877991494
 40
1.308996938995747
 40
-0.2617993877991494
 40
1.832595714594046
  0
TABLESTYLE
  5
70
102
{ACAD_XDICTIONARY
360
775
102
}
102
{ACAD_REACTORS
330
6F
102
}
330
6F
100
AcDbTableStyle
  3
Standard
 70
     0
 71
     0
 40
0.06
 41
0.06
280
     0
281
     0
  7
Standard
140
0.18
170
     2
 62
     0
 63
     7
283
     0
274
    -2
284
     1
 64
     0
275
    -2
285
     1
 65
     0
276
    -2
286
     1
 66
     0
277
    -2
287
     1
 67
     0
278
    -2
288
     1
 68
     0
279
    -2
289
     1
 69
     0
  7
Standard
140
0.25
170
     5
 62
     0
 63
     7
283
     0
274
    -2
284
     1
 64
     0
275
    -2
285
     1
 65
     0
276
    -2
286
     1
 66
     0
277
    -2
287
     1
 67
     0
278
    -2
288
     1
 68
     0
279
    -2
289
     1
 69
     0
  7
Standard
140
0.18
170
     5
 62
     0
 63
     7
283
     0
274
    -2
284
     1
 64
     0
275
    -2
285
     1
 65
     0
276
    -2
286
     1
 66
     0
277
    -2
287
     1
 67
     0
278
    -2
288
     1
 68
     0
279
    -2
289
     1
 69
     0
  0
VISUALSTYLE
  5
2F
102
{ACAD_XDICTIONARY
360
9B5
102
}
102
{ACAD_REACTORS
330
29
102
}
330
29
100
AcDbVisualStyle
  2

 70
     4
 71
     0
 72
     2
 73
     0
 90
        0
 40
-0.6
 41
-30.0
 62
     5
 63
     7
 74
     1
 91
        4
 64
     7
 65
   257
 75
     1
175
     1
 42
1.0
 92
        0
 66
   257
 43
1.0
 76
     1
 77
     6
 78
     2
 67
     7
 79
     5
170
     0
171
     0
290
     0
174
     0
 93
        1
 44
0.0
173
     0
291
     0
 45
0.0
1001
ACAD
1000
AcDbSavedByObjectVersion
1070
     0
  0
VISUALSTYLE
  5
31
102
{ACAD_XDICTIONARY
360
9B9
102
}
102
{ACAD_REACTORS
330
29
102
}
330
29
100
AcDbVisualStyle
  2

 70
     6
 71
     1
 72
     2
 73
     2
 90
        0
 40
-0.6
 41
-30.0
 62
     5
 63
     7
 74
     2
 91
        2
 64
     7
 65
   257
 75
     2
175
     1
 42
179.0
 92
        0
 66
   257
 43
1.0
 76
     1
 77
     6
 78
     2
 67
     7
 79
     3
170
     0
171
     0
290
     0
174
     0
 93
        1
 44
0.0
173
     0
291
     0
 45
0.0
1001
ACAD
1000
AcDbSavedByObjectVersion
1070
     0
  0
VISUALSTYLE
  5
30
102
{ACAD_XDICTIONARY
360
9B7
102
}
102
{ACAD_REACTORS
330
29
102
}
330
29
100
AcDbVisualStyle
  2

 70
     5
 71
     0
 72
     2
 73
     0
 90
        0
 40
-0.6
 41
-30.0
 62
     5
 63
     7
 74
     1
 91
        4
 64
     7
 65
   257
 75
     1
175
     1
 42
1.0
 92
        0
 66
   257
 43
1.0
 76
     1
 77
     6
 78
     2
 67
     7
 79
     5
170
     0
171
     0
290
     0
174
     0
 93
        1
 44
0.0
173
     0
291
     0
 45
0.0
1001
ACAD
1000
AcDbSavedByObjectVersion
1070
     0
  0
VISUALSTYLE
  5
2E
102
{ACAD_XDICTIONARY
360
9B3
102
}
102
{ACAD_REACTORS
330
29
102
}
330
29
100
AcDbVisualStyle
  2

 70
     7
 71
     1
 72
     0
 73
     1
 90
        0
 40
-0.6
 41
-30.0
 62
     5
 63
     7
 74
     0
 91
        4
 64
     7
 65
   257
 75
     1
175
     1
 42
1.0
 92
        8
 66
     7
 43
1.0
 76
     1
 77
     6
 78
     2
 67
     7
 79
     5
170
     0
171
     0
290
     0
174
     0
 93
        1
 44
0.0
173
     0
291
     1
 45
0.0
1001
ACAD
1000
AcDbSavedByObjectVersion
1070
     0
  0
VISUALSTYLE
  5
35
102
{ACAD_XDICTIONARY
360
9C1
102
}
102
{ACAD_REACTORS
330
29
102
}
330
29
100
AcDbVisualStyle
  2

 70
    12
 71
     2
 72
     2
 73
     0
 90
        0
 40
-0.6
 41
-30.0
 62
     5
 63
     7
 74
     1
 91
        4
 64
     7
 65
   257
 75
     1
175
     1
 42
1.0
 92
        8
 66
     7
 43
1.0
 76
     1
 77
     6
 78
     2
 67
     7
 79
     5
170
     0
171
     0
290
     0
174
     0
 93
        1
 44
50.0
173
     0
291
     1
 45
0.0
1001
ACAD
1000
AcDbSavedByObjectVersion
1070
     0
  0
VISUALSTYLE
  5
39
102
{ACAD_XDICTIONARY
360
9C9
102
}
102
{ACAD_REACTORS
330
29
102
}
330
29
100
AcDbVisualStyle
  2

 70
    16
 71
     2
 72
     2
 73
     3
 90
        0
 40
-0.6
 41
-30.0
 62
     5
 63
     8
 74
     1
 91
        4
 64
     7
 65
   257
 75
     1
175
     1
 42
1.0
 92
        8
 66
     8
 43
1.0
 76
     1
 77
     6
 78
     2
 67
     7
 79
     5
170
     0
171
     0
290
     0
174
     0
 93
        1
 44
0.0
173
     0
291
     1
 45
0.0
1001
ACAD
1000
AcDbSavedByObjectVersion
1070
     0
  0
VISUALSTYLE
  5
32
102
{ACAD_XDICTIONARY
360
9BB
102
}
102
{ACAD_REACTORS
330
29
102
}
330
29
100
AcDbVisualStyle
  2

 70
     9
 71
     3
 72
     2
 73
     0
 90
        0
 40
-0.6
 41
-30.0
 62
     5
 63
     7
 74
     2
 91
        2
 64
     7
 65
   257
 75
     1
175
     1
 42
179.0
 92
        8
 66
     7
 43
1.0
 76
     1
 77
     6
 78
     2
 67
     7
 79
     3
170
     0
171
     0
290
     0
174
     0
 93
        1
 44
0.0
173
     0
291
     0
 45
0.0
1001
ACAD
1000
AcDbSavedByObjectVersion
1070
     0
  0
VISUALSTYLE
  5
34
102
{ACAD_XDICTIONARY
360
9BF
102
}
102
{ACAD_REACTORS
330
29
102
}
330
29
100
AcDbVisualStyle
  2

 70
    11
 71
     2
 72
     2
 73
     0
 90
        0
 40
-0.6
 41
-30.0
 62
     5
 63
     7
 74
     1
 91
        4
 64
     7
 65
   257
 75
     1
175
     1
 42
1.0
 92
        8
 66
     7
 43
1.0
 76
     1
 77
     6
 78
     2
 67
     7
 79
     5
170
     0
171
     0
290
     0
174
     0
 93
        1
 44
-50.0
173
     0
291
     1
 45
0.0
1001
ACAD
1000
AcDbSavedByObjectVersion
1070
     0
  0
VISUALSTYLE
  5
3C
102
{ACAD_XDICTIONARY
360
9CF
102
}
102
{ACAD_REACTORS
330
29
102
}
330
29
100
AcDbVisualStyle
  2

 70
    22
 71
     2
 72
     2
 73
     0
 90
        0
 40
-0.6
 41
-30.0
 62
     5
 63
     7
 74
     1
 91
        4
 64
     7
 65
   257
 75
     1
175
     1
 42
1.0
 92
        8
 66
     7
 43
1.0
 76
     1
 77
     6
 78
     2
 67
     7
 79
     5
170
     0
171
     0
290
     0
174
     0
 93
        1
 44
0.0
173
     0
291
     1
 45
0.0
1001
ACAD
1000
AcDbSavedByObjectVersion
1070
     0
  0
VISUALSTYLE
  5
38
102
{ACAD_XDICTIONARY
360
9C7
102
}
102
{ACAD_REACTORS
330
29
102
}
330
29
100
AcDbVisualStyle
  2

 70
    15
 71
     2
 72
     2
 73
     0
 90
        0
 40
-0.6
 41
-30.0
 62
     5
 63
     7
 74
     1
 91
        4
 64
     7
 65
   257
 75
     1
175
     1
 42
1.0
 92
        8
 66
     7
 43
1.0
 76
     1
 77
     6
 78
     2
 67
     7
 79
     5
170
     0
171
     0
290
     0
174
     0
 93
        1
 44
0.0
173
     0
291
     1
 45
0.0
1001
ACAD
1000
AcDbSavedByObjectVersion
1070
     0
  0
VISUALSTYLE
  5
2A
102
{ACAD_XDICTIONARY
360
9AB
102
}
102
{ACAD_REACTORS
330
29
102
}
330
29
100
AcDbVisualStyle
  2

 70
     0
 71
     2
 72
     1
 73
     1
 90
        2
 40
-0.6
 41
30.0
 62
     5
 63
     7
 74
     0
 91
        4
 64
     7
 65
   257
 75
     1
175
     1
 42
1.0
 92
        8
 66
     7
 43
1.0
 76
     1
 77
     6
 78
     2
 67
     7
 79
     5
170
     0
171
     0
290
     0
174
     0
 93
       13
 44
0.0
173
     0
291
     1
 45
0.0
1001
ACAD
1000
AcDbSavedByObjectVersion
1070
     0
  0
VISUALSTYLE
  5
2B
102
{ACAD_XDICTIONARY
360
9AD
102
}
102
{ACAD_REACTORS
330
29
102
}
330
29
100
AcDbVisualStyle
  2

 70
     1
 71
     2
 72
     1
 73
     1
 90
        2
 40
-0.6
 41
30.0
 62
     5
 63
     7
 74
     1
 91
        4
 64
     7
 65
   257
 75
     1
175
     1
 42
1.0
 92
        0
 66
   257
 43
1.0
 76
     1
 77
     6
 78
     2
 67
     7
 79
     5
170
     0
171
     0
290
     0
174
     0
 93
       13
 44
0.0
173
     0
291
     1
 45
0.0
1001
ACAD
1000
AcDbSavedByObjectVersion
1070
     0
  0
VISUALSTYLE
  5
2C
102
{ACAD_XDICTIONARY
360
9AF
102
}
102
{ACAD_REACTORS
330
29
102
}
330
29
100
AcDbVisualStyle
  2

 70
     2
 71
     2
 72
     2
 73
     1
 90
        2
 40
-0.6
 41
30.0
 62
     5
 63
     7
 74
     0
 91
        4
 64
     7
 65
   257
 75
     1
175
     1
 42
1.0
 92
        0
 66
     7
 43
1.0
 76
     1
 77
     6
 78
     2
 67
     7
 79
     5
170
     0
171
     0
290
     0
174
     0
 93
       13
 44
0.0
173
     0
291
     1
 45
0.0
1001
ACAD
1000
AcDbSavedByObjectVersion
1070
     0
  0
VISUALSTYLE
  5
2D
102
{ACAD_XDICTIONARY
360
9B1
102
}
102
{ACAD_REACTORS
330
29
102
}
330
29
100
AcDbVisualStyle
  2

 70
     3
 71
     2
 72
     2
 73
     1
 90
        2
 40
-0.6
 41
30.0
 62
     5
 63
     7
 74
     1
 91
        4
 64
     7
 65
   257
 75
     1
175
     1
 42
1.0
 92
        0
 66
   257
 43
1.0
 76
     1
 77
     6
 78
     2
 67
     7
 79
     5
170
     0
171
     0
290
     0
174
     0
 93
       13
 44
0.0
173
     0
291
     1
 45
0.0
1001
ACAD
1000
AcDbSavedByObjectVersion
1070
     0
  0
VISUALSTYLE
  5
81D
102
{ACAD_XDICTIONARY
360
9DA
102
}
102
{ACAD_REACTORS
330
29
102
}
330
29
100
AcDbVisualStyle
  2
Hidden
 70
     6
 71
     1
 72
     2
 73
     2
 90
        0
 40
-0.6
 41
-30.0
 62
     5
 63
     7
 74
     2
 91
        2
 64
     7
 65
   257
 75
     2
175
     1
 42
40.0
 92
        0
 66
   257
 43
1.0
 76
     1
 77
     6
 78
     2
 67
     7
 79
     3
170
     0
171
     0
290
     0
174
     0
 93
        1
 44
0.0
173
     0
291
     0
 45
0.0
1001
ACAD
1000
AcDbSavedByObjectVersion
1070
     0
  0
VISUALSTYLE
  5
3A
102
{ACAD_XDICTIONARY
360
9CB
102
}
102
{ACAD_REACTORS
330
29
102
}
330
29
100
AcDbVisualStyle
  2

 70
    20
 71
     2
 72
     2
 73
     0
 90
        0
 40
-0.6
 41
-30.0
 62
     5
 63
     7
 74
     1
 91
        4
 64
     7
 65
   257
 75
     1
175
     1
 42
1.0
 92
       10
 66
     7
 43
1.0
 76
     1
 77
     6
 78
     2
 67
     7
 79
     5
170
     0
171
     0
290
     0
174
     0
 93
        1
 44
0.0
173
     0
291
     1
 45
0.0
1001
ACAD
1000
AcDbSavedByObjectVersion
1070
     0
  0
VISUALSTYLE
  5
37
102
{ACAD_XDICTIONARY
360
9C5
102
}
102
{ACAD_REACTORS
330
29
102
}
330
29
100
AcDbVisualStyle
  2

 70
    14
 71
     2
 72
     2
 73
     0
 90
        0
 40
-0.6
 41
-30.0
 62
     5
 63
     7
 74
     1
 91
        4
 64
     7
 65
   257
 75
     7
175
     7
 42
1.0
 92
        8
 66
     7
 43
1.0
 76
     1
 77
     6
 78
     2
 67
     7
 79
     5
170
     0
171
     0
290
     0
174
     0
 93
        1
 44
0.0
173
     0
291
     1
 45
0.0
1001
ACAD
1000
AcDbSavedByObjectVersion
1070
     0
  0
VISUALSTYLE
  5
3B
102
{ACAD_XDICTIONARY
360
9CD
102
}
102
{ACAD_REACTORS
330
29
102
}
330
29
100
AcDbVisualStyle
  2

 70
    21
 71
     2
 72
     2
 73
     0
 90
        0
 40
-0.6
 41
-30.0
 62
     5
 63
     7
 74
     1
 91
        4
 64
     7
 65
   257
 75
     1
175
     1
 42
1.0
 92
        9
 66
     7
 43
1.0
 76
     1
 77
     6
 78
     2
 67
     7
 79
     5
170
     0
171
     0
290
     0
174
     0
 93
        1
 44
0.0
173
     0
291
     1
 45
0.0
1001
ACAD
1000
AcDbSavedByObjectVersion
1070
     0
  0
VISUALSTYLE
  5
33
102
{ACAD_XDICTIONARY
360
9BD
102
}
102
{ACAD_REACTORS
330
29
102
}
330
29
100
AcDbVisualStyle
  2

 70
     8
 71
     2
 72
     2
 73
     0
 90
        0
 40
-0.6
 41
-30.0
 62
     5
 63
     7
 74
     1
 91
        0
 64
     7
 65
   257
 75
     1
175
     1
 42
1.0
 92
        8
 66
     8
 43
1.0
 76
     1
 77
     6
 78
     2
 67
     7
 79
     5
170
     0
171
     0
290
     0
174
     0
 93
       13
 44
0.0
173
     0
291
     0
 45
0.0
1001
ACAD
1000
AcDbSavedByObjectVersion
1070
     0
  0
VISUALSTYLE
  5
822
102
{ACAD_XDICTIONARY
360
9E4
102
}
102
{ACAD_REACTORS
330
29
102
}
330
29
100
AcDbVisualStyle
  2
Shaded
 70
    27
 71
     2
 72
     2
 73
     1
 90
        2
 40
-0.6
 41
30.0
 62
     5
 63
     7
 74
     0
 91
        4
 64
     7
 65
   257
 75
     1
175
     1
 42
1.0
 92
        8
 66
   257
 43
1.0
 76
     1
 77
     6
 78
     2
 67
     8
 79
     3
170
     0
171
     0
290
     0
174
     0
 93
        5
 44
0.0
173
     0
291
     0
 45
0.0
1001
ACAD
1000
AcDbSavedByObjectVersion
1070
     0
  0
VISUALSTYLE
  5
821
102
{ACAD_XDICTIONARY
360
9E2
102
}
102
{ACAD_REACTORS
330
29
102
}
330
29
100
AcDbVisualStyle
  2
Shaded with edges
 70
    26
 71
     2
 72
     2
 73
     1
 90
        2
 40
-0.6
 41
30.0
 62
     5
 63
     7
 74
     1
 91
        2
 64
     7
 65
   257
 75
     2
175
     1
 42
1.0
 92
        8
 66
   257
 43
1.0
 76
     1
 77
     6
 78
     2
 67
     7
 79
     3
170
     0
171
     0
290
     0
174
     0
 93
        5
 44
0.0
173
     0
291
     0
 45
0.0
1001
ACAD
1000
AcDbSavedByObjectVersion
1070
     0
  0
VISUALSTYLE
  5
81E
102
{ACAD_XDICTIONARY
360
9DC
102
}
102
{ACAD_REACTORS
330
29
102
}
330
29
100
AcDbVisualStyle
  2
Shades of Gray
 70
    23
 71
     2
 72
     2
 73
     3
 90
        0
 40
-0.6
 41
-30.0
 62
     5
 63
     7
 74
     2
 91
        2
 64
     7
 65
     7
 75
     1
175
     1
 42
40.0
 92
        8
 66
     7
 43
1.0
 76
     1
 77
     6
 78
     2
 67
     7
 79
     3
170
     0
171
     0
290
     0
174
     0
 93
        1
 44
0.0
173
     0
291
     0
 45
0.0
1001
ACAD
1000
AcDbSavedByObjectVersion
1070
     0
  0
VISUALSTYLE
  5
81F
102
{ACAD_XDICTIONARY
360
9DE
102
}
102
{ACAD_REACTORS
330
29
102
}
330
29
100
AcDbVisualStyle
  2
Sketchy
 70
    24
 71
     1
 72
     2
 73
     2
 90
        0
 40
-0.6
 41
-30.0
 62
     5
 63
     7
 74
     2
 91
        2
 64
     7
 65
     7
 75
     1
175
     1
 42
40.0
 92
       11
 66
     7
 43
1.0
 76
     1
 77
     6
 78
     2
 67
     7
 79
     6
170
     0
171
     0
290
     0
174
     0
 93
        1
 44
0.0
173
     0
291
     0
 45
0.0
1001
ACAD
1000
AcDbSavedByObjectVersion
1070
     0
  0
VISUALSTYLE
  5
36
102
{ACAD_XDICTIONARY
360
9C3
102
}
102
{ACAD_REACTORS
330
29
102
}
330
29
100
AcDbVisualStyle
  2

 70
    13
 71
     2
 72
     2
 73
     0
 90
        0
 40
-0.6
 41
-30.0
 62
     5
 63
     7
 74
     1
 91
        4
 64
     7
 65
   257
 75
     1
175
     1
 42
1.0
 92
       12
 66
     7
 43
1.0
 76
     1
 77
     6
 78
     2
 67
     7
 79
     5
170
     0
171
     0
290
     0
174
     0
 93
        1
 44
0.0
173
     0
291
     1
 45
0.0
1001
ACAD
1000
AcDbSavedByObjectVersion
1070
     0
  0
VISUALSTYLE
  5
81C
102
{ACAD_XDICTIONARY
360
9D8
102
}
102
{ACAD_REACTORS
330
29
102
}
330
29
100
AcDbVisualStyle
  2
Wireframe
 70
     5
 71
     0
 72
     2
 73
     0
 90
        0
 40
-0.6
 41
-30.0
 62
     5
 63
     7
 74
     1
 91
        4
 64
     7
 65
   257
 75
     1
175
     1
 42
1.0
 92
        0
 66
   257
 43
1.0
 76
     1
 77
     6
 78
     2
 67
     7
 79
     3
170
     0
171
     0
290
     0
174
     0
 93
        1
 44
0.0
173
     0
291
     0
 45
0.0
1001
ACAD
1000
AcDbSavedByObjectVersion
1070
     0
  0
VISUALSTYLE
  5
820
102
{ACAD_XDICTIONARY
360
9E0
102
}
102
{ACAD_REACTORS
330
29
102
}
330
29
100
AcDbVisualStyle
  2
X-Ray
 70
    25
 71
     2
 72
     2
 73
     1
 90
        1
 40
0.5
 41
-30.0
 62
     5
 63
     7
 74
     1
 91
        0
 64
     7
 65
   257
 75
     1
175
     1
 42
1.0
 92
        8
 66
     7
 43
1.0
 76
     1
 77
     6
 78
     2
 67
     7
 79
     3
170
     0
171
     0
290
     0
174
     0
 93
       13
 44
0.0
173
     0
291
     0
 45
0.0
1001
ACAD
1000
AcDbSavedByObjectVersion
1070
     0
  0
DICTIONARYVAR
  5
770
102
{ACAD_REACTORS
330
76C
102
}
330
76C
100
DictionaryVariables
280
     0
  1
1:1
  0
DICTIONARYVAR
  5
76E
102
{ACAD_REACTORS
330
76C
102
}
330
76C
100
DictionaryVariables
280
     0
  1
STANDARD
  0
DICTIONARYVAR
  5
76D
102
{ACAD_REACTORS
330
76C
102
}
330
76C
100
DictionaryVariables
280
     0
  1
STANDARD
  0
DICTIONARYVAR
  5
951
102
{ACAD_REACTORS
330
76C
102
}
330
76C
100
DictionaryVariables
280
     0
  1
Metric50
  0
DICTIONARYVAR
  5
952
102
{ACAD_REACTORS
330
76C
102
}
330
76C
100
DictionaryVariables
280
     0
  1
Metric50
  0
DICTIONARYVAR
  5
956
102
{ACAD_REACTORS
330
76C
102
}
330
76C
100
DictionaryVariables
280
     0
  1
1
  0
DICTIONARYVAR
  5
955
102
{ACAD_REACTORS
330
76C
102
}
330
76C
100
DictionaryVariables
280
     0
  1
1
  0
DICTIONARYVAR
  5
954
102
{ACAD_REACTORS
330
76C
102
}
330
76C
100
DictionaryVariables
280
     0
  1
0
  0
DICTIONARYVAR
  5
772
102
{ACAD_REACTORS
330
76C
102
}
330
76C
100
DictionaryVariables
280
     0
  1
0
  0
DICTIONARYVAR
  5
773
102
{ACAD_REACTORS
330
76C
102
}
330
76C
100
DictionaryVariables
280
     0
  1
0
  0
DICTIONARYVAR
  5
771
102
{ACAD_REACTORS
330
76C
102
}
330
76C
100
DictionaryVariables
280
     0
  1
2
  0
DICTIONARYVAR
  5
76F
102
{ACAD_REACTORS
330
76C
102
}
330
76C
100
DictionaryVariables
280
     0
  1
1
  0
DICTIONARYVAR
  5
953
102
{ACAD_REACTORS
330
76C
102
}
330
76C
100
DictionaryVariables
280
     0
  1
127
  0
DICTIONARYVAR
  5
957
102
{ACAD_REACTORS
330
76C
102
}
330
76C
100
DictionaryVariables
280
     0
  1
2
  0
DICTIONARY
  5
9E8
330
826
100
AcDbDictionary
280
     1
281
     1
  3
ACAD_XREC_ROUNDTRIP
360
9E9
  0
DICTIONARY
  5
9D2
330
76
100
AcDbDictionary
280
     1
281
     1
  3
ACAD_XREC_ROUNDTRIP
360
9D3
  0
DICTIONARY
  5
9D6
330
7E
100
AcDbDictionary
280
     1
281
     1
  3
ACAD_XREC_ROUNDTRIP
360
9D7
  0
DICTIONARY
  5
9D4
330
7A
100
AcDbDictionary
280
     1
281
     1
  3
ACAD_XREC_ROUNDTRIP
360
9D5
  0
DICTIONARY
  5
1A
330
19
100
AcDbDictionary
280
     1
281
     1
  3
ACAD_XREC_ROUNDTRIP
360
7EF
  3
BUMPTILE
360
1C
  3
DIFFUSETILE
360
1B
  3
OPACITYTILE
360
1F
  3
REFLECTIONTILE
360
1E
  3
REFRACTIONTILE
360
20
  3
SPECULARTILE
360
1D
  0
DICTIONARY
  5
12
330
11
100
AcDbDictionary
280
     1
281
     1
  3
ACAD_XREC_ROUNDTRIP
360
7EE
  3
BUMPTILE
360
14
  3
DIFFUSETILE
360
13
  3
OPACITYTILE
360
17
  3
REFLECTIONTILE
360
16
  3
REFRACTIONTILE
360
18
  3
SPECULARTILE
360
15
  0
DICTIONARY
  5
22
330
21
100
AcDbDictionary
280
     1
281
     1
  3
ACAD_XREC_ROUNDTRIP
360
7F0
  3
BUMPTILE
360
24
  3
DIFFUSETILE
360
23
  3
OPACITYTILE
360
27
  3
REFLECTIONTILE
360
26
  3
REFRACTIONTILE
360
28
  3
SPECULARTILE
360
25
  0
DICTIONARY
  5
9E6
330
824
100
AcDbDictionary
280
     1
281
     1
  3
ACAD_XREC_ROUNDTRIP
360
9E7
  0
DICTIONARY
  5
775
330
70
100
AcDbDictionary
280
     1
281
     1
  3
ACAD_ROUNDTRIP_2008_TABLESTYLE_CELLSTYLEMAP
360
959
  3
ACAD_XREC_ROUNDTRIP
360
9D1
  0
DICTIONARY
  5
9B5
330
2F
100
AcDbDictionary
280
     1
281
     1
  3
ACAD_XREC_ROUNDTRIP
360
9B6
  0
DICTIONARY
  5
9B9
330
31
100
AcDbDictionary
280
     1
281
     1
  3
ACAD_XREC_ROUNDTRIP
360
9BA
  0
DICTIONARY
  5
9B7
330
30
100
AcDbDictionary
280
     1
281
     1
  3
ACAD_XREC_ROUNDTRIP
360
9B8
  0
DICTIONARY
  5
9B3
330
2E
100
AcDbDictionary
280
     1
281
     1
  3
ACAD_XREC_ROUNDTRIP
360
9B4
  0
DICTIONARY
  5
9C1
330
35
100
AcDbDictionary
280
     1
281
     1
  3
ACAD_XREC_ROUNDTRIP
360
9C2
  0
DICTIONARY
  5
9C9
330
39
100
AcDbDictionary
280
     1
281
     1
  3
ACAD_XREC_ROUNDTRIP
360
9CA
  0
DICTIONARY
  5
9BB
330
32
100
AcDbDictionary
280
     1
281
     1
  3
ACAD_XREC_ROUNDTRIP
360
9BC
  0
DICTIONARY
  5
9BF
330
34
100
AcDbDictionary
280
     1
281
     1
  3
ACAD_XREC_ROUNDTRIP
360
9C0
  0
DICTIONARY
  5
9CF
330
3C
100
AcDbDictionary
280
     1
281
     1
  3
ACAD_XREC_ROUNDTRIP
360
9D0
  0
DICTIONARY
  5
9C7
330
38
100
AcDbDictionary
280
     1
281
     1
  3
ACAD_XREC_ROUNDTRIP
360
9C8
  0
DICTIONARY
  5
9AB
330
2A
100
AcDbDictionary
280
     1
281
     1
  3
ACAD_XREC_ROUNDTRIP
360
9AC
  0
DICTIONARY
  5
9AD
330
2B
100
AcDbDictionary
280
     1
281
     1
  3
ACAD_XREC_ROUNDTRIP
360
9AE
  0
DICTIONARY
  5
9AF
330
2C
100
AcDbDictionary
280
     1
281
     1
  3
ACAD_XREC_ROUNDTRIP
360
9B0
  0
DICTIONARY
  5
9B1
330
2D
100
AcDbDictionary
280
     1
281
     1
  3
ACAD_XREC_ROUNDTRIP
360
9B2
  0
DICTIONARY
  5
9DA
330
81D
100
AcDbDictionary
280
     1
281
     1
  3
ACAD_XREC_ROUNDTRIP
360
9DB
  0
DICTIONARY
  5
9CB
330
3A
100
AcDbDictionary
280
     1
281
     1
  3
ACAD_XREC_ROUNDTRIP
360
9CC
  0
DICTIONARY
  5
9C5
330
37
100
AcDbDictionary
280
     1
281
     1
  3
ACAD_XREC_ROUNDTRIP
360
9C6
  0
DICTIONARY
  5
9CD
330
3B
100
AcDbDictionary
280
     1
281
     1
  3
ACAD_XREC_ROUNDTRIP
360
9CE
  0
DICTIONARY
  5
9BD
330
33
100
AcDbDictionary
280
     1
281
     1
  3
ACAD_XREC_ROUNDTRIP
360
9BE
  0
DICTIONARY
  5
9E4
330
822
100
AcDbDictionary
280
     1
281
     1
  3
ACAD_XREC_ROUNDTRIP
360
9E5
  0
DICTIONARY
  5
9E2
330
821
100
AcDbDictionary
280
     1
281
     1
  3
ACAD_XREC_ROUNDTRIP
360
9E3
  0
DICTIONARY
  5
9DC
330
81E
100
AcDbDictionary
280
     1
281
     1
  3
ACAD_XREC_ROUNDTRIP
360
9DD
  0
DICTIONARY
  5
9DE
330
81F
100
AcDbDictionary
280
     1
281
     1
  3
ACAD_XREC_ROUNDTRIP
360
9DF
  0
DICTIONARY
  5
9C3
330
36
100
AcDbDictionary
280
     1
281
     1
  3
ACAD_XREC_ROUNDTRIP
360
9C4
  0
DICTIONARY
  5
9D8
330
81C
100
AcDbDictionary
280
     1
281
     1
  3
ACAD_XREC_ROUNDTRIP
360
9D9
  0
DICTIONARY
  5
9E0
330
820
100
AcDbDictionary
280
     1
281
     1
  3
ACAD_XREC_ROUNDTRIP
360
9E1
  0
XRECORD
  5
9E9
102
{ACAD_REACTORS
330
9E8
102
}
330
9E8
100
AcDbXrecord
280
     1
102
DISPLAYNAME
  1
Metric50
102
FLAGS
 90
        0
  0
XRECORD
  5
9D3
102
{ACAD_REACTORS
330
9D2
102
}
330
9D2
100
AcDbXrecord
280
     1
102
SHADEPLOT
 70
     0
102
SHADEPLOTRESLEVEL
 70
     2
102
SHADEPLOTCUSTOMDPI
 70
   300
  0
XRECORD
  5
9D7
102
{ACAD_REACTORS
330
9D6
102
}
330
9D6
100
AcDbXrecord
280
     1
102
SHADEPLOT
 70
     0
102
SHADEPLOTRESLEVEL
 70
     2
102
SHADEPLOTCUSTOMDPI
 70
   300
  0
XRECORD
  5
9D5
102
{ACAD_REACTORS
330
9D4
102
}
330
9D4
100
AcDbXrecord
280
     1
102
SHADEPLOT
 70
     0
102
SHADEPLOTRESLEVEL
 70
     2
102
SHADEPLOTCUSTOMDPI
 70
   300
  0
XRECORD
  5
7EF
102
{ACAD_REACTORS
330
1A
102
}
330
1A
100
AcDbXrecord
280
     1
102
MATERIAL
148
0.0
149
0.0
149
0.0
 93
        0
 94
      127
282
     0
 72
     0
 77
     0
171
     0
175
     0
179
     0
273
     0
  0
XRECORD
  5
1C
102
{ACAD_REACTORS
330
1A
102
}
330
1A
100
AcDbXrecord
280
     1
270
     1
271
     1
  0
XRECORD
  5
1B
102
{ACAD_REACTORS
330
1A
102
}
330
1A
100
AcDbXrecord
280
     1
270
     1
271
     1
  0
XRECORD
  5
1F
102
{ACAD_REACTORS
330
1A
102
}
330
1A
100
AcDbXrecord
280
     1
270
     1
271
     1
  0
XRECORD
  5
1E
102
{ACAD_REACTORS
330
1A
102
}
330
1A
100
AcDbXrecord
280
     1
270
     1
271
     1
  0
XRECORD
  5
20
102
{ACAD_REACTORS
330
1A
102
}
330
1A
100
AcDbXrecord
280
     1
270
     1
271
     1
  0
XRECORD
  5
1D
102
{ACAD_REACTORS
330
1A
102
}
330
1A
100
AcDbXrecord
280
     1
270
     1
271
     1
  0
XRECORD
  5
7EE
102
{ACAD_REACTORS
330
12
102
}
330
12
100
AcDbXrecord
280
     1
102
MATERIAL
148
0.0
149
0.0
149
0.0
 93
        0
 94
      127
282
     0
 72
     0
 77
     0
171
     0
175
     0
179
     0
273
     0
  0
XRECORD
  5
14
102
{ACAD_REACTORS
330
12
102
}
330
12
100
AcDbXrecord
280
     1
270
     1
271
     1
  0
XRECORD
  5
13
102
{ACAD_REACTORS
330
12
102
}
330
12
100
AcDbXrecord
280
     1
270
     1
271
     1
  0
XRECORD
  5
17
102
{ACAD_REACTORS
330
12
102
}
330
12
100
AcDbXrecord
280
     1
270
     1
271
     1
  0
XRECORD
  5
16
102
{ACAD_REACTORS
330
12
102
}
330
12
100
AcDbXrecord
280
     1
270
     1
271
     1
  0
XRECORD
  5
18
102
{ACAD_REACTORS
330
12
102
}
330
12
100
AcDbXrecord
280
     1
270
     1
271
     1
  0
XRECORD
  5
15
102
{ACAD_REACTORS
330
12
102
}
330
12
100
AcDbXrecord
280
     1
270
     1
271
     1
  0
XRECORD
  5
7F0
102
{ACAD_REACTORS
330
22
102
}
330
22
100
AcDbXrecord
280
     1
102
MATERIAL
148
0.0
149
0.0
149
0.0
 93
        0
 94
      127
282
     0
 72
     0
 77
     0
171
     0
175
     0
179
     0
273
     0
  0
XRECORD
  5
24
102
{ACAD_REACTORS
330
22
102
}
330
22
100
AcDbXrecord
280
     1
270
     1
271
     1
  0
XRECORD
  5
23
102
{ACAD_REACTORS
330
22
102
}
330
22
100
AcDbXrecord
280
     1
270
     1
271
     1
  0
XRECORD
  5
27
102
{ACAD_REACTORS
330
22
102
}
330
22
100
AcDbXrecord
280
     1
270
     1
271
     1
  0
XRECORD
  5
26
102
{ACAD_REACTORS
330
22
102
}
330
22
100
AcDbXrecord
280
     1
270
     1
271
     1
  0
XRECORD
  5
28
102
{ACAD_REACTORS
330
22
102
}
330
22
100
AcDbXrecord
280
     1
270
     1
271
     1
  0
XRECORD
  5
25
102
{ACAD_REACTORS
330
22
102
}
330
22
100
AcDbXrecord
280
     1
270
     1
271
     1
  0
XRECORD
  5
9E7
102
{ACAD_REACTORS
330
9E6
102
}
330
9E6
100
AcDbXrecord
280
     1
102
DISPLAYNAME
  1
Metric50
102
FLAGS
 90
        0
  0
CELLSTYLEMAP
  5
959
102
{ACAD_REACTORS
330
775
102
}
330
775
100
AcDbCellStyleMap
 90
        3
300
CELLSTYLE
  1
TABLEFORMAT_BEGIN
 90
        5
170
     1
 91
        0
 92
    32768
 62
   257
 93
        1
300
CONTENTFORMAT
  1
CONTENTFORMAT_BEGIN
 90
        0
 91
        0
 92
      512
 93
        0
300

 40
0.0
140
1.0
 94
        5
 62
     0
340
60
144
0.25
309
CONTENTFORMAT_END
171
     1
301
MARGIN
  1
CELLMARGIN_BEGIN
 40
0.06
 40
0.06
 40
0.06
 40
0.06
 40
0.18
 40
0.18
309
CELLMARGIN_END
 94
        6
 95
        1
302
GRIDFORMAT
  1
GRIDFORMAT_BEGIN
 90
        0
 91
        1
 62
     0
 92
       -2
340
0
 93
        0
 40
0.045
309
GRIDFORMAT_END
 95
        2
302
GRIDFORMAT
  1
GRIDFORMAT_BEGIN
 90
        0
 91
        1
 62
     0
 92
       -2
340
0
 93
        0
 40
0.045
309
GRIDFORMAT_END
 95
        4
302
GRIDFORMAT
  1
GRIDFORMAT_BEGIN
 90
        0
 91
        1
 62
     0
 92
       -2
340
0
 93
        0
 40
0.045
309
GRIDFORMAT_END
 95
        8
302
GRIDFORMAT
  1
GRIDFORMAT_BEGIN
 90
        0
 91
        1
 62
     0
 92
       -2
340
0
 93
        0
 40
0.045
309
GRIDFORMAT_END
 95
       16
302
GRIDFORMAT
  1
GRIDFORMAT_BEGIN
 90
        0
 91
        1
 62
     0
 92
       -2
340
0
 93
        0
 40
0.045
309
GRIDFORMAT_END
 95
       32
302
GRIDFORMAT
  1
GRIDFORMAT_BEGIN
 90
        0
 91
        1
 62
     0
 92
       -2
340
0
 93
        0
 40
0.045
309
GRIDFORMAT_END
309
TABLEFORMAT_END
  1
CELLSTYLE_BEGIN
 90
        1
 91
        1
300
_TITLE
309
CELLSTYLE_END
300
CELLSTYLE
  1
TABLEFORMAT_BEGIN
 90
        5
170
     1
 91
        0
 92
        0
 62
   257
 93
        1
300
CONTENTFORMAT
  1
CONTENTFORMAT_BEGIN
 90
        0
 91
        0
 92
      512
 93
        0
300

 40
0.0
140
1.0
 94
        5
 62
     0
340
60
144
0.18
309
CONTENTFORMAT_END
171
     1
301
MARGIN
  1
CELLMARGIN_BEGIN
 40
0.06
 40
0.06
 40
0.06
 40
0.06
 40
0.18
 40
0.18
309
CELLMARGIN_END
 94
        6
 95
        1
302
GRIDFORMAT
  1
GRIDFORMAT_BEGIN
 90
        0
 91
        1
 62
     0
 92
       -2
340
0
 93
        0
 40
0.045
309
GRIDFORMAT_END
 95
        2
302
GRIDFORMAT
  1
GRIDFORMAT_BEGIN
 90
        0
 91
        1
 62
     0
 92
       -2
340
0
 93
        0
 40
0.045
309
GRIDFORMAT_END
 95
        4
302
GRIDFORMAT
  1
GRIDFORMAT_BEGIN
 90
        0
 91
        1
 62
     0
 92
       -2
340
0
 93
        0
 40
0.045
309
GRIDFORMAT_END
 95
        8
302
GRIDFORMAT
  1
GRIDFORMAT_BEGIN
 90
        0
 91
        1
 62
     0
 92
       -2
340
0
 93
        0
 40
0.045
309
GRIDFORMAT_END
 95
       16
302
GRIDFORMAT
  1
GRIDFORMAT_BEGIN
 90
        0
 91
        1
 62
     0
 92
       -2
340
0
 93
        0
 40
0.045
309
GRIDFORMAT_END
 95
       32
302
GRIDFORMAT
  1
GRIDFORMAT_BEGIN
 90
        0
 91
        1
 62
     0
 92
       -2
340
0
 93
        0
 40
0.045
309
GRIDFORMAT_END
309
TABLEFORMAT_END
  1
CELLSTYLE_BEGIN
 90
        2
 91
        1
300
_HEADER
309
CELLSTYLE_END
300
CELLSTYLE
  1
TABLEFORMAT_BEGIN
 90
        5
170
     1
 91
        0
 92
        0
 62
   257
 93
        1
300
CONTENTFORMAT
  1
CONTENTFORMAT_BEGIN
 90
        0
 91
        0
 92
      512
 93
        0
300

 40
0.0
140
1.0
 94
        2
 62
     0
340
60
144
0.18
309
CONTENTFORMAT_END
171
     1
301
MARGIN
  1
CELLMARGIN_BEGIN
 40
0.06
 40
0.06
 40
0.06
 40
0.06
 40
0.18
 40
0.18
309
CELLMARGIN_END
 94
        6
 95
        1
302
GRIDFORMAT
  1
GRIDFORMAT_BEGIN
 90
        0
 91
        1
 62
     0
 92
       -2
340
0
 93
        0
 40
0.045
309
GRIDFORMAT_END
 95
        2
302
GRIDFORMAT
  1
GRIDFORMAT_BEGIN
 90
        0
 91
        1
 62
     0
 92
       -2
340
0
 93
        0
 40
0.045
309
GRIDFORMAT_END
 95
        4
302
GRIDFORMAT
  1
GRIDFORMAT_BEGIN
 90
        0
 91
        1
 62
     0
 92
       -2
340
0
 93
        0
 40
0.045
309
GRIDFORMAT_END
 95
        8
302
GRIDFORMAT
  1
GRIDFORMAT_BEGIN
 90
        0
 91
        1
 62
     0
 92
       -2
340
0
 93
        0
 40
0.045
309
GRIDFORMAT_END
 95
       16
302
GRIDFORMAT
  1
GRIDFORMAT_BEGIN
 90
        0
 91
        1
 62
     0
 92
       -2
340
0
 93
        0
 40
0.045
309
GRIDFORMAT_END
 95
       32
302
GRIDFORMAT
  1
GRIDFORMAT_BEGIN
 90
        0
 91
        1
 62
     0
 92
       -2
340
0
 93
        0
 40
0.045
309
GRIDFORMAT_END
309
TABLEFORMAT_END
  1
CELLSTYLE_BEGIN
 90
        3
 91
        2
300
_DATA
309
CELLSTYLE_END
  0
XRECORD
  5
9D1
102
{ACAD_REACTORS
330
775
102
}
330
775
100
AcDbXrecord
280
     1
102
ACAD_ROUNDTRIP_PRE2007_TABLESTYLE
 90
      512
 91
        0
  1

 92
      512
 93
        0
  2

 94
      512
 95
        0
  3

  0
XRECORD
  5
9B6
102
{ACAD_REACTORS
330
9B5
102
}
330
9B5
100
AcDbXrecord
280
     1
102
RTVSPost2010Prop28
280
     1
102
RTVSPost2010PropOp28
 70
     1
102
RTVSPost2010Prop29
280
     1
102
RTVSPost2010PropOp29
 70
     1
102
RTVSPost2010Prop30
280
     0
102
RTVSPost2010PropOp30
 70
     1
102
RTVSPost2010Prop31
280
     0
102
RTVSPost2010PropOp31
 70
     1
102
RTVSPost2010Prop32
280
     0
102
RTVSPost2010PropOp32
 70
     1
102
RTVSPost2010Prop33
280
     0
102
RTVSPost2010PropOp33
 70
     1
102
RTVSPost2010Prop34
280
     0
102
RTVSPost2010PropOp34
 70
     1
102
RTVSPost2010Prop35
280
     0
102
RTVSPost2010PropOp35
 70
     1
102
RTVSPost2010Prop36
280
     0
102
RTVSPost2010PropOp36
 70
     1
102
RTVSPost2010Prop37
 90
       50
102
RTVSPost2010PropOp37
 70
     1
102
RTVSPost2010Prop38
140
0.0
102
RTVSPost2010PropOp38
 70
     1
102
RTVSPost2010Prop39
140
1.0
102
RTVSPost2010PropOp39
 70
     1
102
RTVSPost2010Prop40
 90
        0
102
RTVSPost2010PropOp40
 70
     1
102
RTVSPost2010Prop41ColorIndex
 90
       18
102
RTVSPost2010Prop41ColorRGB
 90
        0
102
RTVSPost2010PropOp41
 70
     1
102
RTVSPost2010Prop42
 90
       50
102
RTVSPost2010PropOp42
 70
     1
102
RTVSPost2010Prop43
 90
        3
102
RTVSPost2010PropOp43
 70
     1
102
RTVSPost2010Prop44ColorIndex
 90
        5
102
RTVSPost2010Prop44ColorRGB
 90
      255
102
RTVSPost2010PropOp44
 70
     1
102
RTVSPost2010Prop45
280
     0
102
RTVSPost2010PropOp45
 70
     1
102
RTVSPost2010Prop46
 90
       50
102
RTVSPost2010PropOp46
 70
     1
102
RTVSPost2010Prop47
 90
       50
102
RTVSPost2010PropOp47
 70
     1
102
RTVSPost2010Prop48
 90
       50
102
RTVSPost2010PropOp48
 70
     1
102
RTVSPost2010Prop49
280
     0
102
RTVSPost2010PropOp49
 70
     1
102
RTVSPost2010Prop50
 90
       50
102
RTVSPost2010PropOp50
 70
     1
102
RTVSPost2010Prop51ColorIndex
 90
      256
102
RTVSPost2010Prop51ColorRGB
 90
-16777216
102
RTVSPost2010PropOp51
 70
     0
102
RTVSPost2010Prop52
140
1.0
102
RTVSPost2010PropOp52
 70
     0
102
RTVSPost2010Prop53
 90
        2
102
RTVSPost2010PropOp53
 70
     1
102
RTVSPost2010Prop54
  1
strokes_ogs.tif
102
RTVSPost2010PropOp54
 70
     1
102
RTVSPost2010Prop55
280
     0
102
RTVSPost2010PropOp55
 70
     1
102
RTVSPost2010Prop56
140
1.0
102
RTVSPost2010PropOp56
 70
     1
102
RTVSPost2010Prop57
140
1.0
102
RTVSPost2010PropOp57
 70
     1
102
RTVSPropertyOp0
 70
     1
102
RTVSPropertyOp1
 70
     1
102
RTVSPropertyOp2
 70
     1
102
RTVSPropertyOp3
 70
     1
102
RTVSPropertyOp4
 70
     1
102
RTVSPropertyOp5
 70
     1
102
RTVSPropertyOp6
 70
     1
102
RTVSPropertyOp7
 70
     1
102
RTVSPropertyOp8
 70
     1
102
RTVSPropertyOp9
 70
     1
102
RTVSPropertyOp10
 70
     1
102
RTVSPropertyOp11
 70
     1
102
RTVSPropertyOp12
 70
     1
102
RTVSPropertyOp13
 70
     1
102
RTVSPropertyOp14
 70
     1
102
RTVSPropertyOp15
 70
     1
102
RTVSPropertyOp16
 70
     1
102
RTVSPropertyOp17
 70
     1
102
RTVSPropertyOp18
 70
     1
102
RTVSPropertyOp19
 70
     1
102
RTVSPropertyOp20
 70
     1
102
RTVSPropertyOp21
 70
     1
102
RTVSPropertyOp22
 70
     1
102
RTVSPropertyOp23
 70
     1
102
RTVSPropertyOp24
 70
     1
102
RTVSPropertyOp25
 70
     1
102
RTVSPropertyOp26
 70
     1
102
RTVSPropertyOp27
 70
     1
102
RTVSPropertyOp28
 70
     1
102
RTVSPropertyOp29
 70
     1
102
RTVSPropertyOp30
 70
     1
102
RTVSPropertyOp31
 70
     1
102
RTVSPropertyOp32
 70
     1
102
RTVSPropertyOp33
 70
     1
102
RTVSPropertyOp34
 70
     1
102
RTVSPropertyOp35
 70
     1
102
RTVSPropertyOp36
 70
     1
102
RTVSPropertyOp37
 70
     1
102
RTVSPropertyOp38
 70
     1
102
RTVSPropertyOp39
 70
     1
102
RTVSPropertyOp40
 70
     1
102
RTVSPropertyOp41
 70
     1
102
RTVSPropertyOp42
 70
     1
102
RTVSPropertyOp43
 70
     1
102
RTVSPropertyOp44
 70
     1
102
RTVSPropertyOp45
 70
     1
102
RTVSPropertyOp46
 70
     1
102
RTVSPropertyOp47
 70
     1
102
RTVSPropertyOp48
 70
     1
102
RTVSPropertyOp49
 70
     1
102
RTVSPropertyOp50
 70
     1
102
RTVSPropertyOp51
 70
     0
102
RTVSPropertyOp52
 70
     0
102
RTVSPropertyOp53
 70
     1
102
RTVSPropertyOp54
 70
     1
102
RTVSPropertyOp55
 70
     1
102
RTVSPropertyOp56
 70
     1
102
RTVSPropertyOp57
 70
     1
102
RTVSPropertyOp58
 70
     1
102
RTVSPropertyOp59
 70
     1
102
RTVSPropertyOp60
 70
     1
102
RTVSPropertyOp61
 70
     1
102
RTVSPropertyOp62
 70
     1
  0
XRECORD
  5
9BA
102
{ACAD_REACTORS
330
9B9
102
}
330
9B9
100
AcDbXrecord
280
     1
102
RTVSPost2010Prop28
280
     0
102
RTVSPost2010PropOp28
 70
     1
102
RTVSPost2010Prop29
280
     1
102
RTVSPost2010PropOp29
 70
     1
102
RTVSPost2010Prop30
280
     1
102
RTVSPost2010PropOp30
 70
     1
102
RTVSPost2010Prop31
280
     0
102
RTVSPost2010PropOp31
 70
     1
102
RTVSPost2010Prop32
280
     0
102
RTVSPost2010PropOp32
 70
     1
102
RTVSPost2010Prop33
280
     0
102
RTVSPost2010PropOp33
 70
     1
102
RTVSPost2010Prop34
280
     0
102
RTVSPost2010PropOp34
 70
     1
102
RTVSPost2010Prop35
280
     0
102
RTVSPost2010PropOp35
 70
     1
102
RTVSPost2010Prop36
280
     0
102
RTVSPost2010PropOp36
 70
     1
102
RTVSPost2010Prop37
 90
       50
102
RTVSPost2010PropOp37
 70
     1
102
RTVSPost2010Prop38
140
0.0
102
RTVSPost2010PropOp38
 70
     1
102
RTVSPost2010Prop39
140
1.0
102
RTVSPost2010PropOp39
 70
     1
102
RTVSPost2010Prop40
 90
        0
102
RTVSPost2010PropOp40
 70
     1
102
RTVSPost2010Prop41ColorIndex
 90
       18
102
RTVSPost2010Prop41ColorRGB
 90
        0
102
RTVSPost2010PropOp41
 70
     1
102
RTVSPost2010Prop42
 90
       50
102
RTVSPost2010PropOp42
 70
     1
102
RTVSPost2010Prop43
 90
        3
102
RTVSPost2010PropOp43
 70
     1
102
RTVSPost2010Prop44ColorIndex
 90
        5
102
RTVSPost2010Prop44ColorRGB
 90
      255
102
RTVSPost2010PropOp44
 70
     1
102
RTVSPost2010Prop45
280
     0
102
RTVSPost2010PropOp45
 70
     1
102
RTVSPost2010Prop46
 90
       50
102
RTVSPost2010PropOp46
 70
     1
102
RTVSPost2010Prop47
 90
       50
102
RTVSPost2010PropOp47
 70
     1
102
RTVSPost2010Prop48
 90
       50
102
RTVSPost2010PropOp48
 70
     1
102
RTVSPost2010Prop49
280
     0
102
RTVSPost2010PropOp49
 70
     1
102
RTVSPost2010Prop50
 90
       50
102
RTVSPost2010PropOp50
 70
     1
102
RTVSPost2010Prop51ColorIndex
 90
      256
102
RTVSPost2010Prop51ColorRGB
 90
-16777216
102
RTVSPost2010PropOp51
 70
     0
102
RTVSPost2010Prop52
140
1.0
102
RTVSPost2010PropOp52
 70
     0
102
RTVSPost2010Prop53
 90
        2
102
RTVSPost2010PropOp53
 70
     1
102
RTVSPost2010Prop54
  1
strokes_ogs.tif
102
RTVSPost2010PropOp54
 70
     1
102
RTVSPost2010Prop55
280
     0
102
RTVSPost2010PropOp55
 70
     1
102
RTVSPost2010Prop56
140
1.0
102
RTVSPost2010PropOp56
 70
     1
102
RTVSPost2010Prop57
140
1.0
102
RTVSPost2010PropOp57
 70
     1
102
RTVSPropertyOp0
 70
     1
102
RTVSPropertyOp1
 70
     1
102
RTVSPropertyOp2
 70
     1
102
RTVSPropertyOp3
 70
     1
102
RTVSPropertyOp4
 70
     1
102
RTVSPropertyOp5
 70
     1
102
RTVSPropertyOp6
 70
     1
102
RTVSPropertyOp7
 70
     1
102
RTVSPropertyOp8
 70
     1
102
RTVSPropertyOp9
 70
     1
102
RTVSPropertyOp10
 70
     1
102
RTVSPropertyOp11
 70
     1
102
RTVSPropertyOp12
 70
     1
102
RTVSPropertyOp13
 70
     1
102
RTVSPropertyOp14
 70
     1
102
RTVSPropertyOp15
 70
     1
102
RTVSPropertyOp16
 70
     1
102
RTVSPropertyOp17
 70
     1
102
RTVSPropertyOp18
 70
     1
102
RTVSPropertyOp19
 70
     1
102
RTVSPropertyOp20
 70
     1
102
RTVSPropertyOp21
 70
     1
102
RTVSPropertyOp22
 70
     1
102
RTVSPropertyOp23
 70
     1
102
RTVSPropertyOp24
 70
     1
102
RTVSPropertyOp25
 70
     1
102
RTVSPropertyOp26
 70
     1
102
RTVSPropertyOp27
 70
     1
102
RTVSPropertyOp28
 70
     1
102
RTVSPropertyOp29
 70
     1
102
RTVSPropertyOp30
 70
     1
102
RTVSPropertyOp31
 70
     1
102
RTVSPropertyOp32
 70
     1
102
RTVSPropertyOp33
 70
     1
102
RTVSPropertyOp34
 70
     1
102
RTVSPropertyOp35
 70
     1
102
RTVSPropertyOp36
 70
     1
102
RTVSPropertyOp37
 70
     1
102
RTVSPropertyOp38
 70
     1
102
RTVSPropertyOp39
 70
     1
102
RTVSPropertyOp40
 70
     1
102
RTVSPropertyOp41
 70
     1
102
RTVSPropertyOp42
 70
     1
102
RTVSPropertyOp43
 70
     1
102
RTVSPropertyOp44
 70
     1
102
RTVSPropertyOp45
 70
     1
102
RTVSPropertyOp46
 70
     1
102
RTVSPropertyOp47
 70
     1
102
RTVSPropertyOp48
 70
     1
102
RTVSPropertyOp49
 70
     1
102
RTVSPropertyOp50
 70
     1
102
RTVSPropertyOp51
 70
     0
102
RTVSPropertyOp52
 70
     0
102
RTVSPropertyOp53
 70
     1
102
RTVSPropertyOp54
 70
     1
102
RTVSPropertyOp55
 70
     1
102
RTVSPropertyOp56
 70
     1
102
RTVSPropertyOp57
 70
     1
102
RTVSPropertyOp58
 70
     1
102
RTVSPropertyOp59
 70
     1
102
RTVSPropertyOp60
 70
     1
102
RTVSPropertyOp61
 70
     1
102
RTVSPropertyOp62
 70
     1
  0
XRECORD
  5
9B8
102
{ACAD_REACTORS
330
9B7
102
}
330
9B7
100
AcDbXrecord
280
     1
102
RTVSPost2010Prop28
280
     0
102
RTVSPost2010PropOp28
 70
     1
102
RTVSPost2010Prop29
280
     1
102
RTVSPost2010PropOp29
 70
     1
102
RTVSPost2010Prop30
280
     1
102
RTVSPost2010PropOp30
 70
     1
102
RTVSPost2010Prop31
280
     0
102
RTVSPost2010PropOp31
 70
     1
102
RTVSPost2010Prop32
280
     0
102
RTVSPost2010PropOp32
 70
     1
102
RTVSPost2010Prop33
280
     0
102
RTVSPost2010PropOp33
 70
     1
102
RTVSPost2010Prop34
280
     0
102
RTVSPost2010PropOp34
 70
     1
102
RTVSPost2010Prop35
280
     0
102
RTVSPost2010PropOp35
 70
     1
102
RTVSPost2010Prop36
280
     0
102
RTVSPost2010PropOp36
 70
     1
102
RTVSPost2010Prop37
 90
       50
102
RTVSPost2010PropOp37
 70
     1
102
RTVSPost2010Prop38
140
0.0
102
RTVSPost2010PropOp38
 70
     1
102
RTVSPost2010Prop39
140
1.0
102
RTVSPost2010PropOp39
 70
     1
102
RTVSPost2010Prop40
 90
        0
102
RTVSPost2010PropOp40
 70
     1
102
RTVSPost2010Prop41ColorIndex
 90
       18
102
RTVSPost2010Prop41ColorRGB
 90
        0
102
RTVSPost2010PropOp41
 70
     1
102
RTVSPost2010Prop42
 90
       50
102
RTVSPost2010PropOp42
 70
     1
102
RTVSPost2010Prop43
 90
        3
102
RTVSPost2010PropOp43
 70
     1
102
RTVSPost2010Prop44ColorIndex
 90
        5
102
RTVSPost2010Prop44ColorRGB
 90
      255
102
RTVSPost2010PropOp44
 70
     1
102
RTVSPost2010Prop45
280
     0
102
RTVSPost2010PropOp45
 70
     1
102
RTVSPost2010Prop46
 90
       50
102
RTVSPost2010PropOp46
 70
     1
102
RTVSPost2010Prop47
 90
       50
102
RTVSPost2010PropOp47
 70
     1
102
RTVSPost2010Prop48
 90
       50
102
RTVSPost2010PropOp48
 70
     1
102
RTVSPost2010Prop49
280
     0
102
RTVSPost2010PropOp49
 70
     1
102
RTVSPost2010Prop50
 90
       50
102
RTVSPost2010PropOp50
 70
     1
102
RTVSPost2010Prop51ColorIndex
 90
      256
102
RTVSPost2010Prop51ColorRGB
 90
-16777216
102
RTVSPost2010PropOp51
 70
     0
102
RTVSPost2010Prop52
140
1.0
102
RTVSPost2010PropOp52
 70
     0
102
RTVSPost2010Prop53
 90
        2
102
RTVSPost2010PropOp53
 70
     1
102
RTVSPost2010Prop54
  1
strokes_ogs.tif
102
RTVSPost2010PropOp54
 70
     1
102
RTVSPost2010Prop55
280
     0
102
RTVSPost2010PropOp55
 70
     1
102
RTVSPost2010Prop56
140
1.0
102
RTVSPost2010PropOp56
 70
     1
102
RTVSPost2010Prop57
140
1.0
102
RTVSPost2010PropOp57
 70
     1
102
RTVSPropertyOp0
 70
     1
102
RTVSPropertyOp1
 70
     1
102
RTVSPropertyOp2
 70
     1
102
RTVSPropertyOp3
 70
     1
102
RTVSPropertyOp4
 70
     1
102
RTVSPropertyOp5
 70
     1
102
RTVSPropertyOp6
 70
     1
102
RTVSPropertyOp7
 70
     1
102
RTVSPropertyOp8
 70
     1
102
RTVSPropertyOp9
 70
     1
102
RTVSPropertyOp10
 70
     1
102
RTVSPropertyOp11
 70
     1
102
RTVSPropertyOp12
 70
     1
102
RTVSPropertyOp13
 70
     1
102
RTVSPropertyOp14
 70
     1
102
RTVSPropertyOp15
 70
     1
102
RTVSPropertyOp16
 70
     1
102
RTVSPropertyOp17
 70
     1
102
RTVSPropertyOp18
 70
     1
102
RTVSPropertyOp19
 70
     1
102
RTVSPropertyOp20
 70
     1
102
RTVSPropertyOp21
 70
     1
102
RTVSPropertyOp22
 70
     1
102
RTVSPropertyOp23
 70
     1
102
RTVSPropertyOp24
 70
     1
102
RTVSPropertyOp25
 70
     1
102
RTVSPropertyOp26
 70
     1
102
RTVSPropertyOp27
 70
     1
102
RTVSPropertyOp28
 70
     1
102
RTVSPropertyOp29
 70
     1
102
RTVSPropertyOp30
 70
     1
102
RTVSPropertyOp31
 70
     1
102
RTVSPropertyOp32
 70
     1
102
RTVSPropertyOp33
 70
     1
102
RTVSPropertyOp34
 70
     1
102
RTVSPropertyOp35
 70
     1
102
RTVSPropertyOp36
 70
     1
102
RTVSPropertyOp37
 70
     1
102
RTVSPropertyOp38
 70
     1
102
RTVSPropertyOp39
 70
     1
102
RTVSPropertyOp40
 70
     1
102
RTVSPropertyOp41
 70
     1
102
RTVSPropertyOp42
 70
     1
102
RTVSPropertyOp43
 70
     1
102
RTVSPropertyOp44
 70
     1
102
RTVSPropertyOp45
 70
     1
102
RTVSPropertyOp46
 70
     1
102
RTVSPropertyOp47
 70
     1
102
RTVSPropertyOp48
 70
     1
102
RTVSPropertyOp49
 70
     1
102
RTVSPropertyOp50
 70
     1
102
RTVSPropertyOp51
 70
     0
102
RTVSPropertyOp52
 70
     0
102
RTVSPropertyOp53
 70
     1
102
RTVSPropertyOp54
 70
     1
102
RTVSPropertyOp55
 70
     1
102
RTVSPropertyOp56
 70
     1
102
RTVSPropertyOp57
 70
     1
102
RTVSPropertyOp58
 70
     1
102
RTVSPropertyOp59
 70
     1
102
RTVSPropertyOp60
 70
     1
102
RTVSPropertyOp61
 70
     1
102
RTVSPropertyOp62
 70
     1
  0
XRECORD
  5
9B4
102
{ACAD_REACTORS
330
9B3
102
}
330
9B3
100
AcDbXrecord
280
     1
102
RTVSPost2010Prop28
280
     0
102
RTVSPost2010PropOp28
 70
     1
102
RTVSPost2010Prop29
280
     1
102
RTVSPost2010PropOp29
 70
     1
102
RTVSPost2010Prop30
280
     1
102
RTVSPost2010PropOp30
 70
     1
102
RTVSPost2010Prop31
280
     0
102
RTVSPost2010PropOp31
 70
     1
102
RTVSPost2010Prop32
280
     0
102
RTVSPost2010PropOp32
 70
     1
102
RTVSPost2010Prop33
280
     0
102
RTVSPost2010PropOp33
 70
     1
102
RTVSPost2010Prop34
280
     0
102
RTVSPost2010PropOp34
 70
     1
102
RTVSPost2010Prop35
280
     0
102
RTVSPost2010PropOp35
 70
     1
102
RTVSPost2010Prop36
280
     0
102
RTVSPost2010PropOp36
 70
     1
102
RTVSPost2010Prop37
 90
       50
102
RTVSPost2010PropOp37
 70
     1
102
RTVSPost2010Prop38
140
0.0
102
RTVSPost2010PropOp38
 70
     1
102
RTVSPost2010Prop39
140
1.0
102
RTVSPost2010PropOp39
 70
     1
102
RTVSPost2010Prop40
 90
        0
102
RTVSPost2010PropOp40
 70
     1
102
RTVSPost2010Prop41ColorIndex
 90
       18
102
RTVSPost2010Prop41ColorRGB
 90
        0
102
RTVSPost2010PropOp41
 70
     1
102
RTVSPost2010Prop42
 90
       50
102
RTVSPost2010PropOp42
 70
     1
102
RTVSPost2010Prop43
 90
        3
102
RTVSPost2010PropOp43
 70
     1
102
RTVSPost2010Prop44ColorIndex
 90
        5
102
RTVSPost2010Prop44ColorRGB
 90
      255
102
RTVSPost2010PropOp44
 70
     1
102
RTVSPost2010Prop45
280
     0
102
RTVSPost2010PropOp45
 70
     1
102
RTVSPost2010Prop46
 90
       50
102
RTVSPost2010PropOp46
 70
     1
102
RTVSPost2010Prop47
 90
       50
102
RTVSPost2010PropOp47
 70
     1
102
RTVSPost2010Prop48
 90
       50
102
RTVSPost2010PropOp48
 70
     1
102
RTVSPost2010Prop49
280
     0
102
RTVSPost2010PropOp49
 70
     1
102
RTVSPost2010Prop50
 90
       50
102
RTVSPost2010PropOp50
 70
     1
102
RTVSPost2010Prop51ColorIndex
 90
      256
102
RTVSPost2010Prop51ColorRGB
 90
-16777216
102
RTVSPost2010PropOp51
 70
     0
102
RTVSPost2010Prop52
140
1.0
102
RTVSPost2010PropOp52
 70
     0
102
RTVSPost2010Prop53
 90
        2
102
RTVSPost2010PropOp53
 70
     1
102
RTVSPost2010Prop54
  1
strokes_ogs.tif
102
RTVSPost2010PropOp54
 70
     1
102
RTVSPost2010Prop55
280
     0
102
RTVSPost2010PropOp55
 70
     1
102
RTVSPost2010Prop56
140
1.0
102
RTVSPost2010PropOp56
 70
     1
102
RTVSPost2010Prop57
140
1.0
102
RTVSPost2010PropOp57
 70
     1
102
RTVSPropertyOp0
 70
     1
102
RTVSPropertyOp1
 70
     1
102
RTVSPropertyOp2
 70
     1
102
RTVSPropertyOp3
 70
     1
102
RTVSPropertyOp4
 70
     1
102
RTVSPropertyOp5
 70
     1
102
RTVSPropertyOp6
 70
     1
102
RTVSPropertyOp7
 70
     1
102
RTVSPropertyOp8
 70
     1
102
RTVSPropertyOp9
 70
     1
102
RTVSPropertyOp10
 70
     1
102
RTVSPropertyOp11
 70
     1
102
RTVSPropertyOp12
 70
     1
102
RTVSPropertyOp13
 70
     1
102
RTVSPropertyOp14
 70
     1
102
RTVSPropertyOp15
 70
     1
102
RTVSPropertyOp16
 70
     1
102
RTVSPropertyOp17
 70
     1
102
RTVSPropertyOp18
 70
     1
102
RTVSPropertyOp19
 70
     1
102
RTVSPropertyOp20
 70
     1
102
RTVSPropertyOp21
 70
     1
102
RTVSPropertyOp22
 70
     1
102
RTVSPropertyOp23
 70
     1
102
RTVSPropertyOp24
 70
     1
102
RTVSPropertyOp25
 70
     1
102
RTVSPropertyOp26
 70
     1
102
RTVSPropertyOp27
 70
     1
102
RTVSPropertyOp28
 70
     1
102
RTVSPropertyOp29
 70
     1
102
RTVSPropertyOp30
 70
     1
102
RTVSPropertyOp31
 70
     1
102
RTVSPropertyOp32
 70
     1
102
RTVSPropertyOp33
 70
     1
102
RTVSPropertyOp34
 70
     1
102
RTVSPropertyOp35
 70
     1
102
RTVSPropertyOp36
 70
     1
102
RTVSPropertyOp37
 70
     1
102
RTVSPropertyOp38
 70
     1
102
RTVSPropertyOp39
 70
     1
102
RTVSPropertyOp40
 70
     1
102
RTVSPropertyOp41
 70
     1
102
RTVSPropertyOp42
 70
     1
102
RTVSPropertyOp43
 70
     1
102
RTVSPropertyOp44
 70
     1
102
RTVSPropertyOp45
 70
     1
102
RTVSPropertyOp46
 70
     1
102
RTVSPropertyOp47
 70
     1
102
RTVSPropertyOp48
 70
     1
102
RTVSPropertyOp49
 70
     1
102
RTVSPropertyOp50
 70
     1
102
RTVSPropertyOp51
 70
     0
102
RTVSPropertyOp52
 70
     0
102
RTVSPropertyOp53
 70
     1
102
RTVSPropertyOp54
 70
     1
102
RTVSPropertyOp55
 70
     1
102
RTVSPropertyOp56
 70
     1
102
RTVSPropertyOp57
 70
     1
102
RTVSPropertyOp58
 70
     1
102
RTVSPropertyOp59
 70
     1
102
RTVSPropertyOp60
 70
     1
102
RTVSPropertyOp61
 70
     1
102
RTVSPropertyOp62
 70
     1
  0
XRECORD
  5
9C2
102
{ACAD_REACTORS
330
9C1
102
}
330
9C1
100
AcDbXrecord
280
     1
102
RTVSPost2010Prop28
280
     0
102
RTVSPost2010PropOp28
 70
     1
102
RTVSPost2010Prop29
280
     1
102
RTVSPost2010PropOp29
 70
     1
102
RTVSPost2010Prop30
280
     1
102
RTVSPost2010PropOp30
 70
     1
102
RTVSPost2010Prop31
280
     0
102
RTVSPost2010PropOp31
 70
     1
102
RTVSPost2010Prop32
280
     0
102
RTVSPost2010PropOp32
 70
     1
102
RTVSPost2010Prop33
280
     0
102
RTVSPost2010PropOp33
 70
     1
102
RTVSPost2010Prop34
280
     0
102
RTVSPost2010PropOp34
 70
     1
102
RTVSPost2010Prop35
280
     0
102
RTVSPost2010PropOp35
 70
     1
102
RTVSPost2010Prop36
280
     0
102
RTVSPost2010PropOp36
 70
     1
102
RTVSPost2010Prop37
 90
       50
102
RTVSPost2010PropOp37
 70
     1
102
RTVSPost2010Prop38
140
0.0
102
RTVSPost2010PropOp38
 70
     1
102
RTVSPost2010Prop39
140
1.0
102
RTVSPost2010PropOp39
 70
     1
102
RTVSPost2010Prop40
 90
        0
102
RTVSPost2010PropOp40
 70
     1
102
RTVSPost2010Prop41ColorIndex
 90
       18
102
RTVSPost2010Prop41ColorRGB
 90
        0
102
RTVSPost2010PropOp41
 70
     1
102
RTVSPost2010Prop42
 90
       50
102
RTVSPost2010PropOp42
 70
     1
102
RTVSPost2010Prop43
 90
        3
102
RTVSPost2010PropOp43
 70
     1
102
RTVSPost2010Prop44ColorIndex
 90
        5
102
RTVSPost2010Prop44ColorRGB
 90
      255
102
RTVSPost2010PropOp44
 70
     1
102
RTVSPost2010Prop45
280
     0
102
RTVSPost2010PropOp45
 70
     1
102
RTVSPost2010Prop46
 90
       50
102
RTVSPost2010PropOp46
 70
     1
102
RTVSPost2010Prop47
 90
       50
102
RTVSPost2010PropOp47
 70
     1
102
RTVSPost2010Prop48
 90
       50
102
RTVSPost2010PropOp48
 70
     1
102
RTVSPost2010Prop49
280
     0
102
RTVSPost2010PropOp49
 70
     1
102
RTVSPost2010Prop50
 90
       50
102
RTVSPost2010PropOp50
 70
     1
102
RTVSPost2010Prop51ColorIndex
 90
      256
102
RTVSPost2010Prop51ColorRGB
 90
-16777216
102
RTVSPost2010PropOp51
 70
     0
102
RTVSPost2010Prop52
140
1.0
102
RTVSPost2010PropOp52
 70
     0
102
RTVSPost2010Prop53
 90
        2
102
RTVSPost2010PropOp53
 70
     1
102
RTVSPost2010Prop54
  1
strokes_ogs.tif
102
RTVSPost2010PropOp54
 70
     1
102
RTVSPost2010Prop55
280
     0
102
RTVSPost2010PropOp55
 70
     1
102
RTVSPost2010Prop56
140
1.0
102
RTVSPost2010PropOp56
 70
     1
102
RTVSPost2010Prop57
140
1.0
102
RTVSPost2010PropOp57
 70
     1
102
RTVSPropertyOp0
 70
     1
102
RTVSPropertyOp1
 70
     1
102
RTVSPropertyOp2
 70
     1
102
RTVSPropertyOp3
 70
     1
102
RTVSPropertyOp4
 70
     1
102
RTVSPropertyOp5
 70
     1
102
RTVSPropertyOp6
 70
     1
102
RTVSPropertyOp7
 70
     1
102
RTVSPropertyOp8
 70
     1
102
RTVSPropertyOp9
 70
     1
102
RTVSPropertyOp10
 70
     1
102
RTVSPropertyOp11
 70
     1
102
RTVSPropertyOp12
 70
     1
102
RTVSPropertyOp13
 70
     1
102
RTVSPropertyOp14
 70
     1
102
RTVSPropertyOp15
 70
     1
102
RTVSPropertyOp16
 70
     1
102
RTVSPropertyOp17
 70
     1
102
RTVSPropertyOp18
 70
     1
102
RTVSPropertyOp19
 70
     1
102
RTVSPropertyOp20
 70
     1
102
RTVSPropertyOp21
 70
     1
102
RTVSPropertyOp22
 70
     1
102
RTVSPropertyOp23
 70
     1
102
RTVSPropertyOp24
 70
     1
102
RTVSPropertyOp25
 70
     1
102
RTVSPropertyOp26
 70
     1
102
RTVSPropertyOp27
 70
     1
102
RTVSPropertyOp28
 70
     1
102
RTVSPropertyOp29
 70
     1
102
RTVSPropertyOp30
 70
     1
102
RTVSPropertyOp31
 70
     1
102
RTVSPropertyOp32
 70
     1
102
RTVSPropertyOp33
 70
     1
102
RTVSPropertyOp34
 70
     1
102
RTVSPropertyOp35
 70
     1
102
RTVSPropertyOp36
 70
     1
102
RTVSPropertyOp37
 70
     1
102
RTVSPropertyOp38
 70
     1
102
RTVSPropertyOp39
 70
     1
102
RTVSPropertyOp40
 70
     1
102
RTVSPropertyOp41
 70
     1
102
RTVSPropertyOp42
 70
     1
102
RTVSPropertyOp43
 70
     1
102
RTVSPropertyOp44
 70
     1
102
RTVSPropertyOp45
 70
     1
102
RTVSPropertyOp46
 70
     1
102
RTVSPropertyOp47
 70
     1
102
RTVSPropertyOp48
 70
     1
102
RTVSPropertyOp49
 70
     1
102
RTVSPropertyOp50
 70
     1
102
RTVSPropertyOp51
 70
     0
102
RTVSPropertyOp52
 70
     0
102
RTVSPropertyOp53
 70
     1
102
RTVSPropertyOp54
 70
     1
102
RTVSPropertyOp55
 70
     1
102
RTVSPropertyOp56
 70
     1
102
RTVSPropertyOp57
 70
     1
102
RTVSPropertyOp58
 70
     1
102
RTVSPropertyOp59
 70
     1
102
RTVSPropertyOp60
 70
     1
102
RTVSPropertyOp61
 70
     1
102
RTVSPropertyOp62
 70
     1
  0
XRECORD
  5
9CA
102
{ACAD_REACTORS
330
9C9
102
}
330
9C9
100
AcDbXrecord
280
     1
102
RTVSPost2010Prop28
280
     0
102
RTVSPost2010PropOp28
 70
     1
102
RTVSPost2010Prop29
280
     1
102
RTVSPost2010PropOp29
 70
     1
102
RTVSPost2010Prop30
280
     1
102
RTVSPost2010PropOp30
 70
     1
102
RTVSPost2010Prop31
280
     0
102
RTVSPost2010PropOp31
 70
     1
102
RTVSPost2010Prop32
280
     0
102
RTVSPost2010PropOp32
 70
     1
102
RTVSPost2010Prop33
280
     0
102
RTVSPost2010PropOp33
 70
     1
102
RTVSPost2010Prop34
280
     0
102
RTVSPost2010PropOp34
 70
     1
102
RTVSPost2010Prop35
280
     0
102
RTVSPost2010PropOp35
 70
     1
102
RTVSPost2010Prop36
280
     0
102
RTVSPost2010PropOp36
 70
     1
102
RTVSPost2010Prop37
 90
       50
102
RTVSPost2010PropOp37
 70
     1
102
RTVSPost2010Prop38
140
0.0
102
RTVSPost2010PropOp38
 70
     1
102
RTVSPost2010Prop39
140
1.0
102
RTVSPost2010PropOp39
 70
     1
102
RTVSPost2010Prop40
 90
        0
102
RTVSPost2010PropOp40
 70
     1
102
RTVSPost2010Prop41ColorIndex
 90
       18
102
RTVSPost2010Prop41ColorRGB
 90
        0
102
RTVSPost2010PropOp41
 70
     1
102
RTVSPost2010Prop42
 90
       50
102
RTVSPost2010PropOp42
 70
     1
102
RTVSPost2010Prop43
 90
        3
102
RTVSPost2010PropOp43
 70
     1
102
RTVSPost2010Prop44ColorIndex
 90
        5
102
RTVSPost2010Prop44ColorRGB
 90
      255
102
RTVSPost2010PropOp44
 70
     1
102
RTVSPost2010Prop45
280
     0
102
RTVSPost2010PropOp45
 70
     1
102
RTVSPost2010Prop46
 90
       50
102
RTVSPost2010PropOp46
 70
     1
102
RTVSPost2010Prop47
 90
       50
102
RTVSPost2010PropOp47
 70
     1
102
RTVSPost2010Prop48
 90
       50
102
RTVSPost2010PropOp48
 70
     1
102
RTVSPost2010Prop49
280
     0
102
RTVSPost2010PropOp49
 70
     1
102
RTVSPost2010Prop50
 90
       50
102
RTVSPost2010PropOp50
 70
     1
102
RTVSPost2010Prop51ColorIndex
 90
      256
102
RTVSPost2010Prop51ColorRGB
 90
-16777216
102
RTVSPost2010PropOp51
 70
     0
102
RTVSPost2010Prop52
140
1.0
102
RTVSPost2010PropOp52
 70
     0
102
RTVSPost2010Prop53
 90
        2
102
RTVSPost2010PropOp53
 70
     1
102
RTVSPost2010Prop54
  1
strokes_ogs.tif
102
RTVSPost2010PropOp54
 70
     1
102
RTVSPost2010Prop55
280
     0
102
RTVSPost2010PropOp55
 70
     1
102
RTVSPost2010Prop56
140
1.0
102
RTVSPost2010PropOp56
 70
     1
102
RTVSPost2010Prop57
140
1.0
102
RTVSPost2010PropOp57
 70
     1
102
RTVSPropertyOp0
 70
     1
102
RTVSPropertyOp1
 70
     1
102
RTVSPropertyOp2
 70
     1
102
RTVSPropertyOp3
 70
     1
102
RTVSPropertyOp4
 70
     1
102
RTVSPropertyOp5
 70
     1
102
RTVSPropertyOp6
 70
     1
102
RTVSPropertyOp7
 70
     1
102
RTVSPropertyOp8
 70
     1
102
RTVSPropertyOp9
 70
     1
102
RTVSPropertyOp10
 70
     1
102
RTVSPropertyOp11
 70
     1
102
RTVSPropertyOp12
 70
     1
102
RTVSPropertyOp13
 70
     1
102
RTVSPropertyOp14
 70
     1
102
RTVSPropertyOp15
 70
     1
102
RTVSPropertyOp16
 70
     1
102
RTVSPropertyOp17
 70
     1
102
RTVSPropertyOp18
 70
     1
102
RTVSPropertyOp19
 70
     1
102
RTVSPropertyOp20
 70
     1
102
RTVSPropertyOp21
 70
     1
102
RTVSPropertyOp22
 70
     1
102
RTVSPropertyOp23
 70
     1
102
RTVSPropertyOp24
 70
     1
102
RTVSPropertyOp25
 70
     1
102
RTVSPropertyOp26
 70
     1
102
RTVSPropertyOp27
 70
     1
102
RTVSPropertyOp28
 70
     1
102
RTVSPropertyOp29
 70
     1
102
RTVSPropertyOp30
 70
     1
102
RTVSPropertyOp31
 70
     1
102
RTVSPropertyOp32
 70
     1
102
RTVSPropertyOp33
 70
     1
102
RTVSPropertyOp34
 70
     1
102
RTVSPropertyOp35
 70
     1
102
RTVSPropertyOp36
 70
     1
102
RTVSPropertyOp37
 70
     1
102
RTVSPropertyOp38
 70
     1
102
RTVSPropertyOp39
 70
     1
102
RTVSPropertyOp40
 70
     1
102
RTVSPropertyOp41
 70
     1
102
RTVSPropertyOp42
 70
     1
102
RTVSPropertyOp43
 70
     1
102
RTVSPropertyOp44
 70
     1
102
RTVSPropertyOp45
 70
     1
102
RTVSPropertyOp46
 70
     1
102
RTVSPropertyOp47
 70
     1
102
RTVSPropertyOp48
 70
     1
102
RTVSPropertyOp49
 70
     1
102
RTVSPropertyOp50
 70
     1
102
RTVSPropertyOp51
 70
     0
102
RTVSPropertyOp52
 70
     0
102
RTVSPropertyOp53
 70
     1
102
RTVSPropertyOp54
 70
     1
102
RTVSPropertyOp55
 70
     1
102
RTVSPropertyOp56
 70
     1
102
RTVSPropertyOp57
 70
     1
102
RTVSPropertyOp58
 70
     1
102
RTVSPropertyOp59
 70
     1
102
RTVSPropertyOp60
 70
     1
102
RTVSPropertyOp61
 70
     1
102
RTVSPropertyOp62
 70
     1
  0
XRECORD
  5
9BC
102
{ACAD_REACTORS
330
9BB
102
}
330
9BB
100
AcDbXrecord
280
     1
102
RTVSPost2010Prop28
280
     0
102
RTVSPost2010PropOp28
 70
     1
102
RTVSPost2010Prop29
280
     1
102
RTVSPost2010PropOp29
 70
     1
102
RTVSPost2010Prop30
280
     1
102
RTVSPost2010PropOp30
 70
     1
102
RTVSPost2010Prop31
280
     0
102
RTVSPost2010PropOp31
 70
     1
102
RTVSPost2010Prop32
280
     0
102
RTVSPost2010PropOp32
 70
     1
102
RTVSPost2010Prop33
280
     0
102
RTVSPost2010PropOp33
 70
     1
102
RTVSPost2010Prop34
280
     0
102
RTVSPost2010PropOp34
 70
     1
102
RTVSPost2010Prop35
280
     0
102
RTVSPost2010PropOp35
 70
     1
102
RTVSPost2010Prop36
280
     0
102
RTVSPost2010PropOp36
 70
     1
102
RTVSPost2010Prop37
 90
       50
102
RTVSPost2010PropOp37
 70
     1
102
RTVSPost2010Prop38
140
0.0
102
RTVSPost2010PropOp38
 70
     1
102
RTVSPost2010Prop39
140
1.0
102
RTVSPost2010PropOp39
 70
     1
102
RTVSPost2010Prop40
 90
        0
102
RTVSPost2010PropOp40
 70
     1
102
RTVSPost2010Prop41ColorIndex
 90
       18
102
RTVSPost2010Prop41ColorRGB
 90
        0
102
RTVSPost2010PropOp41
 70
     1
102
RTVSPost2010Prop42
 90
       50
102
RTVSPost2010PropOp42
 70
     1
102
RTVSPost2010Prop43
 90
        3
102
RTVSPost2010PropOp43
 70
     1
102
RTVSPost2010Prop44ColorIndex
 90
        5
102
RTVSPost2010Prop44ColorRGB
 90
      255
102
RTVSPost2010PropOp44
 70
     1
102
RTVSPost2010Prop45
280
     0
102
RTVSPost2010PropOp45
 70
     1
102
RTVSPost2010Prop46
 90
       50
102
RTVSPost2010PropOp46
 70
     1
102
RTVSPost2010Prop47
 90
       50
102
RTVSPost2010PropOp47
 70
     1
102
RTVSPost2010Prop48
 90
       50
102
RTVSPost2010PropOp48
 70
     1
102
RTVSPost2010Prop49
280
     0
102
RTVSPost2010PropOp49
 70
     1
102
RTVSPost2010Prop50
 90
       50
102
RTVSPost2010PropOp50
 70
     1
102
RTVSPost2010Prop51ColorIndex
 90
      256
102
RTVSPost2010Prop51ColorRGB
 90
-16777216
102
RTVSPost2010PropOp51
 70
     0
102
RTVSPost2010Prop52
140
1.0
102
RTVSPost2010PropOp52
 70
     0
102
RTVSPost2010Prop53
 90
        2
102
RTVSPost2010PropOp53
 70
     1
102
RTVSPost2010Prop54
  1
strokes_ogs.tif
102
RTVSPost2010PropOp54
 70
     1
102
RTVSPost2010Prop55
280
     0
102
RTVSPost2010PropOp55
 70
     1
102
RTVSPost2010Prop56
140
1.0
102
RTVSPost2010PropOp56
 70
     1
102
RTVSPost2010Prop57
140
1.0
102
RTVSPost2010PropOp57
 70
     1
102
RTVSPropertyOp0
 70
     1
102
RTVSPropertyOp1
 70
     1
102
RTVSPropertyOp2
 70
     1
102
RTVSPropertyOp3
 70
     1
102
RTVSPropertyOp4
 70
     1
102
RTVSPropertyOp5
 70
     1
102
RTVSPropertyOp6
 70
     1
102
RTVSPropertyOp7
 70
     1
102
RTVSPropertyOp8
 70
     1
102
RTVSPropertyOp9
 70
     1
102
RTVSPropertyOp10
 70
     1
102
RTVSPropertyOp11
 70
     1
102
RTVSPropertyOp12
 70
     1
102
RTVSPropertyOp13
 70
     1
102
RTVSPropertyOp14
 70
     1
102
RTVSPropertyOp15
 70
     1
102
RTVSPropertyOp16
 70
     1
102
RTVSPropertyOp17
 70
     1
102
RTVSPropertyOp18
 70
     1
102
RTVSPropertyOp19
 70
     1
102
RTVSPropertyOp20
 70
     1
102
RTVSPropertyOp21
 70
     1
102
RTVSPropertyOp22
 70
     1
102
RTVSPropertyOp23
 70
     1
102
RTVSPropertyOp24
 70
     1
102
RTVSPropertyOp25
 70
     1
102
RTVSPropertyOp26
 70
     1
102
RTVSPropertyOp27
 70
     1
102
RTVSPropertyOp28
 70
     1
102
RTVSPropertyOp29
 70
     1
102
RTVSPropertyOp30
 70
     1
102
RTVSPropertyOp31
 70
     1
102
RTVSPropertyOp32
 70
     1
102
RTVSPropertyOp33
 70
     1
102
RTVSPropertyOp34
 70
     1
102
RTVSPropertyOp35
 70
     1
102
RTVSPropertyOp36
 70
     1
102
RTVSPropertyOp37
 70
     1
102
RTVSPropertyOp38
 70
     1
102
RTVSPropertyOp39
 70
     1
102
RTVSPropertyOp40
 70
     1
102
RTVSPropertyOp41
 70
     1
102
RTVSPropertyOp42
 70
     1
102
RTVSPropertyOp43
 70
     1
102
RTVSPropertyOp44
 70
     1
102
RTVSPropertyOp45
 70
     1
102
RTVSPropertyOp46
 70
     1
102
RTVSPropertyOp47
 70
     1
102
RTVSPropertyOp48
 70
     1
102
RTVSPropertyOp49
 70
     1
102
RTVSPropertyOp50
 70
     1
102
RTVSPropertyOp51
 70
     0
102
RTVSPropertyOp52
 70
     0
102
RTVSPropertyOp53
 70
     1
102
RTVSPropertyOp54
 70
     1
102
RTVSPropertyOp55
 70
     1
102
RTVSPropertyOp56
 70
     1
102
RTVSPropertyOp57
 70
     1
102
RTVSPropertyOp58
 70
     1
102
RTVSPropertyOp59
 70
     1
102
RTVSPropertyOp60
 70
     1
102
RTVSPropertyOp61
 70
     1
102
RTVSPropertyOp62
 70
     1
  0
XRECORD
  5
9C0
102
{ACAD_REACTORS
330
9BF
102
}
330
9BF
100
AcDbXrecord
280
     1
102
RTVSPost2010Prop28
280
     0
102
RTVSPost2010PropOp28
 70
     1
102
RTVSPost2010Prop29
280
     1
102
RTVSPost2010PropOp29
 70
     1
102
RTVSPost2010Prop30
280
     1
102
RTVSPost2010PropOp30
 70
     1
102
RTVSPost2010Prop31
280
     0
102
RTVSPost2010PropOp31
 70
     1
102
RTVSPost2010Prop32
280
     0
102
RTVSPost2010PropOp32
 70
     1
102
RTVSPost2010Prop33
280
     0
102
RTVSPost2010PropOp33
 70
     1
102
RTVSPost2010Prop34
280
     0
102
RTVSPost2010PropOp34
 70
     1
102
RTVSPost2010Prop35
280
     0
102
RTVSPost2010PropOp35
 70
     1
102
RTVSPost2010Prop36
280
     0
102
RTVSPost2010PropOp36
 70
     1
102
RTVSPost2010Prop37
 90
       50
102
RTVSPost2010PropOp37
 70
     1
102
RTVSPost2010Prop38
140
0.0
102
RTVSPost2010PropOp38
 70
     1
102
RTVSPost2010Prop39
140
1.0
102
RTVSPost2010PropOp39
 70
     1
102
RTVSPost2010Prop40
 90
        0
102
RTVSPost2010PropOp40
 70
     1
102
RTVSPost2010Prop41ColorIndex
 90
       18
102
RTVSPost2010Prop41ColorRGB
 90
        0
102
RTVSPost2010PropOp41
 70
     1
102
RTVSPost2010Prop42
 90
       50
102
RTVSPost2010PropOp42
 70
     1
102
RTVSPost2010Prop43
 90
        3
102
RTVSPost2010PropOp43
 70
     1
102
RTVSPost2010Prop44ColorIndex
 90
        5
102
RTVSPost2010Prop44ColorRGB
 90
      255
102
RTVSPost2010PropOp44
 70
     1
102
RTVSPost2010Prop45
280
     0
102
RTVSPost2010PropOp45
 70
     1
102
RTVSPost2010Prop46
 90
       50
102
RTVSPost2010PropOp46
 70
     1
102
RTVSPost2010Prop47
 90
       50
102
RTVSPost2010PropOp47
 70
     1
102
RTVSPost2010Prop48
 90
       50
102
RTVSPost2010PropOp48
 70
     1
102
RTVSPost2010Prop49
280
     0
102
RTVSPost2010PropOp49
 70
     1
102
RTVSPost2010Prop50
 90
       50
102
RTVSPost2010PropOp50
 70
     1
102
RTVSPost2010Prop51ColorIndex
 90
      256
102
RTVSPost2010Prop51ColorRGB
 90
-16777216
102
RTVSPost2010PropOp51
 70
     0
102
RTVSPost2010Prop52
140
1.0
102
RTVSPost2010PropOp52
 70
     0
102
RTVSPost2010Prop53
 90
        2
102
RTVSPost2010PropOp53
 70
     1
102
RTVSPost2010Prop54
  1
strokes_ogs.tif
102
RTVSPost2010PropOp54
 70
     1
102
RTVSPost2010Prop55
280
     0
102
RTVSPost2010PropOp55
 70
     1
102
RTVSPost2010Prop56
140
1.0
102
RTVSPost2010PropOp56
 70
     1
102
RTVSPost2010Prop57
140
1.0
102
RTVSPost2010PropOp57
 70
     1
102
RTVSPropertyOp0
 70
     1
102
RTVSPropertyOp1
 70
     1
102
RTVSPropertyOp2
 70
     1
102
RTVSPropertyOp3
 70
     1
102
RTVSPropertyOp4
 70
     1
102
RTVSPropertyOp5
 70
     1
102
RTVSPropertyOp6
 70
     1
102
RTVSPropertyOp7
 70
     1
102
RTVSPropertyOp8
 70
     1
102
RTVSPropertyOp9
 70
     1
102
RTVSPropertyOp10
 70
     1
102
RTVSPropertyOp11
 70
     1
102
RTVSPropertyOp12
 70
     1
102
RTVSPropertyOp13
 70
     1
102
RTVSPropertyOp14
 70
     1
102
RTVSPropertyOp15
 70
     1
102
RTVSPropertyOp16
 70
     1
102
RTVSPropertyOp17
 70
     1
102
RTVSPropertyOp18
 70
     1
102
RTVSPropertyOp19
 70
     1
102
RTVSPropertyOp20
 70
     1
102
RTVSPropertyOp21
 70
     1
102
RTVSPropertyOp22
 70
     1
102
RTVSPropertyOp23
 70
     1
102
RTVSPropertyOp24
 70
     1
102
RTVSPropertyOp25
 70
     1
102
RTVSPropertyOp26
 70
     1
102
RTVSPropertyOp27
 70
     1
102
RTVSPropertyOp28
 70
     1
102
RTVSPropertyOp29
 70
     1
102
RTVSPropertyOp30
 70
     1
102
RTVSPropertyOp31
 70
     1
102
RTVSPropertyOp32
 70
     1
102
RTVSPropertyOp33
 70
     1
102
RTVSPropertyOp34
 70
     1
102
RTVSPropertyOp35
 70
     1
102
RTVSPropertyOp36
 70
     1
102
RTVSPropertyOp37
 70
     1
102
RTVSPropertyOp38
 70
     1
102
RTVSPropertyOp39
 70
     1
102
RTVSPropertyOp40
 70
     1
102
RTVSPropertyOp41
 70
     1
102
RTVSPropertyOp42
 70
     1
102
RTVSPropertyOp43
 70
     1
102
RTVSPropertyOp44
 70
     1
102
RTVSPropertyOp45
 70
     1
102
RTVSPropertyOp46
 70
     1
102
RTVSPropertyOp47
 70
     1
102
RTVSPropertyOp48
 70
     1
102
RTVSPropertyOp49
 70
     1
102
RTVSPropertyOp50
 70
     1
102
RTVSPropertyOp51
 70
     0
102
RTVSPropertyOp52
 70
     0
102
RTVSPropertyOp53
 70
     1
102
RTVSPropertyOp54
 70
     1
102
RTVSPropertyOp55
 70
     1
102
RTVSPropertyOp56
 70
     1
102
RTVSPropertyOp57
 70
     1
102
RTVSPropertyOp58
 70
     1
102
RTVSPropertyOp59
 70
     1
102
RTVSPropertyOp60
 70
     1
102
RTVSPropertyOp61
 70
     1
102
RTVSPropertyOp62
 70
     1
  0
XRECORD
  5
9D0
102
{ACAD_REACTORS
330
9CF
102
}
330
9CF
100
AcDbXrecord
280
     1
102
RTVSPost2010Prop28
280
     0
102
RTVSPost2010PropOp28
 70
     1
102
RTVSPost2010Prop29
280
     1
102
RTVSPost2010PropOp29
 70
     1
102
RTVSPost2010Prop30
280
     1
102
RTVSPost2010PropOp30
 70
     1
102
RTVSPost2010Prop31
280
     0
102
RTVSPost2010PropOp31
 70
     1
102
RTVSPost2010Prop32
280
     0
102
RTVSPost2010PropOp32
 70
     1
102
RTVSPost2010Prop33
280
     0
102
RTVSPost2010PropOp33
 70
     1
102
RTVSPost2010Prop34
280
     0
102
RTVSPost2010PropOp34
 70
     1
102
RTVSPost2010Prop35
280
     0
102
RTVSPost2010PropOp35
 70
     1
102
RTVSPost2010Prop36
280
     0
102
RTVSPost2010PropOp36
 70
     1
102
RTVSPost2010Prop37
 90
       50
102
RTVSPost2010PropOp37
 70
     1
102
RTVSPost2010Prop38
140
0.0
102
RTVSPost2010PropOp38
 70
     1
102
RTVSPost2010Prop39
140
1.0
102
RTVSPost2010PropOp39
 70
     1
102
RTVSPost2010Prop40
 90
        0
102
RTVSPost2010PropOp40
 70
     1
102
RTVSPost2010Prop41ColorIndex
 90
       18
102
RTVSPost2010Prop41ColorRGB
 90
        0
102
RTVSPost2010PropOp41
 70
     1
102
RTVSPost2010Prop42
 90
       50
102
RTVSPost2010PropOp42
 70
     1
102
RTVSPost2010Prop43
 90
        3
102
RTVSPost2010PropOp43
 70
     1
102
RTVSPost2010Prop44ColorIndex
 90
        5
102
RTVSPost2010Prop44ColorRGB
 90
      255
102
RTVSPost2010PropOp44
 70
     1
102
RTVSPost2010Prop45
280
     0
102
RTVSPost2010PropOp45
 70
     1
102
RTVSPost2010Prop46
 90
       50
102
RTVSPost2010PropOp46
 70
     1
102
RTVSPost2010Prop47
 90
       50
102
RTVSPost2010PropOp47
 70
     1
102
RTVSPost2010Prop48
 90
       50
102
RTVSPost2010PropOp48
 70
     1
102
RTVSPost2010Prop49
280
     0
102
RTVSPost2010PropOp49
 70
     1
102
RTVSPost2010Prop50
 90
       50
102
RTVSPost2010PropOp50
 70
     1
102
RTVSPost2010Prop51ColorIndex
 90
      256
102
RTVSPost2010Prop51ColorRGB
 90
-16777216
102
RTVSPost2010PropOp51
 70
     0
102
RTVSPost2010Prop52
140
1.0
102
RTVSPost2010PropOp52
 70
     0
102
RTVSPost2010Prop53
 90
        2
102
RTVSPost2010PropOp53
 70
     1
102
RTVSPost2010Prop54
  1
strokes_ogs.tif
102
RTVSPost2010PropOp54
 70
     1
102
RTVSPost2010Prop55
280
     0
102
RTVSPost2010PropOp55
 70
     1
102
RTVSPost2010Prop56
140
1.0
102
RTVSPost2010PropOp56
 70
     1
102
RTVSPost2010Prop57
140
1.0
102
RTVSPost2010PropOp57
 70
     1
102
RTVSPropertyOp0
 70
     0
102
RTVSPropertyOp1
 70
     0
102
RTVSPropertyOp2
 70
     0
102
RTVSPropertyOp3
 70
     0
102
RTVSPropertyOp4
 70
     0
102
RTVSPropertyOp5
 70
     0
102
RTVSPropertyOp6
 70
     0
102
RTVSPropertyOp7
 70
     0
102
RTVSPropertyOp8
 70
     0
102
RTVSPropertyOp9
 70
     0
102
RTVSPropertyOp10
 70
     0
102
RTVSPropertyOp11
 70
     0
102
RTVSPropertyOp12
 70
     0
102
RTVSPropertyOp13
 70
     0
102
RTVSPropertyOp14
 70
     2
102
RTVSPropertyOp15
 70
     0
102
RTVSPropertyOp16
 70
     0
102
RTVSPropertyOp17
 70
     0
102
RTVSPropertyOp18
 70
     0
102
RTVSPropertyOp19
 70
     0
102
RTVSPropertyOp20
 70
     0
102
RTVSPropertyOp21
 70
     0
102
RTVSPropertyOp22
 70
     0
102
RTVSPropertyOp23
 70
     0
102
RTVSPropertyOp24
 70
     0
102
RTVSPropertyOp25
 70
     0
102
RTVSPropertyOp26
 70
     0
102
RTVSPropertyOp27
 70
     0
102
RTVSPropertyOp28
 70
     1
102
RTVSPropertyOp29
 70
     1
102
RTVSPropertyOp30
 70
     1
102
RTVSPropertyOp31
 70
     1
102
RTVSPropertyOp32
 70
     1
102
RTVSPropertyOp33
 70
     1
102
RTVSPropertyOp34
 70
     1
102
RTVSPropertyOp35
 70
     1
102
RTVSPropertyOp36
 70
     1
102
RTVSPropertyOp37
 70
     1
102
RTVSPropertyOp38
 70
     1
102
RTVSPropertyOp39
 70
     1
102
RTVSPropertyOp40
 70
     1
102
RTVSPropertyOp41
 70
     1
102
RTVSPropertyOp42
 70
     1
102
RTVSPropertyOp43
 70
     1
102
RTVSPropertyOp44
 70
     1
102
RTVSPropertyOp45
 70
     1
102
RTVSPropertyOp46
 70
     1
102
RTVSPropertyOp47
 70
     1
102
RTVSPropertyOp48
 70
     1
102
RTVSPropertyOp49
 70
     1
102
RTVSPropertyOp50
 70
     1
102
RTVSPropertyOp51
 70
     0
102
RTVSPropertyOp52
 70
     0
102
RTVSPropertyOp53
 70
     1
102
RTVSPropertyOp54
 70
     1
102
RTVSPropertyOp55
 70
     1
102
RTVSPropertyOp56
 70
     1
102
RTVSPropertyOp57
 70
     1
102
RTVSPropertyOp58
 70
     1
102
RTVSPropertyOp59
 70
     1
102
RTVSPropertyOp60
 70
     1
102
RTVSPropertyOp61
 70
     1
102
RTVSPropertyOp62
 70
     1
  0
XRECORD
  5
9C8
102
{ACAD_REACTORS
330
9C7
102
}
330
9C7
100
AcDbXrecord
280
     1
102
RTVSPost2010Prop28
280
     0
102
RTVSPost2010PropOp28
 70
     1
102
RTVSPost2010Prop29
280
     1
102
RTVSPost2010PropOp29
 70
     1
102
RTVSPost2010Prop30
280
     1
102
RTVSPost2010PropOp30
 70
     1
102
RTVSPost2010Prop31
280
     0
102
RTVSPost2010PropOp31
 70
     1
102
RTVSPost2010Prop32
280
     0
102
RTVSPost2010PropOp32
 70
     1
102
RTVSPost2010Prop33
280
     0
102
RTVSPost2010PropOp33
 70
     1
102
RTVSPost2010Prop34
280
     0
102
RTVSPost2010PropOp34
 70
     1
102
RTVSPost2010Prop35
280
     0
102
RTVSPost2010PropOp35
 70
     1
102
RTVSPost2010Prop36
280
     0
102
RTVSPost2010PropOp36
 70
     1
102
RTVSPost2010Prop37
 90
       50
102
RTVSPost2010PropOp37
 70
     1
102
RTVSPost2010Prop38
140
0.0
102
RTVSPost2010PropOp38
 70
     1
102
RTVSPost2010Prop39
140
1.0
102
RTVSPost2010PropOp39
 70
     1
102
RTVSPost2010Prop40
 90
        0
102
RTVSPost2010PropOp40
 70
     1
102
RTVSPost2010Prop41ColorIndex
 90
       18
102
RTVSPost2010Prop41ColorRGB
 90
        0
102
RTVSPost2010PropOp41
 70
     1
102
RTVSPost2010Prop42
 90
       50
102
RTVSPost2010PropOp42
 70
     1
102
RTVSPost2010Prop43
 90
        3
102
RTVSPost2010PropOp43
 70
     1
102
RTVSPost2010Prop44ColorIndex
 90
        5
102
RTVSPost2010Prop44ColorRGB
 90
      255
102
RTVSPost2010PropOp44
 70
     1
102
RTVSPost2010Prop45
280
     0
102
RTVSPost2010PropOp45
 70
     1
102
RTVSPost2010Prop46
 90
       50
102
RTVSPost2010PropOp46
 70
     1
102
RTVSPost2010Prop47
 90
       50
102
RTVSPost2010PropOp47
 70
     1
102
RTVSPost2010Prop48
 90
       50
102
RTVSPost2010PropOp48
 70
     1
102
RTVSPost2010Prop49
280
     0
102
RTVSPost2010PropOp49
 70
     1
102
RTVSPost2010Prop50
 90
       50
102
RTVSPost2010PropOp50
 70
     1
102
RTVSPost2010Prop51ColorIndex
 90
      256
102
RTVSPost2010Prop51ColorRGB
 90
-16777216
102
RTVSPost2010PropOp51
 70
     0
102
RTVSPost2010Prop52
140
1.0
102
RTVSPost2010PropOp52
 70
     0
102
RTVSPost2010Prop53
 90
        2
102
RTVSPost2010PropOp53
 70
     1
102
RTVSPost2010Prop54
  1
strokes_ogs.tif
102
RTVSPost2010PropOp54
 70
     1
102
RTVSPost2010Prop55
280
     0
102
RTVSPost2010PropOp55
 70
     1
102
RTVSPost2010Prop56
140
1.0
102
RTVSPost2010PropOp56
 70
     1
102
RTVSPost2010Prop57
140
1.0
102
RTVSPost2010PropOp57
 70
     1
102
RTVSPropertyOp0
 70
     1
102
RTVSPropertyOp1
 70
     1
102
RTVSPropertyOp2
 70
     1
102
RTVSPropertyOp3
 70
     1
102
RTVSPropertyOp4
 70
     1
102
RTVSPropertyOp5
 70
     1
102
RTVSPropertyOp6
 70
     1
102
RTVSPropertyOp7
 70
     1
102
RTVSPropertyOp8
 70
     1
102
RTVSPropertyOp9
 70
     1
102
RTVSPropertyOp10
 70
     1
102
RTVSPropertyOp11
 70
     1
102
RTVSPropertyOp12
 70
     1
102
RTVSPropertyOp13
 70
     1
102
RTVSPropertyOp14
 70
     1
102
RTVSPropertyOp15
 70
     1
102
RTVSPropertyOp16
 70
     1
102
RTVSPropertyOp17
 70
     1
102
RTVSPropertyOp18
 70
     1
102
RTVSPropertyOp19
 70
     1
102
RTVSPropertyOp20
 70
     1
102
RTVSPropertyOp21
 70
     1
102
RTVSPropertyOp22
 70
     1
102
RTVSPropertyOp23
 70
     1
102
RTVSPropertyOp24
 70
     1
102
RTVSPropertyOp25
 70
     1
102
RTVSPropertyOp26
 70
     1
102
RTVSPropertyOp27
 70
     1
102
RTVSPropertyOp28
 70
     1
102
RTVSPropertyOp29
 70
     1
102
RTVSPropertyOp30
 70
     1
102
RTVSPropertyOp31
 70
     1
102
RTVSPropertyOp32
 70
     1
102
RTVSPropertyOp33
 70
     1
102
RTVSPropertyOp34
 70
     1
102
RTVSPropertyOp35
 70
     1
102
RTVSPropertyOp36
 70
     1
102
RTVSPropertyOp37
 70
     1
102
RTVSPropertyOp38
 70
     1
102
RTVSPropertyOp39
 70
     1
102
RTVSPropertyOp40
 70
     1
102
RTVSPropertyOp41
 70
     1
102
RTVSPropertyOp42
 70
     1
102
RTVSPropertyOp43
 70
     1
102
RTVSPropertyOp44
 70
     1
102
RTVSPropertyOp45
 70
     1
102
RTVSPropertyOp46
 70
     1
102
RTVSPropertyOp47
 70
     1
102
RTVSPropertyOp48
 70
     1
102
RTVSPropertyOp49
 70
     1
102
RTVSPropertyOp50
 70
     1
102
RTVSPropertyOp51
 70
     0
102
RTVSPropertyOp52
 70
     0
102
RTVSPropertyOp53
 70
     1
102
RTVSPropertyOp54
 70
     1
102
RTVSPropertyOp55
 70
     1
102
RTVSPropertyOp56
 70
     1
102
RTVSPropertyOp57
 70
     1
102
RTVSPropertyOp58
 70
     1
102
RTVSPropertyOp59
 70
     1
102
RTVSPropertyOp60
 70
     1
102
RTVSPropertyOp61
 70
     1
102
RTVSPropertyOp62
 70
     1
  0
XRECORD
  5
9AC
102
{ACAD_REACTORS
330
9AB
102
}
330
9AB
100
AcDbXrecord
280
     1
102
RTVSPost2010Prop28
280
     0
102
RTVSPost2010PropOp28
 70
     1
102
RTVSPost2010Prop29
280
     1
102
RTVSPost2010PropOp29
 70
     1
102
RTVSPost2010Prop30
280
     1
102
RTVSPost2010PropOp30
 70
     1
102
RTVSPost2010Prop31
280
     0
102
RTVSPost2010PropOp31
 70
     1
102
RTVSPost2010Prop32
280
     0
102
RTVSPost2010PropOp32
 70
     1
102
RTVSPost2010Prop33
280
     0
102
RTVSPost2010PropOp33
 70
     1
102
RTVSPost2010Prop34
280
     0
102
RTVSPost2010PropOp34
 70
     1
102
RTVSPost2010Prop35
280
     0
102
RTVSPost2010PropOp35
 70
     1
102
RTVSPost2010Prop36
280
     0
102
RTVSPost2010PropOp36
 70
     1
102
RTVSPost2010Prop37
 90
       50
102
RTVSPost2010PropOp37
 70
     1
102
RTVSPost2010Prop38
140
0.0
102
RTVSPost2010PropOp38
 70
     1
102
RTVSPost2010Prop39
140
1.0
102
RTVSPost2010PropOp39
 70
     1
102
RTVSPost2010Prop40
 90
        0
102
RTVSPost2010PropOp40
 70
     1
102
RTVSPost2010Prop41ColorIndex
 90
       18
102
RTVSPost2010Prop41ColorRGB
 90
        0
102
RTVSPost2010PropOp41
 70
     1
102
RTVSPost2010Prop42
 90
       50
102
RTVSPost2010PropOp42
 70
     1
102
RTVSPost2010Prop43
 90
        3
102
RTVSPost2010PropOp43
 70
     1
102
RTVSPost2010Prop44ColorIndex
 90
        5
102
RTVSPost2010Prop44ColorRGB
 90
      255
102
RTVSPost2010PropOp44
 70
     1
102
RTVSPost2010Prop45
280
     0
102
RTVSPost2010PropOp45
 70
     1
102
RTVSPost2010Prop46
 90
       50
102
RTVSPost2010PropOp46
 70
     1
102
RTVSPost2010Prop47
 90
       50
102
RTVSPost2010PropOp47
 70
     1
102
RTVSPost2010Prop48
 90
       50
102
RTVSPost2010PropOp48
 70
     1
102
RTVSPost2010Prop49
280
     0
102
RTVSPost2010PropOp49
 70
     1
102
RTVSPost2010Prop50
 90
       50
102
RTVSPost2010PropOp50
 70
     1
102
RTVSPost2010Prop51ColorIndex
 90
      256
102
RTVSPost2010Prop51ColorRGB
 90
-16777216
102
RTVSPost2010PropOp51
 70
     0
102
RTVSPost2010Prop52
140
1.0
102
RTVSPost2010PropOp52
 70
     0
102
RTVSPost2010Prop53
 90
        2
102
RTVSPost2010PropOp53
 70
     1
102
RTVSPost2010Prop54
  1
strokes_ogs.tif
102
RTVSPost2010PropOp54
 70
     1
102
RTVSPost2010Prop55
280
     0
102
RTVSPost2010PropOp55
 70
     1
102
RTVSPost2010Prop56
140
1.0
102
RTVSPost2010PropOp56
 70
     1
102
RTVSPost2010Prop57
140
1.0
102
RTVSPost2010PropOp57
 70
     1
102
RTVSPropertyOp0
 70
     1
102
RTVSPropertyOp1
 70
     1
102
RTVSPropertyOp2
 70
     1
102
RTVSPropertyOp3
 70
     1
102
RTVSPropertyOp4
 70
     1
102
RTVSPropertyOp5
 70
     1
102
RTVSPropertyOp6
 70
     1
102
RTVSPropertyOp7
 70
     1
102
RTVSPropertyOp8
 70
     1
102
RTVSPropertyOp9
 70
     1
102
RTVSPropertyOp10
 70
     1
102
RTVSPropertyOp11
 70
     1
102
RTVSPropertyOp12
 70
     1
102
RTVSPropertyOp13
 70
     1
102
RTVSPropertyOp14
 70
     1
102
RTVSPropertyOp15
 70
     1
102
RTVSPropertyOp16
 70
     1
102
RTVSPropertyOp17
 70
     1
102
RTVSPropertyOp18
 70
     1
102
RTVSPropertyOp19
 70
     1
102
RTVSPropertyOp20
 70
     1
102
RTVSPropertyOp21
 70
     1
102
RTVSPropertyOp22
 70
     1
102
RTVSPropertyOp23
 70
     1
102
RTVSPropertyOp24
 70
     1
102
RTVSPropertyOp25
 70
     1
102
RTVSPropertyOp26
 70
     1
102
RTVSPropertyOp27
 70
     1
102
RTVSPropertyOp28
 70
     1
102
RTVSPropertyOp29
 70
     1
102
RTVSPropertyOp30
 70
     1
102
RTVSPropertyOp31
 70
     1
102
RTVSPropertyOp32
 70
     1
102
RTVSPropertyOp33
 70
     1
102
RTVSPropertyOp34
 70
     1
102
RTVSPropertyOp35
 70
     1
102
RTVSPropertyOp36
 70
     1
102
RTVSPropertyOp37
 70
     1
102
RTVSPropertyOp38
 70
     1
102
RTVSPropertyOp39
 70
     1
102
RTVSPropertyOp40
 70
     1
102
RTVSPropertyOp41
 70
     1
102
RTVSPropertyOp42
 70
     1
102
RTVSPropertyOp43
 70
     1
102
RTVSPropertyOp44
 70
     1
102
RTVSPropertyOp45
 70
     1
102
RTVSPropertyOp46
 70
     1
102
RTVSPropertyOp47
 70
     1
102
RTVSPropertyOp48
 70
     1
102
RTVSPropertyOp49
 70
     1
102
RTVSPropertyOp50
 70
     1
102
RTVSPropertyOp51
 70
     0
102
RTVSPropertyOp52
 70
     0
102
RTVSPropertyOp53
 70
     1
102
RTVSPropertyOp54
 70
     1
102
RTVSPropertyOp55
 70
     1
102
RTVSPropertyOp56
 70
     1
102
RTVSPropertyOp57
 70
     1
102
RTVSPropertyOp58
 70
     1
102
RTVSPropertyOp59
 70
     1
102
RTVSPropertyOp60
 70
     1
102
RTVSPropertyOp61
 70
     1
102
RTVSPropertyOp62
 70
     1
  0
XRECORD
  5
9AE
102
{ACAD_REACTORS
330
9AD
102
}
330
9AD
100
AcDbXrecord
280
     1
102
RTVSPost2010Prop28
280
     0
102
RTVSPost2010PropOp28
 70
     1
102
RTVSPost2010Prop29
280
     1
102
RTVSPost2010PropOp29
 70
     1
102
RTVSPost2010Prop30
280
     1
102
RTVSPost2010PropOp30
 70
     1
102
RTVSPost2010Prop31
280
     0
102
RTVSPost2010PropOp31
 70
     1
102
RTVSPost2010Prop32
280
     0
102
RTVSPost2010PropOp32
 70
     1
102
RTVSPost2010Prop33
280
     0
102
RTVSPost2010PropOp33
 70
     1
102
RTVSPost2010Prop34
280
     0
102
RTVSPost2010PropOp34
 70
     1
102
RTVSPost2010Prop35
280
     0
102
RTVSPost2010PropOp35
 70
     1
102
RTVSPost2010Prop36
280
     0
102
RTVSPost2010PropOp36
 70
     1
102
RTVSPost2010Prop37
 90
       50
102
RTVSPost2010PropOp37
 70
     1
102
RTVSPost2010Prop38
140
0.0
102
RTVSPost2010PropOp38
 70
     1
102
RTVSPost2010Prop39
140
1.0
102
RTVSPost2010PropOp39
 70
     1
102
RTVSPost2010Prop40
 90
        0
102
RTVSPost2010PropOp40
 70
     1
102
RTVSPost2010Prop41ColorIndex
 90
       18
102
RTVSPost2010Prop41ColorRGB
 90
        0
102
RTVSPost2010PropOp41
 70
     1
102
RTVSPost2010Prop42
 90
       50
102
RTVSPost2010PropOp42
 70
     1
102
RTVSPost2010Prop43
 90
        3
102
RTVSPost2010PropOp43
 70
     1
102
RTVSPost2010Prop44ColorIndex
 90
        5
102
RTVSPost2010Prop44ColorRGB
 90
      255
102
RTVSPost2010PropOp44
 70
     1
102
RTVSPost2010Prop45
280
     0
102
RTVSPost2010PropOp45
 70
     1
102
RTVSPost2010Prop46
 90
       50
102
RTVSPost2010PropOp46
 70
     1
102
RTVSPost2010Prop47
 90
       50
102
RTVSPost2010PropOp47
 70
     1
102
RTVSPost2010Prop48
 90
       50
102
RTVSPost2010PropOp48
 70
     1
102
RTVSPost2010Prop49
280
     0
102
RTVSPost2010PropOp49
 70
     1
102
RTVSPost2010Prop50
 90
       50
102
RTVSPost2010PropOp50
 70
     1
102
RTVSPost2010Prop51ColorIndex
 90
      256
102
RTVSPost2010Prop51ColorRGB
 90
-16777216
102
RTVSPost2010PropOp51
 70
     0
102
RTVSPost2010Prop52
140
1.0
102
RTVSPost2010PropOp52
 70
     0
102
RTVSPost2010Prop53
 90
        2
102
RTVSPost2010PropOp53
 70
     1
102
RTVSPost2010Prop54
  1
strokes_ogs.tif
102
RTVSPost2010PropOp54
 70
     1
102
RTVSPost2010Prop55
280
     0
102
RTVSPost2010PropOp55
 70
     1
102
RTVSPost2010Prop56
140
1.0
102
RTVSPost2010PropOp56
 70
     1
102
RTVSPost2010Prop57
140
1.0
102
RTVSPost2010PropOp57
 70
     1
102
RTVSPropertyOp0
 70
     1
102
RTVSPropertyOp1
 70
     1
102
RTVSPropertyOp2
 70
     1
102
RTVSPropertyOp3
 70
     1
102
RTVSPropertyOp4
 70
     1
102
RTVSPropertyOp5
 70
     1
102
RTVSPropertyOp6
 70
     1
102
RTVSPropertyOp7
 70
     1
102
RTVSPropertyOp8
 70
     1
102
RTVSPropertyOp9
 70
     1
102
RTVSPropertyOp10
 70
     1
102
RTVSPropertyOp11
 70
     1
102
RTVSPropertyOp12
 70
     1
102
RTVSPropertyOp13
 70
     1
102
RTVSPropertyOp14
 70
     1
102
RTVSPropertyOp15
 70
     1
102
RTVSPropertyOp16
 70
     1
102
RTVSPropertyOp17
 70
     1
102
RTVSPropertyOp18
 70
     1
102
RTVSPropertyOp19
 70
     1
102
RTVSPropertyOp20
 70
     1
102
RTVSPropertyOp21
 70
     1
102
RTVSPropertyOp22
 70
     1
102
RTVSPropertyOp23
 70
     1
102
RTVSPropertyOp24
 70
     1
102
RTVSPropertyOp25
 70
     1
102
RTVSPropertyOp26
 70
     1
102
RTVSPropertyOp27
 70
     1
102
RTVSPropertyOp28
 70
     1
102
RTVSPropertyOp29
 70
     1
102
RTVSPropertyOp30
 70
     1
102
RTVSPropertyOp31
 70
     1
102
RTVSPropertyOp32
 70
     1
102
RTVSPropertyOp33
 70
     1
102
RTVSPropertyOp34
 70
     1
102
RTVSPropertyOp35
 70
     1
102
RTVSPropertyOp36
 70
     1
102
RTVSPropertyOp37
 70
     1
102
RTVSPropertyOp38
 70
     1
102
RTVSPropertyOp39
 70
     1
102
RTVSPropertyOp40
 70
     1
102
RTVSPropertyOp41
 70
     1
102
RTVSPropertyOp42
 70
     1
102
RTVSPropertyOp43
 70
     1
102
RTVSPropertyOp44
 70
     1
102
RTVSPropertyOp45
 70
     1
102
RTVSPropertyOp46
 70
     1
102
RTVSPropertyOp47
 70
     1
102
RTVSPropertyOp48
 70
     1
102
RTVSPropertyOp49
 70
     1
102
RTVSPropertyOp50
 70
     1
102
RTVSPropertyOp51
 70
     0
102
RTVSPropertyOp52
 70
     0
102
RTVSPropertyOp53
 70
     1
102
RTVSPropertyOp54
 70
     1
102
RTVSPropertyOp55
 70
     1
102
RTVSPropertyOp56
 70
     1
102
RTVSPropertyOp57
 70
     1
102
RTVSPropertyOp58
 70
     1
102
RTVSPropertyOp59
 70
     1
102
RTVSPropertyOp60
 70
     1
102
RTVSPropertyOp61
 70
     1
102
RTVSPropertyOp62
 70
     1
  0
XRECORD
  5
9B0
102
{ACAD_REACTORS
330
9AF
102
}
330
9AF
100
AcDbXrecord
280
     1
102
RTVSPost2010Prop28
280
     0
102
RTVSPost2010PropOp28
 70
     1
102
RTVSPost2010Prop29
280
     1
102
RTVSPost2010PropOp29
 70
     1
102
RTVSPost2010Prop30
280
     1
102
RTVSPost2010PropOp30
 70
     1
102
RTVSPost2010Prop31
280
     0
102
RTVSPost2010PropOp31
 70
     1
102
RTVSPost2010Prop32
280
     0
102
RTVSPost2010PropOp32
 70
     1
102
RTVSPost2010Prop33
280
     0
102
RTVSPost2010PropOp33
 70
     1
102
RTVSPost2010Prop34
280
     0
102
RTVSPost2010PropOp34
 70
     1
102
RTVSPost2010Prop35
280
     0
102
RTVSPost2010PropOp35
 70
     1
102
RTVSPost2010Prop36
280
     0
102
RTVSPost2010PropOp36
 70
     1
102
RTVSPost2010Prop37
 90
       50
102
RTVSPost2010PropOp37
 70
     1
102
RTVSPost2010Prop38
140
0.0
102
RTVSPost2010PropOp38
 70
     1
102
RTVSPost2010Prop39
140
1.0
102
RTVSPost2010PropOp39
 70
     1
102
RTVSPost2010Prop40
 90
        0
102
RTVSPost2010PropOp40
 70
     1
102
RTVSPost2010Prop41ColorIndex
 90
       18
102
RTVSPost2010Prop41ColorRGB
 90
        0
102
RTVSPost2010PropOp41
 70
     1
102
RTVSPost2010Prop42
 90
       50
102
RTVSPost2010PropOp42
 70
     1
102
RTVSPost2010Prop43
 90
        3
102
RTVSPost2010PropOp43
 70
     1
102
RTVSPost2010Prop44ColorIndex
 90
        5
102
RTVSPost2010Prop44ColorRGB
 90
      255
102
RTVSPost2010PropOp44
 70
     1
102
RTVSPost2010Prop45
280
     0
102
RTVSPost2010PropOp45
 70
     1
102
RTVSPost2010Prop46
 90
       50
102
RTVSPost2010PropOp46
 70
     1
102
RTVSPost2010Prop47
 90
       50
102
RTVSPost2010PropOp47
 70
     1
102
RTVSPost2010Prop48
 90
       50
102
RTVSPost2010PropOp48
 70
     1
102
RTVSPost2010Prop49
280
     0
102
RTVSPost2010PropOp49
 70
     1
102
RTVSPost2010Prop50
 90
       50
102
RTVSPost2010PropOp50
 70
     1
102
RTVSPost2010Prop51ColorIndex
 90
      256
102
RTVSPost2010Prop51ColorRGB
 90
-16777216
102
RTVSPost2010PropOp51
 70
     0
102
RTVSPost2010Prop52
140
1.0
102
RTVSPost2010PropOp52
 70
     0
102
RTVSPost2010Prop53
 90
        2
102
RTVSPost2010PropOp53
 70
     1
102
RTVSPost2010Prop54
  1
strokes_ogs.tif
102
RTVSPost2010PropOp54
 70
     1
102
RTVSPost2010Prop55
280
     0
102
RTVSPost2010PropOp55
 70
     1
102
RTVSPost2010Prop56
140
1.0
102
RTVSPost2010PropOp56
 70
     1
102
RTVSPost2010Prop57
140
1.0
102
RTVSPost2010PropOp57
 70
     1
102
RTVSPropertyOp0
 70
     1
102
RTVSPropertyOp1
 70
     1
102
RTVSPropertyOp2
 70
     1
102
RTVSPropertyOp3
 70
     1
102
RTVSPropertyOp4
 70
     1
102
RTVSPropertyOp5
 70
     1
102
RTVSPropertyOp6
 70
     1
102
RTVSPropertyOp7
 70
     1
102
RTVSPropertyOp8
 70
     1
102
RTVSPropertyOp9
 70
     1
102
RTVSPropertyOp10
 70
     1
102
RTVSPropertyOp11
 70
     1
102
RTVSPropertyOp12
 70
     1
102
RTVSPropertyOp13
 70
     1
102
RTVSPropertyOp14
 70
     1
102
RTVSPropertyOp15
 70
     1
102
RTVSPropertyOp16
 70
     1
102
RTVSPropertyOp17
 70
     1
102
RTVSPropertyOp18
 70
     1
102
RTVSPropertyOp19
 70
     1
102
RTVSPropertyOp20
 70
     1
102
RTVSPropertyOp21
 70
     1
102
RTVSPropertyOp22
 70
     1
102
RTVSPropertyOp23
 70
     1
102
RTVSPropertyOp24
 70
     1
102
RTVSPropertyOp25
 70
     1
102
RTVSPropertyOp26
 70
     1
102
RTVSPropertyOp27
 70
     1
102
RTVSPropertyOp28
 70
     1
102
RTVSPropertyOp29
 70
     1
102
RTVSPropertyOp30
 70
     1
102
RTVSPropertyOp31
 70
     1
102
RTVSPropertyOp32
 70
     1
102
RTVSPropertyOp33
 70
     1
102
RTVSPropertyOp34
 70
     1
102
RTVSPropertyOp35
 70
     1
102
RTVSPropertyOp36
 70
     1
102
RTVSPropertyOp37
 70
     1
102
RTVSPropertyOp38
 70
     1
102
RTVSPropertyOp39
 70
     1
102
RTVSPropertyOp40
 70
     1
102
RTVSPropertyOp41
 70
     1
102
RTVSPropertyOp42
 70
     1
102
RTVSPropertyOp43
 70
     1
102
RTVSPropertyOp44
 70
     1
102
RTVSPropertyOp45
 70
     1
102
RTVSPropertyOp46
 70
     1
102
RTVSPropertyOp47
 70
     1
102
RTVSPropertyOp48
 70
     1
102
RTVSPropertyOp49
 70
     1
102
RTVSPropertyOp50
 70
     1
102
RTVSPropertyOp51
 70
     0
102
RTVSPropertyOp52
 70
     0
102
RTVSPropertyOp53
 70
     1
102
RTVSPropertyOp54
 70
     1
102
RTVSPropertyOp55
 70
     1
102
RTVSPropertyOp56
 70
     1
102
RTVSPropertyOp57
 70
     1
102
RTVSPropertyOp58
 70
     1
102
RTVSPropertyOp59
 70
     1
102
RTVSPropertyOp60
 70
     1
102
RTVSPropertyOp61
 70
     1
102
RTVSPropertyOp62
 70
     1
  0
XRECORD
  5
9B2
102
{ACAD_REACTORS
330
9B1
102
}
330
9B1
100
AcDbXrecord
280
     1
102
RTVSPost2010Prop28
280
     0
102
RTVSPost2010PropOp28
 70
     1
102
RTVSPost2010Prop29
280
     1
102
RTVSPost2010PropOp29
 70
     1
102
RTVSPost2010Prop30
280
     1
102
RTVSPost2010PropOp30
 70
     1
102
RTVSPost2010Prop31
280
     0
102
RTVSPost2010PropOp31
 70
     1
102
RTVSPost2010Prop32
280
     0
102
RTVSPost2010PropOp32
 70
     1
102
RTVSPost2010Prop33
280
     0
102
RTVSPost2010PropOp33
 70
     1
102
RTVSPost2010Prop34
280
     0
102
RTVSPost2010PropOp34
 70
     1
102
RTVSPost2010Prop35
280
     0
102
RTVSPost2010PropOp35
 70
     1
102
RTVSPost2010Prop36
280
     0
102
RTVSPost2010PropOp36
 70
     1
102
RTVSPost2010Prop37
 90
       50
102
RTVSPost2010PropOp37
 70
     1
102
RTVSPost2010Prop38
140
0.0
102
RTVSPost2010PropOp38
 70
     1
102
RTVSPost2010Prop39
140
1.0
102
RTVSPost2010PropOp39
 70
     1
102
RTVSPost2010Prop40
 90
        0
102
RTVSPost2010PropOp40
 70
     1
102
RTVSPost2010Prop41ColorIndex
 90
       18
102
RTVSPost2010Prop41ColorRGB
 90
        0
102
RTVSPost2010PropOp41
 70
     1
102
RTVSPost2010Prop42
 90
       50
102
RTVSPost2010PropOp42
 70
     1
102
RTVSPost2010Prop43
 90
        3
102
RTVSPost2010PropOp43
 70
     1
102
RTVSPost2010Prop44ColorIndex
 90
        5
102
RTVSPost2010Prop44ColorRGB
 90
      255
102
RTVSPost2010PropOp44
 70
     1
102
RTVSPost2010Prop45
280
     0
102
RTVSPost2010PropOp45
 70
     1
102
RTVSPost2010Prop46
 90
       50
102
RTVSPost2010PropOp46
 70
     1
102
RTVSPost2010Prop47
 90
       50
102
RTVSPost2010PropOp47
 70
     1
102
RTVSPost2010Prop48
 90
       50
102
RTVSPost2010PropOp48
 70
     1
102
RTVSPost2010Prop49
280
     0
102
RTVSPost2010PropOp49
 70
     1
102
RTVSPost2010Prop50
 90
       50
102
RTVSPost2010PropOp50
 70
     1
102
RTVSPost2010Prop51ColorIndex
 90
      256
102
RTVSPost2010Prop51ColorRGB
 90
-16777216
102
RTVSPost2010PropOp51
 70
     0
102
RTVSPost2010Prop52
140
1.0
102
RTVSPost2010PropOp52
 70
     0
102
RTVSPost2010Prop53
 90
        2
102
RTVSPost2010PropOp53
 70
     1
102
RTVSPost2010Prop54
  1
strokes_ogs.tif
102
RTVSPost2010PropOp54
 70
     1
102
RTVSPost2010Prop55
280
     0
102
RTVSPost2010PropOp55
 70
     1
102
RTVSPost2010Prop56
140
1.0
102
RTVSPost2010PropOp56
 70
     1
102
RTVSPost2010Prop57
140
1.0
102
RTVSPost2010PropOp57
 70
     1
102
RTVSPropertyOp0
 70
     1
102
RTVSPropertyOp1
 70
     1
102
RTVSPropertyOp2
 70
     1
102
RTVSPropertyOp3
 70
     1
102
RTVSPropertyOp4
 70
     1
102
RTVSPropertyOp5
 70
     1
102
RTVSPropertyOp6
 70
     1
102
RTVSPropertyOp7
 70
     1
102
RTVSPropertyOp8
 70
     1
102
RTVSPropertyOp9
 70
     1
102
RTVSPropertyOp10
 70
     1
102
RTVSPropertyOp11
 70
     1
102
RTVSPropertyOp12
 70
     1
102
RTVSPropertyOp13
 70
     1
102
RTVSPropertyOp14
 70
     1
102
RTVSPropertyOp15
 70
     1
102
RTVSPropertyOp16
 70
     1
102
RTVSPropertyOp17
 70
     1
102
RTVSPropertyOp18
 70
     1
102
RTVSPropertyOp19
 70
     1
102
RTVSPropertyOp20
 70
     1
102
RTVSPropertyOp21
 70
     1
102
RTVSPropertyOp22
 70
     1
102
RTVSPropertyOp23
 70
     1
102
RTVSPropertyOp24
 70
     1
102
RTVSPropertyOp25
 70
     1
102
RTVSPropertyOp26
 70
     1
102
RTVSPropertyOp27
 70
     1
102
RTVSPropertyOp28
 70
     1
102
RTVSPropertyOp29
 70
     1
102
RTVSPropertyOp30
 70
     1
102
RTVSPropertyOp31
 70
     1
102
RTVSPropertyOp32
 70
     1
102
RTVSPropertyOp33
 70
     1
102
RTVSPropertyOp34
 70
     1
102
RTVSPropertyOp35
 70
     1
102
RTVSPropertyOp36
 70
     1
102
RTVSPropertyOp37
 70
     1
102
RTVSPropertyOp38
 70
     1
102
RTVSPropertyOp39
 70
     1
102
RTVSPropertyOp40
 70
     1
102
RTVSPropertyOp41
 70
     1
102
RTVSPropertyOp42
 70
     1
102
RTVSPropertyOp43
 70
     1
102
RTVSPropertyOp44
 70
     1
102
RTVSPropertyOp45
 70
     1
102
RTVSPropertyOp46
 70
     1
102
RTVSPropertyOp47
 70
     1
102
RTVSPropertyOp48
 70
     1
102
RTVSPropertyOp49
 70
     1
102
RTVSPropertyOp50
 70
     1
102
RTVSPropertyOp51
 70
     0
102
RTVSPropertyOp52
 70
     0
102
RTVSPropertyOp53
 70
     1
102
RTVSPropertyOp54
 70
     1
102
RTVSPropertyOp55
 70
     1
102
RTVSPropertyOp56
 70
     1
102
RTVSPropertyOp57
 70
     1
102
RTVSPropertyOp58
 70
     1
102
RTVSPropertyOp59
 70
     1
102
RTVSPropertyOp60
 70
     1
102
RTVSPropertyOp61
 70
     1
102
RTVSPropertyOp62
 70
     1
  0
XRECORD
  5
9DB
102
{ACAD_REACTORS
330
9DA
102
}
330
9DA
100
AcDbXrecord
280
     1
102
RTVSPost2010Prop28
280
     0
102
RTVSPost2010PropOp28
 70
     1
102
RTVSPost2010Prop29
280
     1
102
RTVSPost2010PropOp29
 70
     1
102
RTVSPost2010Prop30
280
     1
102
RTVSPost2010PropOp30
 70
     1
102
RTVSPost2010Prop31
280
     0
102
RTVSPost2010PropOp31
 70
     1
102
RTVSPost2010Prop32
280
     0
102
RTVSPost2010PropOp32
 70
     1
102
RTVSPost2010Prop33
280
     0
102
RTVSPost2010PropOp33
 70
     1
102
RTVSPost2010Prop34
280
     0
102
RTVSPost2010PropOp34
 70
     1
102
RTVSPost2010Prop35
280
     0
102
RTVSPost2010PropOp35
 70
     1
102
RTVSPost2010Prop36
280
     0
102
RTVSPost2010PropOp36
 70
     1
102
RTVSPost2010Prop37
 90
       50
102
RTVSPost2010PropOp37
 70
     1
102
RTVSPost2010Prop38
140
0.0
102
RTVSPost2010PropOp38
 70
     1
102
RTVSPost2010Prop39
140
1.0
102
RTVSPost2010PropOp39
 70
     1
102
RTVSPost2010Prop40
 90
        0
102
RTVSPost2010PropOp40
 70
     1
102
RTVSPost2010Prop41ColorIndex
 90
       18
102
RTVSPost2010Prop41ColorRGB
 90
        0
102
RTVSPost2010PropOp41
 70
     1
102
RTVSPost2010Prop42
 90
       50
102
RTVSPost2010PropOp42
 70
     1
102
RTVSPost2010Prop43
 90
        3
102
RTVSPost2010PropOp43
 70
     1
102
RTVSPost2010Prop44ColorIndex
 90
        5
102
RTVSPost2010Prop44ColorRGB
 90
      255
102
RTVSPost2010PropOp44
 70
     1
102
RTVSPost2010Prop45
280
     0
102
RTVSPost2010PropOp45
 70
     1
102
RTVSPost2010Prop46
 90
       50
102
RTVSPost2010PropOp46
 70
     1
102
RTVSPost2010Prop47
 90
       50
102
RTVSPost2010PropOp47
 70
     1
102
RTVSPost2010Prop48
 90
       50
102
RTVSPost2010PropOp48
 70
     1
102
RTVSPost2010Prop49
280
     0
102
RTVSPost2010PropOp49
 70
     1
102
RTVSPost2010Prop50
 90
       50
102
RTVSPost2010PropOp50
 70
     1
102
RTVSPost2010Prop51ColorIndex
 90
      256
102
RTVSPost2010Prop51ColorRGB
 90
-16777216
102
RTVSPost2010PropOp51
 70
     0
102
RTVSPost2010Prop52
140
1.0
102
RTVSPost2010PropOp52
 70
     0
102
RTVSPost2010Prop53
 90
        2
102
RTVSPost2010PropOp53
 70
     1
102
RTVSPost2010Prop54
  1
strokes_ogs.tif
102
RTVSPost2010PropOp54
 70
     1
102
RTVSPost2010Prop55
280
     0
102
RTVSPost2010PropOp55
 70
     1
102
RTVSPost2010Prop56
140
1.0
102
RTVSPost2010PropOp56
 70
     1
102
RTVSPost2010Prop57
140
1.0
102
RTVSPost2010PropOp57
 70
     1
102
RTVSPropertyOp0
 70
     1
102
RTVSPropertyOp1
 70
     1
102
RTVSPropertyOp2
 70
     1
102
RTVSPropertyOp3
 70
     1
102
RTVSPropertyOp4
 70
     1
102
RTVSPropertyOp5
 70
     1
102
RTVSPropertyOp6
 70
     1
102
RTVSPropertyOp7
 70
     1
102
RTVSPropertyOp8
 70
     1
102
RTVSPropertyOp9
 70
     1
102
RTVSPropertyOp10
 70
     1
102
RTVSPropertyOp11
 70
     1
102
RTVSPropertyOp12
 70
     1
102
RTVSPropertyOp13
 70
     1
102
RTVSPropertyOp14
 70
     1
102
RTVSPropertyOp15
 70
     1
102
RTVSPropertyOp16
 70
     1
102
RTVSPropertyOp17
 70
     1
102
RTVSPropertyOp18
 70
     1
102
RTVSPropertyOp19
 70
     1
102
RTVSPropertyOp20
 70
     1
102
RTVSPropertyOp21
 70
     1
102
RTVSPropertyOp22
 70
     1
102
RTVSPropertyOp23
 70
     1
102
RTVSPropertyOp24
 70
     1
102
RTVSPropertyOp25
 70
     1
102
RTVSPropertyOp26
 70
     1
102
RTVSPropertyOp27
 70
     1
102
RTVSPropertyOp28
 70
     1
102
RTVSPropertyOp29
 70
     1
102
RTVSPropertyOp30
 70
     1
102
RTVSPropertyOp31
 70
     1
102
RTVSPropertyOp32
 70
     1
102
RTVSPropertyOp33
 70
     1
102
RTVSPropertyOp34
 70
     1
102
RTVSPropertyOp35
 70
     1
102
RTVSPropertyOp36
 70
     1
102
RTVSPropertyOp37
 70
     1
102
RTVSPropertyOp38
 70
     1
102
RTVSPropertyOp39
 70
     1
102
RTVSPropertyOp40
 70
     1
102
RTVSPropertyOp41
 70
     1
102
RTVSPropertyOp42
 70
     1
102
RTVSPropertyOp43
 70
     1
102
RTVSPropertyOp44
 70
     1
102
RTVSPropertyOp45
 70
     1
102
RTVSPropertyOp46
 70
     1
102
RTVSPropertyOp47
 70
     1
102
RTVSPropertyOp48
 70
     1
102
RTVSPropertyOp49
 70
     1
102
RTVSPropertyOp50
 70
     1
102
RTVSPropertyOp51
 70
     0
102
RTVSPropertyOp52
 70
     0
102
RTVSPropertyOp53
 70
     1
102
RTVSPropertyOp54
 70
     1
102
RTVSPropertyOp55
 70
     1
102
RTVSPropertyOp56
 70
     1
102
RTVSPropertyOp57
 70
     1
102
RTVSPropertyOp58
 70
     1
102
RTVSPropertyOp59
 70
     1
102
RTVSPropertyOp60
 70
     1
102
RTVSPropertyOp61
 70
     1
102
RTVSPropertyOp62
 70
     1
  0
XRECORD
  5
9CC
102
{ACAD_REACTORS
330
9CB
102
}
330
9CB
100
AcDbXrecord
280
     1
102
RTVSPost2010Prop28
280
     0
102
RTVSPost2010PropOp28
 70
     1
102
RTVSPost2010Prop29
280
     1
102
RTVSPost2010PropOp29
 70
     1
102
RTVSPost2010Prop30
280
     1
102
RTVSPost2010PropOp30
 70
     1
102
RTVSPost2010Prop31
280
     0
102
RTVSPost2010PropOp31
 70
     1
102
RTVSPost2010Prop32
280
     0
102
RTVSPost2010PropOp32
 70
     1
102
RTVSPost2010Prop33
280
     0
102
RTVSPost2010PropOp33
 70
     1
102
RTVSPost2010Prop34
280
     0
102
RTVSPost2010PropOp34
 70
     1
102
RTVSPost2010Prop35
280
     0
102
RTVSPost2010PropOp35
 70
     1
102
RTVSPost2010Prop36
280
     0
102
RTVSPost2010PropOp36
 70
     1
102
RTVSPost2010Prop37
 90
       50
102
RTVSPost2010PropOp37
 70
     1
102
RTVSPost2010Prop38
140
0.0
102
RTVSPost2010PropOp38
 70
     1
102
RTVSPost2010Prop39
140
1.0
102
RTVSPost2010PropOp39
 70
     1
102
RTVSPost2010Prop40
 90
        0
102
RTVSPost2010PropOp40
 70
     1
102
RTVSPost2010Prop41ColorIndex
 90
       18
102
RTVSPost2010Prop41ColorRGB
 90
        0
102
RTVSPost2010PropOp41
 70
     1
102
RTVSPost2010Prop42
 90
       50
102
RTVSPost2010PropOp42
 70
     1
102
RTVSPost2010Prop43
 90
        3
102
RTVSPost2010PropOp43
 70
     1
102
RTVSPost2010Prop44ColorIndex
 90
        5
102
RTVSPost2010Prop44ColorRGB
 90
      255
102
RTVSPost2010PropOp44
 70
     1
102
RTVSPost2010Prop45
280
     0
102
RTVSPost2010PropOp45
 70
     1
102
RTVSPost2010Prop46
 90
       50
102
RTVSPost2010PropOp46
 70
     1
102
RTVSPost2010Prop47
 90
       50
102
RTVSPost2010PropOp47
 70
     1
102
RTVSPost2010Prop48
 90
       50
102
RTVSPost2010PropOp48
 70
     1
102
RTVSPost2010Prop49
280
     0
102
RTVSPost2010PropOp49
 70
     1
102
RTVSPost2010Prop50
 90
       50
102
RTVSPost2010PropOp50
 70
     1
102
RTVSPost2010Prop51ColorIndex
 90
      256
102
RTVSPost2010Prop51ColorRGB
 90
-16777216
102
RTVSPost2010PropOp51
 70
     0
102
RTVSPost2010Prop52
140
1.0
102
RTVSPost2010PropOp52
 70
     0
102
RTVSPost2010Prop53
 90
        2
102
RTVSPost2010PropOp53
 70
     1
102
RTVSPost2010Prop54
  1
strokes_ogs.tif
102
RTVSPost2010PropOp54
 70
     1
102
RTVSPost2010Prop55
280
     0
102
RTVSPost2010PropOp55
 70
     1
102
RTVSPost2010Prop56
140
1.0
102
RTVSPost2010PropOp56
 70
     1
102
RTVSPost2010Prop57
140
1.0
102
RTVSPost2010PropOp57
 70
     1
102
RTVSPropertyOp0
 70
     0
102
RTVSPropertyOp1
 70
     0
102
RTVSPropertyOp2
 70
     0
102
RTVSPropertyOp3
 70
     0
102
RTVSPropertyOp4
 70
     0
102
RTVSPropertyOp5
 70
     0
102
RTVSPropertyOp6
 70
     0
102
RTVSPropertyOp7
 70
     0
102
RTVSPropertyOp8
 70
     0
102
RTVSPropertyOp9
 70
     0
102
RTVSPropertyOp10
 70
     0
102
RTVSPropertyOp11
 70
     0
102
RTVSPropertyOp12
 70
     0
102
RTVSPropertyOp13
 70
     0
102
RTVSPropertyOp14
 70
     2
102
RTVSPropertyOp15
 70
     0
102
RTVSPropertyOp16
 70
     0
102
RTVSPropertyOp17
 70
     0
102
RTVSPropertyOp18
 70
     0
102
RTVSPropertyOp19
 70
     0
102
RTVSPropertyOp20
 70
     0
102
RTVSPropertyOp21
 70
     0
102
RTVSPropertyOp22
 70
     0
102
RTVSPropertyOp23
 70
     0
102
RTVSPropertyOp24
 70
     0
102
RTVSPropertyOp25
 70
     0
102
RTVSPropertyOp26
 70
     0
102
RTVSPropertyOp27
 70
     0
102
RTVSPropertyOp28
 70
     1
102
RTVSPropertyOp29
 70
     1
102
RTVSPropertyOp30
 70
     1
102
RTVSPropertyOp31
 70
     1
102
RTVSPropertyOp32
 70
     1
102
RTVSPropertyOp33
 70
     1
102
RTVSPropertyOp34
 70
     1
102
RTVSPropertyOp35
 70
     1
102
RTVSPropertyOp36
 70
     1
102
RTVSPropertyOp37
 70
     1
102
RTVSPropertyOp38
 70
     1
102
RTVSPropertyOp39
 70
     1
102
RTVSPropertyOp40
 70
     1
102
RTVSPropertyOp41
 70
     1
102
RTVSPropertyOp42
 70
     1
102
RTVSPropertyOp43
 70
     1
102
RTVSPropertyOp44
 70
     1
102
RTVSPropertyOp45
 70
     1
102
RTVSPropertyOp46
 70
     1
102
RTVSPropertyOp47
 70
     1
102
RTVSPropertyOp48
 70
     1
102
RTVSPropertyOp49
 70
     1
102
RTVSPropertyOp50
 70
     1
102
RTVSPropertyOp51
 70
     0
102
RTVSPropertyOp52
 70
     0
102
RTVSPropertyOp53
 70
     1
102
RTVSPropertyOp54
 70
     1
102
RTVSPropertyOp55
 70
     1
102
RTVSPropertyOp56
 70
     1
102
RTVSPropertyOp57
 70
     1
102
RTVSPropertyOp58
 70
     1
102
RTVSPropertyOp59
 70
     1
102
RTVSPropertyOp60
 70
     1
102
RTVSPropertyOp61
 70
     1
102
RTVSPropertyOp62
 70
     1
  0
XRECORD
  5
9C6
102
{ACAD_REACTORS
330
9C5
102
}
330
9C5
100
AcDbXrecord
280
     1
102
RTVSPost2010Prop28
280
     0
102
RTVSPost2010PropOp28
 70
     1
102
RTVSPost2010Prop29
280
     1
102
RTVSPost2010PropOp29
 70
     1
102
RTVSPost2010Prop30
280
     1
102
RTVSPost2010PropOp30
 70
     1
102
RTVSPost2010Prop31
280
     0
102
RTVSPost2010PropOp31
 70
     1
102
RTVSPost2010Prop32
280
     0
102
RTVSPost2010PropOp32
 70
     1
102
RTVSPost2010Prop33
280
     0
102
RTVSPost2010PropOp33
 70
     1
102
RTVSPost2010Prop34
280
     0
102
RTVSPost2010PropOp34
 70
     1
102
RTVSPost2010Prop35
280
     0
102
RTVSPost2010PropOp35
 70
     1
102
RTVSPost2010Prop36
280
     0
102
RTVSPost2010PropOp36
 70
     1
102
RTVSPost2010Prop37
 90
       50
102
RTVSPost2010PropOp37
 70
     1
102
RTVSPost2010Prop38
140
0.0
102
RTVSPost2010PropOp38
 70
     1
102
RTVSPost2010Prop39
140
1.0
102
RTVSPost2010PropOp39
 70
     1
102
RTVSPost2010Prop40
 90
        0
102
RTVSPost2010PropOp40
 70
     1
102
RTVSPost2010Prop41ColorIndex
 90
       18
102
RTVSPost2010Prop41ColorRGB
 90
        0
102
RTVSPost2010PropOp41
 70
     1
102
RTVSPost2010Prop42
 90
       50
102
RTVSPost2010PropOp42
 70
     1
102
RTVSPost2010Prop43
 90
        3
102
RTVSPost2010PropOp43
 70
     1
102
RTVSPost2010Prop44ColorIndex
 90
        5
102
RTVSPost2010Prop44ColorRGB
 90
      255
102
RTVSPost2010PropOp44
 70
     1
102
RTVSPost2010Prop45
280
     0
102
RTVSPost2010PropOp45
 70
     1
102
RTVSPost2010Prop46
 90
       50
102
RTVSPost2010PropOp46
 70
     1
102
RTVSPost2010Prop47
 90
       50
102
RTVSPost2010PropOp47
 70
     1
102
RTVSPost2010Prop48
 90
       50
102
RTVSPost2010PropOp48
 70
     1
102
RTVSPost2010Prop49
280
     0
102
RTVSPost2010PropOp49
 70
     1
102
RTVSPost2010Prop50
 90
       50
102
RTVSPost2010PropOp50
 70
     1
102
RTVSPost2010Prop51ColorIndex
 90
      256
102
RTVSPost2010Prop51ColorRGB
 90
-16777216
102
RTVSPost2010PropOp51
 70
     0
102
RTVSPost2010Prop52
140
1.0
102
RTVSPost2010PropOp52
 70
     0
102
RTVSPost2010Prop53
 90
        2
102
RTVSPost2010PropOp53
 70
     1
102
RTVSPost2010Prop54
  1
strokes_ogs.tif
102
RTVSPost2010PropOp54
 70
     1
102
RTVSPost2010Prop55
280
     0
102
RTVSPost2010PropOp55
 70
     1
102
RTVSPost2010Prop56
140
1.0
102
RTVSPost2010PropOp56
 70
     1
102
RTVSPost2010Prop57
140
1.0
102
RTVSPost2010PropOp57
 70
     1
102
RTVSPropertyOp0
 70
     1
102
RTVSPropertyOp1
 70
     1
102
RTVSPropertyOp2
 70
     1
102
RTVSPropertyOp3
 70
     1
102
RTVSPropertyOp4
 70
     1
102
RTVSPropertyOp5
 70
     1
102
RTVSPropertyOp6
 70
     1
102
RTVSPropertyOp7
 70
     1
102
RTVSPropertyOp8
 70
     1
102
RTVSPropertyOp9
 70
     1
102
RTVSPropertyOp10
 70
     1
102
RTVSPropertyOp11
 70
     1
102
RTVSPropertyOp12
 70
     1
102
RTVSPropertyOp13
 70
     1
102
RTVSPropertyOp14
 70
     1
102
RTVSPropertyOp15
 70
     1
102
RTVSPropertyOp16
 70
     1
102
RTVSPropertyOp17
 70
     1
102
RTVSPropertyOp18
 70
     1
102
RTVSPropertyOp19
 70
     1
102
RTVSPropertyOp20
 70
     1
102
RTVSPropertyOp21
 70
     1
102
RTVSPropertyOp22
 70
     1
102
RTVSPropertyOp23
 70
     1
102
RTVSPropertyOp24
 70
     1
102
RTVSPropertyOp25
 70
     1
102
RTVSPropertyOp26
 70
     1
102
RTVSPropertyOp27
 70
     1
102
RTVSPropertyOp28
 70
     1
102
RTVSPropertyOp29
 70
     1
102
RTVSPropertyOp30
 70
     1
102
RTVSPropertyOp31
 70
     1
102
RTVSPropertyOp32
 70
     1
102
RTVSPropertyOp33
 70
     1
102
RTVSPropertyOp34
 70
     1
102
RTVSPropertyOp35
 70
     1
102
RTVSPropertyOp36
 70
     1
102
RTVSPropertyOp37
 70
     1
102
RTVSPropertyOp38
 70
     1
102
RTVSPropertyOp39
 70
     1
102
RTVSPropertyOp40
 70
     1
102
RTVSPropertyOp41
 70
     1
102
RTVSPropertyOp42
 70
     1
102
RTVSPropertyOp43
 70
     1
102
RTVSPropertyOp44
 70
     1
102
RTVSPropertyOp45
 70
     1
102
RTVSPropertyOp46
 70
     1
102
RTVSPropertyOp47
 70
     1
102
RTVSPropertyOp48
 70
     1
102
RTVSPropertyOp49
 70
     1
102
RTVSPropertyOp50
 70
     1
102
RTVSPropertyOp51
 70
     0
102
RTVSPropertyOp52
 70
     0
102
RTVSPropertyOp53
 70
     1
102
RTVSPropertyOp54
 70
     1
102
RTVSPropertyOp55
 70
     1
102
RTVSPropertyOp56
 70
     1
102
RTVSPropertyOp57
 70
     1
102
RTVSPropertyOp58
 70
     1
102
RTVSPropertyOp59
 70
     1
102
RTVSPropertyOp60
 70
     1
102
RTVSPropertyOp61
 70
     1
102
RTVSPropertyOp62
 70
     1
  0
XRECORD
  5
9CE
102
{ACAD_REACTORS
330
9CD
102
}
330
9CD
100
AcDbXrecord
280
     1
102
RTVSPost2010Prop28
280
     0
102
RTVSPost2010PropOp28
 70
     1
102
RTVSPost2010Prop29
280
     1
102
RTVSPost2010PropOp29
 70
     1
102
RTVSPost2010Prop30
280
     1
102
RTVSPost2010PropOp30
 70
     1
102
RTVSPost2010Prop31
280
     0
102
RTVSPost2010PropOp31
 70
     1
102
RTVSPost2010Prop32
280
     0
102
RTVSPost2010PropOp32
 70
     1
102
RTVSPost2010Prop33
280
     0
102
RTVSPost2010PropOp33
 70
     1
102
RTVSPost2010Prop34
280
     0
102
RTVSPost2010PropOp34
 70
     1
102
RTVSPost2010Prop35
280
     0
102
RTVSPost2010PropOp35
 70
     1
102
RTVSPost2010Prop36
280
     0
102
RTVSPost2010PropOp36
 70
     1
102
RTVSPost2010Prop37
 90
       50
102
RTVSPost2010PropOp37
 70
     1
102
RTVSPost2010Prop38
140
0.0
102
RTVSPost2010PropOp38
 70
     1
102
RTVSPost2010Prop39
140
1.0
102
RTVSPost2010PropOp39
 70
     1
102
RTVSPost2010Prop40
 90
        0
102
RTVSPost2010PropOp40
 70
     1
102
RTVSPost2010Prop41ColorIndex
 90
       18
102
RTVSPost2010Prop41ColorRGB
 90
        0
102
RTVSPost2010PropOp41
 70
     1
102
RTVSPost2010Prop42
 90
       50
102
RTVSPost2010PropOp42
 70
     1
102
RTVSPost2010Prop43
 90
        3
102
RTVSPost2010PropOp43
 70
     1
102
RTVSPost2010Prop44ColorIndex
 90
        5
102
RTVSPost2010Prop44ColorRGB
 90
      255
102
RTVSPost2010PropOp44
 70
     1
102
RTVSPost2010Prop45
280
     0
102
RTVSPost2010PropOp45
 70
     1
102
RTVSPost2010Prop46
 90
       50
102
RTVSPost2010PropOp46
 70
     1
102
RTVSPost2010Prop47
 90
       50
102
RTVSPost2010PropOp47
 70
     1
102
RTVSPost2010Prop48
 90
       50
102
RTVSPost2010PropOp48
 70
     1
102
RTVSPost2010Prop49
280
     0
102
RTVSPost2010PropOp49
 70
     1
102
RTVSPost2010Prop50
 90
       50
102
RTVSPost2010PropOp50
 70
     1
102
RTVSPost2010Prop51ColorIndex
 90
      256
102
RTVSPost2010Prop51ColorRGB
 90
-16777216
102
RTVSPost2010PropOp51
 70
     0
102
RTVSPost2010Prop52
140
1.0
102
RTVSPost2010PropOp52
 70
     0
102
RTVSPost2010Prop53
 90
        2
102
RTVSPost2010PropOp53
 70
     1
102
RTVSPost2010Prop54
  1
strokes_ogs.tif
102
RTVSPost2010PropOp54
 70
     1
102
RTVSPost2010Prop55
280
     0
102
RTVSPost2010PropOp55
 70
     1
102
RTVSPost2010Prop56
140
1.0
102
RTVSPost2010PropOp56
 70
     1
102
RTVSPost2010Prop57
140
1.0
102
RTVSPost2010PropOp57
 70
     1
102
RTVSPropertyOp0
 70
     0
102
RTVSPropertyOp1
 70
     0
102
RTVSPropertyOp2
 70
     0
102
RTVSPropertyOp3
 70
     0
102
RTVSPropertyOp4
 70
     0
102
RTVSPropertyOp5
 70
     0
102
RTVSPropertyOp6
 70
     0
102
RTVSPropertyOp7
 70
     0
102
RTVSPropertyOp8
 70
     0
102
RTVSPropertyOp9
 70
     0
102
RTVSPropertyOp10
 70
     0
102
RTVSPropertyOp11
 70
     0
102
RTVSPropertyOp12
 70
     0
102
RTVSPropertyOp13
 70
     0
102
RTVSPropertyOp14
 70
     2
102
RTVSPropertyOp15
 70
     0
102
RTVSPropertyOp16
 70
     0
102
RTVSPropertyOp17
 70
     0
102
RTVSPropertyOp18
 70
     0
102
RTVSPropertyOp19
 70
     0
102
RTVSPropertyOp20
 70
     0
102
RTVSPropertyOp21
 70
     0
102
RTVSPropertyOp22
 70
     0
102
RTVSPropertyOp23
 70
     0
102
RTVSPropertyOp24
 70
     0
102
RTVSPropertyOp25
 70
     0
102
RTVSPropertyOp26
 70
     0
102
RTVSPropertyOp27
 70
     0
102
RTVSPropertyOp28
 70
     1
102
RTVSPropertyOp29
 70
     1
102
RTVSPropertyOp30
 70
     1
102
RTVSPropertyOp31
 70
     1
102
RTVSPropertyOp32
 70
     1
102
RTVSPropertyOp33
 70
     1
102
RTVSPropertyOp34
 70
     1
102
RTVSPropertyOp35
 70
     1
102
RTVSPropertyOp36
 70
     1
102
RTVSPropertyOp37
 70
     1
102
RTVSPropertyOp38
 70
     1
102
RTVSPropertyOp39
 70
     1
102
RTVSPropertyOp40
 70
     1
102
RTVSPropertyOp41
 70
     1
102
RTVSPropertyOp42
 70
     1
102
RTVSPropertyOp43
 70
     1
102
RTVSPropertyOp44
 70
     1
102
RTVSPropertyOp45
 70
     1
102
RTVSPropertyOp46
 70
     1
102
RTVSPropertyOp47
 70
     1
102
RTVSPropertyOp48
 70
     1
102
RTVSPropertyOp49
 70
     1
102
RTVSPropertyOp50
 70
     1
102
RTVSPropertyOp51
 70
     0
102
RTVSPropertyOp52
 70
     0
102
RTVSPropertyOp53
 70
     1
102
RTVSPropertyOp54
 70
     1
102
RTVSPropertyOp55
 70
     1
102
RTVSPropertyOp56
 70
     1
102
RTVSPropertyOp57
 70
     1
102
RTVSPropertyOp58
 70
     1
102
RTVSPropertyOp59
 70
     1
102
RTVSPropertyOp60
 70
     1
102
RTVSPropertyOp61
 70
     1
102
RTVSPropertyOp62
 70
     1
  0
XRECORD
  5
9BE
102
{ACAD_REACTORS
330
9BD
102
}
330
9BD
100
AcDbXrecord
280
     1
102
RTVSPost2010Prop28
280
     0
102
RTVSPost2010PropOp28
 70
     1
102
RTVSPost2010Prop29
280
     1
102
RTVSPost2010PropOp29
 70
     1
102
RTVSPost2010Prop30
280
     1
102
RTVSPost2010PropOp30
 70
     1
102
RTVSPost2010Prop31
280
     0
102
RTVSPost2010PropOp31
 70
     1
102
RTVSPost2010Prop32
280
     0
102
RTVSPost2010PropOp32
 70
     1
102
RTVSPost2010Prop33
280
     0
102
RTVSPost2010PropOp33
 70
     1
102
RTVSPost2010Prop34
280
     0
102
RTVSPost2010PropOp34
 70
     1
102
RTVSPost2010Prop35
280
     0
102
RTVSPost2010PropOp35
 70
     1
102
RTVSPost2010Prop36
280
     0
102
RTVSPost2010PropOp36
 70
     1
102
RTVSPost2010Prop37
 90
       50
102
RTVSPost2010PropOp37
 70
     1
102
RTVSPost2010Prop38
140
0.0
102
RTVSPost2010PropOp38
 70
     1
102
RTVSPost2010Prop39
140
1.0
102
RTVSPost2010PropOp39
 70
     1
102
RTVSPost2010Prop40
 90
        0
102
RTVSPost2010PropOp40
 70
     1
102
RTVSPost2010Prop41ColorIndex
 90
       18
102
RTVSPost2010Prop41ColorRGB
 90
        0
102
RTVSPost2010PropOp41
 70
     1
102
RTVSPost2010Prop42
 90
       50
102
RTVSPost2010PropOp42
 70
     1
102
RTVSPost2010Prop43
 90
        3
102
RTVSPost2010PropOp43
 70
     1
102
RTVSPost2010Prop44ColorIndex
 90
        5
102
RTVSPost2010Prop44ColorRGB
 90
      255
102
RTVSPost2010PropOp44
 70
     1
102
RTVSPost2010Prop45
280
     0
102
RTVSPost2010PropOp45
 70
     1
102
RTVSPost2010Prop46
 90
       50
102
RTVSPost2010PropOp46
 70
     1
102
RTVSPost2010Prop47
 90
       50
102
RTVSPost2010PropOp47
 70
     1
102
RTVSPost2010Prop48
 90
       50
102
RTVSPost2010PropOp48
 70
     1
102
RTVSPost2010Prop49
280
     0
102
RTVSPost2010PropOp49
 70
     1
102
RTVSPost2010Prop50
 90
       50
102
RTVSPost2010PropOp50
 70
     1
102
RTVSPost2010Prop51ColorIndex
 90
      256
102
RTVSPost2010Prop51ColorRGB
 90
-16777216
102
RTVSPost2010PropOp51
 70
     0
102
RTVSPost2010Prop52
140
1.0
102
RTVSPost2010PropOp52
 70
     0
102
RTVSPost2010Prop53
 90
        2
102
RTVSPost2010PropOp53
 70
     1
102
RTVSPost2010Prop54
  1
strokes_ogs.tif
102
RTVSPost2010PropOp54
 70
     1
102
RTVSPost2010Prop55
280
     0
102
RTVSPost2010PropOp55
 70
     1
102
RTVSPost2010Prop56
140
1.0
102
RTVSPost2010PropOp56
 70
     1
102
RTVSPost2010Prop57
140
1.0
102
RTVSPost2010PropOp57
 70
     1
102
RTVSPropertyOp0
 70
     1
102
RTVSPropertyOp1
 70
     1
102
RTVSPropertyOp2
 70
     1
102
RTVSPropertyOp3
 70
     1
102
RTVSPropertyOp4
 70
     1
102
RTVSPropertyOp5
 70
     1
102
RTVSPropertyOp6
 70
     1
102
RTVSPropertyOp7
 70
     1
102
RTVSPropertyOp8
 70
     1
102
RTVSPropertyOp9
 70
     1
102
RTVSPropertyOp10
 70
     1
102
RTVSPropertyOp11
 70
     1
102
RTVSPropertyOp12
 70
     1
102
RTVSPropertyOp13
 70
     1
102
RTVSPropertyOp14
 70
     1
102
RTVSPropertyOp15
 70
     1
102
RTVSPropertyOp16
 70
     1
102
RTVSPropertyOp17
 70
     1
102
RTVSPropertyOp18
 70
     1
102
RTVSPropertyOp19
 70
     1
102
RTVSPropertyOp20
 70
     1
102
RTVSPropertyOp21
 70
     1
102
RTVSPropertyOp22
 70
     1
102
RTVSPropertyOp23
 70
     1
102
RTVSPropertyOp24
 70
     1
102
RTVSPropertyOp25
 70
     1
102
RTVSPropertyOp26
 70
     1
102
RTVSPropertyOp27
 70
     1
102
RTVSPropertyOp28
 70
     1
102
RTVSPropertyOp29
 70
     1
102
RTVSPropertyOp30
 70
     1
102
RTVSPropertyOp31
 70
     1
102
RTVSPropertyOp32
 70
     1
102
RTVSPropertyOp33
 70
     1
102
RTVSPropertyOp34
 70
     1
102
RTVSPropertyOp35
 70
     1
102
RTVSPropertyOp36
 70
     1
102
RTVSPropertyOp37
 70
     1
102
RTVSPropertyOp38
 70
     1
102
RTVSPropertyOp39
 70
     1
102
RTVSPropertyOp40
 70
     1
102
RTVSPropertyOp41
 70
     1
102
RTVSPropertyOp42
 70
     1
102
RTVSPropertyOp43
 70
     1
102
RTVSPropertyOp44
 70
     1
102
RTVSPropertyOp45
 70
     1
102
RTVSPropertyOp46
 70
     1
102
RTVSPropertyOp47
 70
     1
102
RTVSPropertyOp48
 70
     1
102
RTVSPropertyOp49
 70
     1
102
RTVSPropertyOp50
 70
     1
102
RTVSPropertyOp51
 70
     0
102
RTVSPropertyOp52
 70
     0
102
RTVSPropertyOp53
 70
     1
102
RTVSPropertyOp54
 70
     1
102
RTVSPropertyOp55
 70
     1
102
RTVSPropertyOp56
 70
     1
102
RTVSPropertyOp57
 70
     1
102
RTVSPropertyOp58
 70
     1
102
RTVSPropertyOp59
 70
     1
102
RTVSPropertyOp60
 70
     1
102
RTVSPropertyOp61
 70
     1
102
RTVSPropertyOp62
 70
     1
  0
XRECORD
  5
9E5
102
{ACAD_REACTORS
330
9E4
102
}
330
9E4
100
AcDbXrecord
280
     1
102
RTVSPost2010Prop28
280
     0
102
RTVSPost2010PropOp28
 70
     1
102
RTVSPost2010Prop29
280
     1
102
RTVSPost2010PropOp29
 70
     1
102
RTVSPost2010Prop30
280
     1
102
RTVSPost2010PropOp30
 70
     1
102
RTVSPost2010Prop31
280
     0
102
RTVSPost2010PropOp31
 70
     1
102
RTVSPost2010Prop32
280
     0
102
RTVSPost2010PropOp32
 70
     1
102
RTVSPost2010Prop33
280
     0
102
RTVSPost2010PropOp33
 70
     1
102
RTVSPost2010Prop34
280
     0
102
RTVSPost2010PropOp34
 70
     1
102
RTVSPost2010Prop35
280
     0
102
RTVSPost2010PropOp35
 70
     1
102
RTVSPost2010Prop36
280
     0
102
RTVSPost2010PropOp36
 70
     1
102
RTVSPost2010Prop37
 90
       50
102
RTVSPost2010PropOp37
 70
     1
102
RTVSPost2010Prop38
140
0.0
102
RTVSPost2010PropOp38
 70
     1
102
RTVSPost2010Prop39
140
1.0
102
RTVSPost2010PropOp39
 70
     1
102
RTVSPost2010Prop40
 90
        0
102
RTVSPost2010PropOp40
 70
     1
102
RTVSPost2010Prop41ColorIndex
 90
       18
102
RTVSPost2010Prop41ColorRGB
 90
        0
102
RTVSPost2010PropOp41
 70
     1
102
RTVSPost2010Prop42
 90
       50
102
RTVSPost2010PropOp42
 70
     1
102
RTVSPost2010Prop43
 90
        3
102
RTVSPost2010PropOp43
 70
     1
102
RTVSPost2010Prop44ColorIndex
 90
        5
102
RTVSPost2010Prop44ColorRGB
 90
      255
102
RTVSPost2010PropOp44
 70
     1
102
RTVSPost2010Prop45
280
     0
102
RTVSPost2010PropOp45
 70
     1
102
RTVSPost2010Prop46
 90
       50
102
RTVSPost2010PropOp46
 70
     1
102
RTVSPost2010Prop47
 90
       50
102
RTVSPost2010PropOp47
 70
     1
102
RTVSPost2010Prop48
 90
       50
102
RTVSPost2010PropOp48
 70
     1
102
RTVSPost2010Prop49
280
     0
102
RTVSPost2010PropOp49
 70
     1
102
RTVSPost2010Prop50
 90
       50
102
RTVSPost2010PropOp50
 70
     1
102
RTVSPost2010Prop51ColorIndex
 90
      256
102
RTVSPost2010Prop51ColorRGB
 90
-16777216
102
RTVSPost2010PropOp51
 70
     0
102
RTVSPost2010Prop52
140
1.0
102
RTVSPost2010PropOp52
 70
     0
102
RTVSPost2010Prop53
 90
        2
102
RTVSPost2010PropOp53
 70
     1
102
RTVSPost2010Prop54
  1
strokes_ogs.tif
102
RTVSPost2010PropOp54
 70
     1
102
RTVSPost2010Prop55
280
     0
102
RTVSPost2010PropOp55
 70
     1
102
RTVSPost2010Prop56
140
1.0
102
RTVSPost2010PropOp56
 70
     1
102
RTVSPost2010Prop57
140
1.0
102
RTVSPost2010PropOp57
 70
     1
102
RTVSPropertyOp0
 70
     1
102
RTVSPropertyOp1
 70
     1
102
RTVSPropertyOp2
 70
     1
102
RTVSPropertyOp3
 70
     1
102
RTVSPropertyOp4
 70
     1
102
RTVSPropertyOp5
 70
     1
102
RTVSPropertyOp6
 70
     1
102
RTVSPropertyOp7
 70
     1
102
RTVSPropertyOp8
 70
     1
102
RTVSPropertyOp9
 70
     1
102
RTVSPropertyOp10
 70
     1
102
RTVSPropertyOp11
 70
     1
102
RTVSPropertyOp12
 70
     1
102
RTVSPropertyOp13
 70
     1
102
RTVSPropertyOp14
 70
     1
102
RTVSPropertyOp15
 70
     1
102
RTVSPropertyOp16
 70
     1
102
RTVSPropertyOp17
 70
     1
102
RTVSPropertyOp18
 70
     1
102
RTVSPropertyOp19
 70
     1
102
RTVSPropertyOp20
 70
     1
102
RTVSPropertyOp21
 70
     1
102
RTVSPropertyOp22
 70
     1
102
RTVSPropertyOp23
 70
     1
102
RTVSPropertyOp24
 70
     1
102
RTVSPropertyOp25
 70
     1
102
RTVSPropertyOp26
 70
     1
102
RTVSPropertyOp27
 70
     1
102
RTVSPropertyOp28
 70
     1
102
RTVSPropertyOp29
 70
     1
102
RTVSPropertyOp30
 70
     1
102
RTVSPropertyOp31
 70
     1
102
RTVSPropertyOp32
 70
     1
102
RTVSPropertyOp33
 70
     1
102
RTVSPropertyOp34
 70
     1
102
RTVSPropertyOp35
 70
     1
102
RTVSPropertyOp36
 70
     1
102
RTVSPropertyOp37
 70
     1
102
RTVSPropertyOp38
 70
     1
102
RTVSPropertyOp39
 70
     1
102
RTVSPropertyOp40
 70
     1
102
RTVSPropertyOp41
 70
     1
102
RTVSPropertyOp42
 70
     1
102
RTVSPropertyOp43
 70
     1
102
RTVSPropertyOp44
 70
     1
102
RTVSPropertyOp45
 70
     1
102
RTVSPropertyOp46
 70
     1
102
RTVSPropertyOp47
 70
     1
102
RTVSPropertyOp48
 70
     1
102
RTVSPropertyOp49
 70
     1
102
RTVSPropertyOp50
 70
     1
102
RTVSPropertyOp51
 70
     0
102
RTVSPropertyOp52
 70
     0
102
RTVSPropertyOp53
 70
     1
102
RTVSPropertyOp54
 70
     1
102
RTVSPropertyOp55
 70
     1
102
RTVSPropertyOp56
 70
     1
102
RTVSPropertyOp57
 70
     1
102
RTVSPropertyOp58
 70
     1
102
RTVSPropertyOp59
 70
     1
102
RTVSPropertyOp60
 70
     1
102
RTVSPropertyOp61
 70
     1
102
RTVSPropertyOp62
 70
     1
  0
XRECORD
  5
9E3
102
{ACAD_REACTORS
330
9E2
102
}
330
9E2
100
AcDbXrecord
280
     1
102
RTVSPost2010Prop28
280
     0
102
RTVSPost2010PropOp28
 70
     1
102
RTVSPost2010Prop29
280
     1
102
RTVSPost2010PropOp29
 70
     1
102
RTVSPost2010Prop30
280
     1
102
RTVSPost2010PropOp30
 70
     1
102
RTVSPost2010Prop31
280
     0
102
RTVSPost2010PropOp31
 70
     1
102
RTVSPost2010Prop32
280
     0
102
RTVSPost2010PropOp32
 70
     1
102
RTVSPost2010Prop33
280
     0
102
RTVSPost2010PropOp33
 70
     1
102
RTVSPost2010Prop34
280
     0
102
RTVSPost2010PropOp34
 70
     1
102
RTVSPost2010Prop35
280
     0
102
RTVSPost2010PropOp35
 70
     1
102
RTVSPost2010Prop36
280
     0
102
RTVSPost2010PropOp36
 70
     1
102
RTVSPost2010Prop37
 90
       50
102
RTVSPost2010PropOp37
 70
     1
102
RTVSPost2010Prop38
140
0.0
102
RTVSPost2010PropOp38
 70
     1
102
RTVSPost2010Prop39
140
1.0
102
RTVSPost2010PropOp39
 70
     1
102
RTVSPost2010Prop40
 90
        0
102
RTVSPost2010PropOp40
 70
     1
102
RTVSPost2010Prop41ColorIndex
 90
       18
102
RTVSPost2010Prop41ColorRGB
 90
        0
102
RTVSPost2010PropOp41
 70
     1
102
RTVSPost2010Prop42
 90
       50
102
RTVSPost2010PropOp42
 70
     1
102
RTVSPost2010Prop43
 90
        3
102
RTVSPost2010PropOp43
 70
     1
102
RTVSPost2010Prop44ColorIndex
 90
        5
102
RTVSPost2010Prop44ColorRGB
 90
      255
102
RTVSPost2010PropOp44
 70
     1
102
RTVSPost2010Prop45
280
     0
102
RTVSPost2010PropOp45
 70
     1
102
RTVSPost2010Prop46
 90
       50
102
RTVSPost2010PropOp46
 70
     1
102
RTVSPost2010Prop47
 90
       50
102
RTVSPost2010PropOp47
 70
     1
102
RTVSPost2010Prop48
 90
       50
102
RTVSPost2010PropOp48
 70
     1
102
RTVSPost2010Prop49
280
     0
102
RTVSPost2010PropOp49
 70
     1
102
RTVSPost2010Prop50
 90
       50
102
RTVSPost2010PropOp50
 70
     1
102
RTVSPost2010Prop51ColorIndex
 90
      256
102
RTVSPost2010Prop51ColorRGB
 90
-16777216
102
RTVSPost2010PropOp51
 70
     0
102
RTVSPost2010Prop52
140
1.0
102
RTVSPost2010PropOp52
 70
     0
102
RTVSPost2010Prop53
 90
        2
102
RTVSPost2010PropOp53
 70
     1
102
RTVSPost2010Prop54
  1
strokes_ogs.tif
102
RTVSPost2010PropOp54
 70
     1
102
RTVSPost2010Prop55
280
     0
102
RTVSPost2010PropOp55
 70
     1
102
RTVSPost2010Prop56
140
1.0
102
RTVSPost2010PropOp56
 70
     1
102
RTVSPost2010Prop57
140
1.0
102
RTVSPost2010PropOp57
 70
     1
102
RTVSPropertyOp0
 70
     1
102
RTVSPropertyOp1
 70
     1
102
RTVSPropertyOp2
 70
     1
102
RTVSPropertyOp3
 70
     1
102
RTVSPropertyOp4
 70
     1
102
RTVSPropertyOp5
 70
     1
102
RTVSPropertyOp6
 70
     1
102
RTVSPropertyOp7
 70
     1
102
RTVSPropertyOp8
 70
     1
102
RTVSPropertyOp9
 70
     1
102
RTVSPropertyOp10
 70
     1
102
RTVSPropertyOp11
 70
     1
102
RTVSPropertyOp12
 70
     1
102
RTVSPropertyOp13
 70
     1
102
RTVSPropertyOp14
 70
     1
102
RTVSPropertyOp15
 70
     1
102
RTVSPropertyOp16
 70
     1
102
RTVSPropertyOp17
 70
     1
102
RTVSPropertyOp18
 70
     1
102
RTVSPropertyOp19
 70
     1
102
RTVSPropertyOp20
 70
     1
102
RTVSPropertyOp21
 70
     1
102
RTVSPropertyOp22
 70
     1
102
RTVSPropertyOp23
 70
     1
102
RTVSPropertyOp24
 70
     1
102
RTVSPropertyOp25
 70
     1
102
RTVSPropertyOp26
 70
     1
102
RTVSPropertyOp27
 70
     1
102
RTVSPropertyOp28
 70
     1
102
RTVSPropertyOp29
 70
     1
102
RTVSPropertyOp30
 70
     1
102
RTVSPropertyOp31
 70
     1
102
RTVSPropertyOp32
 70
     1
102
RTVSPropertyOp33
 70
     1
102
RTVSPropertyOp34
 70
     1
102
RTVSPropertyOp35
 70
     1
102
RTVSPropertyOp36
 70
     1
102
RTVSPropertyOp37
 70
     1
102
RTVSPropertyOp38
 70
     1
102
RTVSPropertyOp39
 70
     1
102
RTVSPropertyOp40
 70
     1
102
RTVSPropertyOp41
 70
     1
102
RTVSPropertyOp42
 70
     1
102
RTVSPropertyOp43
 70
     1
102
RTVSPropertyOp44
 70
     1
102
RTVSPropertyOp45
 70
     1
102
RTVSPropertyOp46
 70
     1
102
RTVSPropertyOp47
 70
     1
102
RTVSPropertyOp48
 70
     1
102
RTVSPropertyOp49
 70
     1
102
RTVSPropertyOp50
 70
     1
102
RTVSPropertyOp51
 70
     0
102
RTVSPropertyOp52
 70
     0
102
RTVSPropertyOp53
 70
     1
102
RTVSPropertyOp54
 70
     1
102
RTVSPropertyOp55
 70
     1
102
RTVSPropertyOp56
 70
     1
102
RTVSPropertyOp57
 70
     1
102
RTVSPropertyOp58
 70
     1
102
RTVSPropertyOp59
 70
     1
102
RTVSPropertyOp60
 70
     1
102
RTVSPropertyOp61
 70
     1
102
RTVSPropertyOp62
 70
     1
  0
XRECORD
  5
9DD
102
{ACAD_REACTORS
330
9DC
102
}
330
9DC
100
AcDbXrecord
280
     1
102
RTVSPost2010Prop28
280
     0
102
RTVSPost2010PropOp28
 70
     1
102
RTVSPost2010Prop29
280
     1
102
RTVSPost2010PropOp29
 70
     1
102
RTVSPost2010Prop30
280
     1
102
RTVSPost2010PropOp30
 70
     1
102
RTVSPost2010Prop31
280
     0
102
RTVSPost2010PropOp31
 70
     1
102
RTVSPost2010Prop32
280
     0
102
RTVSPost2010PropOp32
 70
     1
102
RTVSPost2010Prop33
280
     0
102
RTVSPost2010PropOp33
 70
     1
102
RTVSPost2010Prop34
280
     0
102
RTVSPost2010PropOp34
 70
     1
102
RTVSPost2010Prop35
280
     0
102
RTVSPost2010PropOp35
 70
     1
102
RTVSPost2010Prop36
280
     0
102
RTVSPost2010PropOp36
 70
     1
102
RTVSPost2010Prop37
 90
       50
102
RTVSPost2010PropOp37
 70
     1
102
RTVSPost2010Prop38
140
0.0
102
RTVSPost2010PropOp38
 70
     1
102
RTVSPost2010Prop39
140
1.0
102
RTVSPost2010PropOp39
 70
     1
102
RTVSPost2010Prop40
 90
        0
102
RTVSPost2010PropOp40
 70
     1
102
RTVSPost2010Prop41ColorIndex
 90
       18
102
RTVSPost2010Prop41ColorRGB
 90
        0
102
RTVSPost2010PropOp41
 70
     1
102
RTVSPost2010Prop42
 90
       50
102
RTVSPost2010PropOp42
 70
     1
102
RTVSPost2010Prop43
 90
        3
102
RTVSPost2010PropOp43
 70
     1
102
RTVSPost2010Prop44ColorIndex
 90
        5
102
RTVSPost2010Prop44ColorRGB
 90
      255
102
RTVSPost2010PropOp44
 70
     1
102
RTVSPost2010Prop45
280
     0
102
RTVSPost2010PropOp45
 70
     1
102
RTVSPost2010Prop46
 90
       50
102
RTVSPost2010PropOp46
 70
     1
102
RTVSPost2010Prop47
 90
       50
102
RTVSPost2010PropOp47
 70
     1
102
RTVSPost2010Prop48
 90
       50
102
RTVSPost2010PropOp48
 70
     1
102
RTVSPost2010Prop49
280
     0
102
RTVSPost2010PropOp49
 70
     1
102
RTVSPost2010Prop50
 90
       50
102
RTVSPost2010PropOp50
 70
     1
102
RTVSPost2010Prop51ColorIndex
 90
      256
102
RTVSPost2010Prop51ColorRGB
 90
-16777216
102
RTVSPost2010PropOp51
 70
     0
102
RTVSPost2010Prop52
140
1.0
102
RTVSPost2010PropOp52
 70
     0
102
RTVSPost2010Prop53
 90
        2
102
RTVSPost2010PropOp53
 70
     1
102
RTVSPost2010Prop54
  1
strokes_ogs.tif
102
RTVSPost2010PropOp54
 70
     1
102
RTVSPost2010Prop55
280
     0
102
RTVSPost2010PropOp55
 70
     1
102
RTVSPost2010Prop56
140
1.0
102
RTVSPost2010PropOp56
 70
     1
102
RTVSPost2010Prop57
140
1.0
102
RTVSPost2010PropOp57
 70
     1
102
RTVSPropertyOp0
 70
     1
102
RTVSPropertyOp1
 70
     1
102
RTVSPropertyOp2
 70
     1
102
RTVSPropertyOp3
 70
     1
102
RTVSPropertyOp4
 70
     1
102
RTVSPropertyOp5
 70
     1
102
RTVSPropertyOp6
 70
     1
102
RTVSPropertyOp7
 70
     1
102
RTVSPropertyOp8
 70
     1
102
RTVSPropertyOp9
 70
     1
102
RTVSPropertyOp10
 70
     1
102
RTVSPropertyOp11
 70
     1
102
RTVSPropertyOp12
 70
     1
102
RTVSPropertyOp13
 70
     1
102
RTVSPropertyOp14
 70
     1
102
RTVSPropertyOp15
 70
     1
102
RTVSPropertyOp16
 70
     1
102
RTVSPropertyOp17
 70
     1
102
RTVSPropertyOp18
 70
     1
102
RTVSPropertyOp19
 70
     1
102
RTVSPropertyOp20
 70
     1
102
RTVSPropertyOp21
 70
     1
102
RTVSPropertyOp22
 70
     1
102
RTVSPropertyOp23
 70
     1
102
RTVSPropertyOp24
 70
     1
102
RTVSPropertyOp25
 70
     1
102
RTVSPropertyOp26
 70
     1
102
RTVSPropertyOp27
 70
     1
102
RTVSPropertyOp28
 70
     1
102
RTVSPropertyOp29
 70
     1
102
RTVSPropertyOp30
 70
     1
102
RTVSPropertyOp31
 70
     1
102
RTVSPropertyOp32
 70
     1
102
RTVSPropertyOp33
 70
     1
102
RTVSPropertyOp34
 70
     1
102
RTVSPropertyOp35
 70
     1
102
RTVSPropertyOp36
 70
     1
102
RTVSPropertyOp37
 70
     1
102
RTVSPropertyOp38
 70
     1
102
RTVSPropertyOp39
 70
     1
102
RTVSPropertyOp40
 70
     1
102
RTVSPropertyOp41
 70
     1
102
RTVSPropertyOp42
 70
     1
102
RTVSPropertyOp43
 70
     1
102
RTVSPropertyOp44
 70
     1
102
RTVSPropertyOp45
 70
     1
102
RTVSPropertyOp46
 70
     1
102
RTVSPropertyOp47
 70
     1
102
RTVSPropertyOp48
 70
     1
102
RTVSPropertyOp49
 70
     1
102
RTVSPropertyOp50
 70
     1
102
RTVSPropertyOp51
 70
     0
102
RTVSPropertyOp52
 70
     0
102
RTVSPropertyOp53
 70
     1
102
RTVSPropertyOp54
 70
     1
102
RTVSPropertyOp55
 70
     1
102
RTVSPropertyOp56
 70
     1
102
RTVSPropertyOp57
 70
     1
102
RTVSPropertyOp58
 70
     1
102
RTVSPropertyOp59
 70
     1
102
RTVSPropertyOp60
 70
     1
102
RTVSPropertyOp61
 70
     1
102
RTVSPropertyOp62
 70
     1
  0
XRECORD
  5
9DF
102
{ACAD_REACTORS
330
9DE
102
}
330
9DE
100
AcDbXrecord
280
     1
102
RTVSPost2010Prop28
280
     0
102
RTVSPost2010PropOp28
 70
     1
102
RTVSPost2010Prop29
280
     1
102
RTVSPost2010PropOp29
 70
     1
102
RTVSPost2010Prop30
280
     1
102
RTVSPost2010PropOp30
 70
     1
102
RTVSPost2010Prop31
280
     0
102
RTVSPost2010PropOp31
 70
     1
102
RTVSPost2010Prop32
280
     0
102
RTVSPost2010PropOp32
 70
     1
102
RTVSPost2010Prop33
280
     0
102
RTVSPost2010PropOp33
 70
     1
102
RTVSPost2010Prop34
280
     0
102
RTVSPost2010PropOp34
 70
     1
102
RTVSPost2010Prop35
280
     0
102
RTVSPost2010PropOp35
 70
     1
102
RTVSPost2010Prop36
280
     0
102
RTVSPost2010PropOp36
 70
     1
102
RTVSPost2010Prop37
 90
       50
102
RTVSPost2010PropOp37
 70
     1
102
RTVSPost2010Prop38
140
0.0
102
RTVSPost2010PropOp38
 70
     1
102
RTVSPost2010Prop39
140
1.0
102
RTVSPost2010PropOp39
 70
     1
102
RTVSPost2010Prop40
 90
        0
102
RTVSPost2010PropOp40
 70
     1
102
RTVSPost2010Prop41ColorIndex
 90
       18
102
RTVSPost2010Prop41ColorRGB
 90
        0
102
RTVSPost2010PropOp41
 70
     1
102
RTVSPost2010Prop42
 90
       50
102
RTVSPost2010PropOp42
 70
     1
102
RTVSPost2010Prop43
 90
        3
102
RTVSPost2010PropOp43
 70
     1
102
RTVSPost2010Prop44ColorIndex
 90
        5
102
RTVSPost2010Prop44ColorRGB
 90
      255
102
RTVSPost2010PropOp44
 70
     1
102
RTVSPost2010Prop45
280
     0
102
RTVSPost2010PropOp45
 70
     1
102
RTVSPost2010Prop46
 90
       50
102
RTVSPost2010PropOp46
 70
     1
102
RTVSPost2010Prop47
 90
       50
102
RTVSPost2010PropOp47
 70
     1
102
RTVSPost2010Prop48
 90
       50
102
RTVSPost2010PropOp48
 70
     1
102
RTVSPost2010Prop49
280
     0
102
RTVSPost2010PropOp49
 70
     1
102
RTVSPost2010Prop50
 90
       50
102
RTVSPost2010PropOp50
 70
     1
102
RTVSPost2010Prop51ColorIndex
 90
      256
102
RTVSPost2010Prop51ColorRGB
 90
-16777216
102
RTVSPost2010PropOp51
 70
     0
102
RTVSPost2010Prop52
140
1.0
102
RTVSPost2010PropOp52
 70
     0
102
RTVSPost2010Prop53
 90
        2
102
RTVSPost2010PropOp53
 70
     1
102
RTVSPost2010Prop54
  1
strokes_ogs.tif
102
RTVSPost2010PropOp54
 70
     1
102
RTVSPost2010Prop55
280
     0
102
RTVSPost2010PropOp55
 70
     1
102
RTVSPost2010Prop56
140
1.0
102
RTVSPost2010PropOp56
 70
     1
102
RTVSPost2010Prop57
140
1.0
102
RTVSPost2010PropOp57
 70
     1
102
RTVSPropertyOp0
 70
     1
102
RTVSPropertyOp1
 70
     1
102
RTVSPropertyOp2
 70
     1
102
RTVSPropertyOp3
 70
     1
102
RTVSPropertyOp4
 70
     1
102
RTVSPropertyOp5
 70
     1
102
RTVSPropertyOp6
 70
     1
102
RTVSPropertyOp7
 70
     1
102
RTVSPropertyOp8
 70
     1
102
RTVSPropertyOp9
 70
     1
102
RTVSPropertyOp10
 70
     1
102
RTVSPropertyOp11
 70
     1
102
RTVSPropertyOp12
 70
     1
102
RTVSPropertyOp13
 70
     1
102
RTVSPropertyOp14
 70
     1
102
RTVSPropertyOp15
 70
     1
102
RTVSPropertyOp16
 70
     1
102
RTVSPropertyOp17
 70
     1
102
RTVSPropertyOp18
 70
     1
102
RTVSPropertyOp19
 70
     1
102
RTVSPropertyOp20
 70
     1
102
RTVSPropertyOp21
 70
     1
102
RTVSPropertyOp22
 70
     1
102
RTVSPropertyOp23
 70
     1
102
RTVSPropertyOp24
 70
     1
102
RTVSPropertyOp25
 70
     1
102
RTVSPropertyOp26
 70
     1
102
RTVSPropertyOp27
 70
     1
102
RTVSPropertyOp28
 70
     1
102
RTVSPropertyOp29
 70
     1
102
RTVSPropertyOp30
 70
     1
102
RTVSPropertyOp31
 70
     1
102
RTVSPropertyOp32
 70
     1
102
RTVSPropertyOp33
 70
     1
102
RTVSPropertyOp34
 70
     1
102
RTVSPropertyOp35
 70
     1
102
RTVSPropertyOp36
 70
     1
102
RTVSPropertyOp37
 70
     1
102
RTVSPropertyOp38
 70
     1
102
RTVSPropertyOp39
 70
     1
102
RTVSPropertyOp40
 70
     1
102
RTVSPropertyOp41
 70
     1
102
RTVSPropertyOp42
 70
     1
102
RTVSPropertyOp43
 70
     1
102
RTVSPropertyOp44
 70
     1
102
RTVSPropertyOp45
 70
     1
102
RTVSPropertyOp46
 70
     1
102
RTVSPropertyOp47
 70
     1
102
RTVSPropertyOp48
 70
     1
102
RTVSPropertyOp49
 70
     1
102
RTVSPropertyOp50
 70
     1
102
RTVSPropertyOp51
 70
     0
102
RTVSPropertyOp52
 70
     0
102
RTVSPropertyOp53
 70
     1
102
RTVSPropertyOp54
 70
     1
102
RTVSPropertyOp55
 70
     1
102
RTVSPropertyOp56
 70
     1
102
RTVSPropertyOp57
 70
     1
102
RTVSPropertyOp58
 70
     1
102
RTVSPropertyOp59
 70
     1
102
RTVSPropertyOp60
 70
     1
102
RTVSPropertyOp61
 70
     1
102
RTVSPropertyOp62
 70
     1
  0
XRECORD
  5
9C4
102
{ACAD_REACTORS
330
9C3
102
}
330
9C3
100
AcDbXrecord
280
     1
102
RTVSPost2010Prop28
280
     0
102
RTVSPost2010PropOp28
 70
     1
102
RTVSPost2010Prop29
280
     1
102
RTVSPost2010PropOp29
 70
     1
102
RTVSPost2010Prop30
280
     1
102
RTVSPost2010PropOp30
 70
     1
102
RTVSPost2010Prop31
280
     0
102
RTVSPost2010PropOp31
 70
     1
102
RTVSPost2010Prop32
280
     0
102
RTVSPost2010PropOp32
 70
     1
102
RTVSPost2010Prop33
280
     0
102
RTVSPost2010PropOp33
 70
     1
102
RTVSPost2010Prop34
280
     0
102
RTVSPost2010PropOp34
 70
     1
102
RTVSPost2010Prop35
280
     0
102
RTVSPost2010PropOp35
 70
     1
102
RTVSPost2010Prop36
280
     0
102
RTVSPost2010PropOp36
 70
     1
102
RTVSPost2010Prop37
 90
       50
102
RTVSPost2010PropOp37
 70
     1
102
RTVSPost2010Prop38
140
0.0
102
RTVSPost2010PropOp38
 70
     1
102
RTVSPost2010Prop39
140
1.0
102
RTVSPost2010PropOp39
 70
     1
102
RTVSPost2010Prop40
 90
        0
102
RTVSPost2010PropOp40
 70
     1
102
RTVSPost2010Prop41ColorIndex
 90
       18
102
RTVSPost2010Prop41ColorRGB
 90
        0
102
RTVSPost2010PropOp41
 70
     1
102
RTVSPost2010Prop42
 90
       50
102
RTVSPost2010PropOp42
 70
     1
102
RTVSPost2010Prop43
 90
        3
102
RTVSPost2010PropOp43
 70
     1
102
RTVSPost2010Prop44ColorIndex
 90
        5
102
RTVSPost2010Prop44ColorRGB
 90
      255
102
RTVSPost2010PropOp44
 70
     1
102
RTVSPost2010Prop45
280
     0
102
RTVSPost2010PropOp45
 70
     1
102
RTVSPost2010Prop46
 90
       50
102
RTVSPost2010PropOp46
 70
     1
102
RTVSPost2010Prop47
 90
       50
102
RTVSPost2010PropOp47
 70
     1
102
RTVSPost2010Prop48
 90
       50
102
RTVSPost2010PropOp48
 70
     1
102
RTVSPost2010Prop49
280
     0
102
RTVSPost2010PropOp49
 70
     1
102
RTVSPost2010Prop50
 90
       50
102
RTVSPost2010PropOp50
 70
     1
102
RTVSPost2010Prop51ColorIndex
 90
      256
102
RTVSPost2010Prop51ColorRGB
 90
-16777216
102
RTVSPost2010PropOp51
 70
     0
102
RTVSPost2010Prop52
140
1.0
102
RTVSPost2010PropOp52
 70
     0
102
RTVSPost2010Prop53
 90
        2
102
RTVSPost2010PropOp53
 70
     1
102
RTVSPost2010Prop54
  1
strokes_ogs.tif
102
RTVSPost2010PropOp54
 70
     1
102
RTVSPost2010Prop55
280
     0
102
RTVSPost2010PropOp55
 70
     1
102
RTVSPost2010Prop56
140
1.0
102
RTVSPost2010PropOp56
 70
     1
102
RTVSPost2010Prop57
140
1.0
102
RTVSPost2010PropOp57
 70
     1
102
RTVSPropertyOp0
 70
     1
102
RTVSPropertyOp1
 70
     1
102
RTVSPropertyOp2
 70
     1
102
RTVSPropertyOp3
 70
     1
102
RTVSPropertyOp4
 70
     1
102
RTVSPropertyOp5
 70
     1
102
RTVSPropertyOp6
 70
     1
102
RTVSPropertyOp7
 70
     1
102
RTVSPropertyOp8
 70
     1
102
RTVSPropertyOp9
 70
     1
102
RTVSPropertyOp10
 70
     1
102
RTVSPropertyOp11
 70
     1
102
RTVSPropertyOp12
 70
     1
102
RTVSPropertyOp13
 70
     1
102
RTVSPropertyOp14
 70
     1
102
RTVSPropertyOp15
 70
     1
102
RTVSPropertyOp16
 70
     1
102
RTVSPropertyOp17
 70
     1
102
RTVSPropertyOp18
 70
     1
102
RTVSPropertyOp19
 70
     1
102
RTVSPropertyOp20
 70
     1
102
RTVSPropertyOp21
 70
     1
102
RTVSPropertyOp22
 70
     1
102
RTVSPropertyOp23
 70
     1
102
RTVSPropertyOp24
 70
     1
102
RTVSPropertyOp25
 70
     1
102
RTVSPropertyOp26
 70
     1
102
RTVSPropertyOp27
 70
     1
102
RTVSPropertyOp28
 70
     1
102
RTVSPropertyOp29
 70
     1
102
RTVSPropertyOp30
 70
     1
102
RTVSPropertyOp31
 70
     1
102
RTVSPropertyOp32
 70
     1
102
RTVSPropertyOp33
 70
     1
102
RTVSPropertyOp34
 70
     1
102
RTVSPropertyOp35
 70
     1
102
RTVSPropertyOp36
 70
     1
102
RTVSPropertyOp37
 70
     1
102
RTVSPropertyOp38
 70
     1
102
RTVSPropertyOp39
 70
     1
102
RTVSPropertyOp40
 70
     1
102
RTVSPropertyOp41
 70
     1
102
RTVSPropertyOp42
 70
     1
102
RTVSPropertyOp43
 70
     1
102
RTVSPropertyOp44
 70
     1
102
RTVSPropertyOp45
 70
     1
102
RTVSPropertyOp46
 70
     1
102
RTVSPropertyOp47
 70
     1
102
RTVSPropertyOp48
 70
     1
102
RTVSPropertyOp49
 70
     1
102
RTVSPropertyOp50
 70
     1
102
RTVSPropertyOp51
 70
     0
102
RTVSPropertyOp52
 70
     0
102
RTVSPropertyOp53
 70
     1
102
RTVSPropertyOp54
 70
     1
102
RTVSPropertyOp55
 70
     1
102
RTVSPropertyOp56
 70
     1
102
RTVSPropertyOp57
 70
     1
102
RTVSPropertyOp58
 70
     1
102
RTVSPropertyOp59
 70
     1
102
RTVSPropertyOp60
 70
     1
102
RTVSPropertyOp61
 70
     1
102
RTVSPropertyOp62
 70
     1
  0
XRECORD
  5
9D9
102
{ACAD_REACTORS
330
9D8
102
}
330
9D8
100
AcDbXrecord
280
     1
102
RTVSPost2010Prop28
280
     0
102
RTVSPost2010PropOp28
 70
     1
102
RTVSPost2010Prop29
280
     1
102
RTVSPost2010PropOp29
 70
     1
102
RTVSPost2010Prop30
280
     1
102
RTVSPost2010PropOp30
 70
     1
102
RTVSPost2010Prop31
280
     0
102
RTVSPost2010PropOp31
 70
     1
102
RTVSPost2010Prop32
280
     0
102
RTVSPost2010PropOp32
 70
     1
102
RTVSPost2010Prop33
280
     0
102
RTVSPost2010PropOp33
 70
     1
102
RTVSPost2010Prop34
280
     0
102
RTVSPost2010PropOp34
 70
     1
102
RTVSPost2010Prop35
280
     0
102
RTVSPost2010PropOp35
 70
     1
102
RTVSPost2010Prop36
280
     0
102
RTVSPost2010PropOp36
 70
     1
102
RTVSPost2010Prop37
 90
       50
102
RTVSPost2010PropOp37
 70
     1
102
RTVSPost2010Prop38
140
0.0
102
RTVSPost2010PropOp38
 70
     1
102
RTVSPost2010Prop39
140
1.0
102
RTVSPost2010PropOp39
 70
     1
102
RTVSPost2010Prop40
 90
        0
102
RTVSPost2010PropOp40
 70
     1
102
RTVSPost2010Prop41ColorIndex
 90
       18
102
RTVSPost2010Prop41ColorRGB
 90
        0
102
RTVSPost2010PropOp41
 70
     1
102
RTVSPost2010Prop42
 90
       50
102
RTVSPost2010PropOp42
 70
     1
102
RTVSPost2010Prop43
 90
        3
102
RTVSPost2010PropOp43
 70
     1
102
RTVSPost2010Prop44ColorIndex
 90
        5
102
RTVSPost2010Prop44ColorRGB
 90
      255
102
RTVSPost2010PropOp44
 70
     1
102
RTVSPost2010Prop45
280
     0
102
RTVSPost2010PropOp45
 70
     1
102
RTVSPost2010Prop46
 90
       50
102
RTVSPost2010PropOp46
 70
     1
102
RTVSPost2010Prop47
 90
       50
102
RTVSPost2010PropOp47
 70
     1
102
RTVSPost2010Prop48
 90
       50
102
RTVSPost2010PropOp48
 70
     1
102
RTVSPost2010Prop49
280
     0
102
RTVSPost2010PropOp49
 70
     1
102
RTVSPost2010Prop50
 90
       50
102
RTVSPost2010PropOp50
 70
     1
102
RTVSPost2010Prop51ColorIndex
 90
      256
102
RTVSPost2010Prop51ColorRGB
 90
-16777216
102
RTVSPost2010PropOp51
 70
     0
102
RTVSPost2010Prop52
140
1.0
102
RTVSPost2010PropOp52
 70
     0
102
RTVSPost2010Prop53
 90
        2
102
RTVSPost2010PropOp53
 70
     1
102
RTVSPost2010Prop54
  1
strokes_ogs.tif
102
RTVSPost2010PropOp54
 70
     1
102
RTVSPost2010Prop55
280
     0
102
RTVSPost2010PropOp55
 70
     1
102
RTVSPost2010Prop56
140
1.0
102
RTVSPost2010PropOp56
 70
     1
102
RTVSPost2010Prop57
140
1.0
102
RTVSPost2010PropOp57
 70
     1
102
RTVSPropertyOp0
 70
     1
102
RTVSPropertyOp1
 70
     1
102
RTVSPropertyOp2
 70
     1
102
RTVSPropertyOp3
 70
     1
102
RTVSPropertyOp4
 70
     1
102
RTVSPropertyOp5
 70
     1
102
RTVSPropertyOp6
 70
     1
102
RTVSPropertyOp7
 70
     1
102
RTVSPropertyOp8
 70
     1
102
RTVSPropertyOp9
 70
     1
102
RTVSPropertyOp10
 70
     1
102
RTVSPropertyOp11
 70
     1
102
RTVSPropertyOp12
 70
     1
102
RTVSPropertyOp13
 70
     1
102
RTVSPropertyOp14
 70
     1
102
RTVSPropertyOp15
 70
     1
102
RTVSPropertyOp16
 70
     1
102
RTVSPropertyOp17
 70
     1
102
RTVSPropertyOp18
 70
     1
102
RTVSPropertyOp19
 70
     1
102
RTVSPropertyOp20
 70
     1
102
RTVSPropertyOp21
 70
     1
102
RTVSPropertyOp22
 70
     1
102
RTVSPropertyOp23
 70
     1
102
RTVSPropertyOp24
 70
     1
102
RTVSPropertyOp25
 70
     1
102
RTVSPropertyOp26
 70
     1
102
RTVSPropertyOp27
 70
     1
102
RTVSPropertyOp28
 70
     1
102
RTVSPropertyOp29
 70
     1
102
RTVSPropertyOp30
 70
     1
102
RTVSPropertyOp31
 70
     1
102
RTVSPropertyOp32
 70
     1
102
RTVSPropertyOp33
 70
     1
102
RTVSPropertyOp34
 70
     1
102
RTVSPropertyOp35
 70
     1
102
RTVSPropertyOp36
 70
     1
102
RTVSPropertyOp37
 70
     1
102
RTVSPropertyOp38
 70
     1
102
RTVSPropertyOp39
 70
     1
102
RTVSPropertyOp40
 70
     1
102
RTVSPropertyOp41
 70
     1
102
RTVSPropertyOp42
 70
     1
102
RTVSPropertyOp43
 70
     1
102
RTVSPropertyOp44
 70
     1
102
RTVSPropertyOp45
 70
     1
102
RTVSPropertyOp46
 70
     1
102
RTVSPropertyOp47
 70
     1
102
RTVSPropertyOp48
 70
     1
102
RTVSPropertyOp49
 70
     1
102
RTVSPropertyOp50
 70
     1
102
RTVSPropertyOp51
 70
     0
102
RTVSPropertyOp52
 70
     0
102
RTVSPropertyOp53
 70
     1
102
RTVSPropertyOp54
 70
     1
102
RTVSPropertyOp55
 70
     1
102
RTVSPropertyOp56
 70
     1
102
RTVSPropertyOp57
 70
     1
102
RTVSPropertyOp58
 70
     1
102
RTVSPropertyOp59
 70
     1
102
RTVSPropertyOp60
 70
     1
102
RTVSPropertyOp61
 70
     1
102
RTVSPropertyOp62
 70
     1
  0
XRECORD
  5
9E1
102
{ACAD_REACTORS
330
9E0
102
}
330
9E0
100
AcDbXrecord
280
     1
102
RTVSPost2010Prop28
280
     0
102
RTVSPost2010PropOp28
 70
     1
102
RTVSPost2010Prop29
280
     1
102
RTVSPost2010PropOp29
 70
     1
102
RTVSPost2010Prop30
280
     1
102
RTVSPost2010PropOp30
 70
     1
102
RTVSPost2010Prop31
280
     0
102
RTVSPost2010PropOp31
 70
     1
102
RTVSPost2010Prop32
280
     0
102
RTVSPost2010PropOp32
 70
     1
102
RTVSPost2010Prop33
280
     0
102
RTVSPost2010PropOp33
 70
     1
102
RTVSPost2010Prop34
280
     0
102
RTVSPost2010PropOp34
 70
     1
102
RTVSPost2010Prop35
280
     0
102
RTVSPost2010PropOp35
 70
     1
102
RTVSPost2010Prop36
280
     0
102
RTVSPost2010PropOp36
 70
     1
102
RTVSPost2010Prop37
 90
       50
102
RTVSPost2010PropOp37
 70
     1
102
RTVSPost2010Prop38
140
0.0
102
RTVSPost2010PropOp38
 70
     1
102
RTVSPost2010Prop39
140
1.0
102
RTVSPost2010PropOp39
 70
     1
102
RTVSPost2010Prop40
 90
        0
102
RTVSPost2010PropOp40
 70
     1
102
RTVSPost2010Prop41ColorIndex
 90
       18
102
RTVSPost2010Prop41ColorRGB
 90
        0
102
RTVSPost2010PropOp41
 70
     1
102
RTVSPost2010Prop42
 90
       50
102
RTVSPost2010PropOp42
 70
     1
102
RTVSPost2010Prop43
 90
        3
102
RTVSPost2010PropOp43
 70
     1
102
RTVSPost2010Prop44ColorIndex
 90
        5
102
RTVSPost2010Prop44ColorRGB
 90
      255
102
RTVSPost2010PropOp44
 70
     1
102
RTVSPost2010Prop45
280
     0
102
RTVSPost2010PropOp45
 70
     1
102
RTVSPost2010Prop46
 90
       50
102
RTVSPost2010PropOp46
 70
     1
102
RTVSPost2010Prop47
 90
       50
102
RTVSPost2010PropOp47
 70
     1
102
RTVSPost2010Prop48
 90
       50
102
RTVSPost2010PropOp48
 70
     1
102
RTVSPost2010Prop49
280
     0
102
RTVSPost2010PropOp49
 70
     1
102
RTVSPost2010Prop50
 90
       50
102
RTVSPost2010PropOp50
 70
     1
102
RTVSPost2010Prop51ColorIndex
 90
      256
102
RTVSPost2010Prop51ColorRGB
 90
-16777216
102
RTVSPost2010PropOp51
 70
     0
102
RTVSPost2010Prop52
140
1.0
102
RTVSPost2010PropOp52
 70
     0
102
RTVSPost2010Prop53
 90
        2
102
RTVSPost2010PropOp53
 70
     1
102
RTVSPost2010Prop54
  1
strokes_ogs.tif
102
RTVSPost2010PropOp54
 70
     1
102
RTVSPost2010Prop55
280
     0
102
RTVSPost2010PropOp55
 70
     1
102
RTVSPost2010Prop56
140
1.0
102
RTVSPost2010PropOp56
 70
     1
102
RTVSPost2010Prop57
140
1.0
102
RTVSPost2010PropOp57
 70
     1
102
RTVSPropertyOp0
 70
     1
102
RTVSPropertyOp1
 70
     1
102
RTVSPropertyOp2
 70
     1
102
RTVSPropertyOp3
 70
     1
102
RTVSPropertyOp4
 70
     1
102
RTVSPropertyOp5
 70
     1
102
RTVSPropertyOp6
 70
     1
102
RTVSPropertyOp7
 70
     1
102
RTVSPropertyOp8
 70
     1
102
RTVSPropertyOp9
 70
     1
102
RTVSPropertyOp10
 70
     1
102
RTVSPropertyOp11
 70
     1
102
RTVSPropertyOp12
 70
     1
102
RTVSPropertyOp13
 70
     1
102
RTVSPropertyOp14
 70
     1
102
RTVSPropertyOp15
 70
     1
102
RTVSPropertyOp16
 70
     1
102
RTVSPropertyOp17
 70
     1
102
RTVSPropertyOp18
 70
     1
102
RTVSPropertyOp19
 70
     1
102
RTVSPropertyOp20
 70
     1
102
RTVSPropertyOp21
 70
     1
102
RTVSPropertyOp22
 70
     1
102
RTVSPropertyOp23
 70
     1
102
RTVSPropertyOp24
 70
     1
102
RTVSPropertyOp25
 70
     1
102
RTVSPropertyOp26
 70
     1
102
RTVSPropertyOp27
 70
     1
102
RTVSPropertyOp28
 70
     1
102
RTVSPropertyOp29
 70
     1
102
RTVSPropertyOp30
 70
     1
102
RTVSPropertyOp31
 70
     1
102
RTVSPropertyOp32
 70
     1
102
RTVSPropertyOp33
 70
     1
102
RTVSPropertyOp34
 70
     1
102
RTVSPropertyOp35
 70
     1
102
RTVSPropertyOp36
 70
     1
102
RTVSPropertyOp37
 70
     1
102
RTVSPropertyOp38
 70
     1
102
RTVSPropertyOp39
 70
     1
102
RTVSPropertyOp40
 70
     1
102
RTVSPropertyOp41
 70
     1
102
RTVSPropertyOp42
 70
     1
102
RTVSPropertyOp43
 70
     1
102
RTVSPropertyOp44
 70
     1
102
RTVSPropertyOp45
 70
     1
102
RTVSPropertyOp46
 70
     1
102
RTVSPropertyOp47
 70
     1
102
RTVSPropertyOp48
 70
     1
102
RTVSPropertyOp49
 70
     1
102
RTVSPropertyOp50
 70
     1
102
RTVSPropertyOp51
 70
     0
102
RTVSPropertyOp52
 70
     0
102
RTVSPropertyOp53
 70
     1
102
RTVSPropertyOp54
 70
     1
102
RTVSPropertyOp55
 70
     1
102
RTVSPropertyOp56
 70
     1
102
RTVSPropertyOp57
 70
     1
102
RTVSPropertyOp58
 70
     1
102
RTVSPropertyOp59
 70
     1
102
RTVSPropertyOp60
 70
     1
102
RTVSPropertyOp61
 70
     1
102
RTVSPropertyOp62
 70
     1
  0
ENDSEC
  0
EOF
