  0
SECTION
  2
HEADER
  9
$ACADVER
  1
AC1015
  9
$ACADMAINTVER
 70
    20
  9
$DWGCODEPAGE
  3
ANSI_1252
  9
$INSBASE
 10
0.0
 20
0.0
 30
0.0
  9
$EXTMIN
 10
59.99999999999954
 20
60.0
 30
0.0
  9
$EXTMAX
 10
2460.0
 20
3504.0
 30
0.0
  9
$LIMMIN
 10
0.0
 20
0.0
  9
$LIMMAX
 10
2520.0
 20
3564.0
  9
$ORTHOMODE
 70
     0
  9
$REGENMODE
 70
     1
  9
$FILLMODE
 70
     1
  9
$QTEXTMODE
 70
     0
  9
$MIRRTEXT
 70
     0
  9
$LTSCALE
 40
12.0
  9
$ATTMODE
 70
     1
  9
$TEXTSIZE
 40
0.2
  9
$TRACEWID
 40
0.05
  9
$TEXTSTYLE
  7
Standard
  9
$CLAYER
  8
0
  9
$CELTYPE
  6
ByLayer
  9
$CECOLOR
 62
   256
  9
$CELTSCALE
 40
1.0
  9
$DISPSILH
 70
     0
  9
$DIMSCALE
 40
1.0
  9
$DIMASZ
 40
1.799999999999999
  9
$DIMEXO
 40
0.0625
  9
$DIMDLI
 40
0.38
  9
$DIMRND
 40
0.0
  9
$DIMDLE
 40
0.0
  9
$DIMEXE
 40
0.18
  9
$DIMTP
 40
0.0
  9
$DIMTM
 40
0.0
  9
$DIMTXT
 40
0.3048000037670135
  9
$DIMCEN
 40
0.09
  9
$DIMTSZ
 40
0.0
  9
$DIMTOL
 70
     0
  9
$DIMLIM
 70
     0
  9
$DIMTIH
 70
     1
  9
$DIMTOH
 70
     1
  9
$DIMSE1
 70
     0
  9
$DIMSE2
 70
     0
  9
$DIMTAD
 70
     0
  9
$DIMZIN
 70
     0
  9
$DIMBLK
  1

  9
$DIMASO
 70
     1
  9
$DIMSHO
 70
     1
  9
$DIMPOST
  1

  9
$DIMAPOST
  1

  9
$DIMALT
 70
     0
  9
$DIMALTD
 70
     2
  9
$DIMALTF
 40
25.4
  9
$DIMLFAC
 40
1.0
  9
$DIMTOFL
 70
     0
  9
$DIMTVP
 40
0.0
  9
$DIMTIX
 70
     0
  9
$DIMSOXD
 70
     0
  9
$DIMSAH
 70
     0
  9
$DIMBLK1
  1

  9
$DIMBLK2
  1

  9
$DIMSTYLE
  2
Standard
  9
$DIMCLRD
 70
     0
  9
$DIMCLRE
 70
     0
  9
$DIMCLRT
 70
     0
  9
$DIMTFAC
 40
1.0
  9
$DIMGAP
 40
0.09
  9
$DIMJUST
 70
     0
  9
$DIMSD1
 70
     0
  9
$DIMSD2
 70
     0
  9
$DIMTOLJ
 70
     1
  9
$DIMTZIN
 70
     0
  9
$DIMALTZ
 70
     0
  9
$DIMALTTZ
 70
     0
  9
$DIMUPT
 70
     0
  9
$DIMDEC
 70
     4
  9
$DIMTDEC
 70
     4
  9
$DIMALTU
 70
     2
  9
$DIMALTTD
 70
     2
  9
$DIMTXSTY
  7
Standard
  9
$DIMAUNIT
 70
     0
  9
$DIMADEC
 70
     0
  9
$DIMALTRND
 40
0.0
  9
$DIMAZIN
 70
     0
  9
$DIMDSEP
 70
    46
  9
$DIMATFIT
 70
     3
  9
$DIMFRAC
 70
     0
  9
$DIMLDRBLK
  1

  9
$DIMLUNIT
 70
     2
  9
$DIMLWD
 70
    -2
  9
$DIMLWE
 70
    -2
  9
$DIMTMOVE
 70
     0
  9
$LUNITS
 70
     2
  9
$LUPREC
 70
     4
  9
$SKETCHINC
 40
0.1
  9
$FILLETRAD
 40
0.0
  9
$AUNITS
 70
     0
  9
$AUPREC
 70
     0
  9
$MENU
  1
.
  9
$ELEVATION
 40
0.0
  9
$PELEVATION
 40
0.0
  9
$THICKNESS
 40
0.0
  9
$LIMCHECK
 70
     0
  9
$CHAMFERA
 40
0.0
  9
$CHAMFERB
 40
0.0
  9
$CHAMFERC
 40
0.0
  9
$CHAMFERD
 40
0.0
  9
$SKPOLY
 70
     0
  9
$TDCREATE
 40
2455252.664216180
  9
$TDUCREATE
 40
2455252.664216180
  9
$TDUPDATE
 40
2455267.394568611
  9
$TDUUPDATE
 40
2455267.394568611
  9
$TDINDWG
 40
0.0012513773
  9
$TDUSRTIMER
 40
0.0012513773
  9
$USRTIMER
 70
     1
  9
$ANGBASE
 50
0.0
  9
$ANGDIR
 70
     0
  9
$PDMODE
 70
     0
  9
$PDSIZE
 40
0.0
  9
$PLINEWID
 40
0.0
  9
$SPLFRAME
 70
     0
  9
$SPLINETYPE
 70
     6
  9
$SPLINESEGS
 70
     8
  9
$HANDSEED
  5
11F6
  9
$SURFTAB1
 70
     6
  9
$SURFTAB2
 70
     6
  9
$SURFTYPE
 70
     6
  9
$SURFU
 70
     6
  9
$SURFV
 70
     6
  9
$UCSBASE
  2

  9
$UCSNAME
  2

  9
$UCSORG
 10
0.0
 20
0.0
 30
0.0
  9
$UCSXDIR
 10
1.0
 20
0.0
 30
0.0
  9
$UCSYDIR
 10
0.0
 20
1.0
 30
0.0
  9
$UCSORTHOREF
  2

  9
$UCSORTHOVIEW
 70
     0
  9
$UCSORGTOP
 10
0.0
 20
0.0
 30
0.0
  9
$UCSORGBOTTOM
 10
0.0
 20
0.0
 30
0.0
  9
$UCSORGLEFT
 10
0.0
 20
0.0
 30
0.0
  9
$UCSORGRIGHT
 10
0.0
 20
0.0
 30
0.0
  9
$UCSORGFRONT
 10
0.0
 20
0.0
 30
0.0
  9
$UCSORGBACK
 10
0.0
 20
0.0
 30
0.0
  9
$PUCSBASE
  2

  9
$PUCSNAME
  2

  9
$PUCSORG
 10
0.0
 20
0.0
 30
0.0
  9
$PUCSXDIR
 10
1.0
 20
0.0
 30
0.0
  9
$PUCSYDIR
 10
0.0
 20
1.0
 30
0.0
  9
$PUCSORTHOREF
  2

  9
$PUCSORTHOVIEW
 70
     0
  9
$PUCSORGTOP
 10
0.0
 20
0.0
 30
0.0
  9
$PUCSORGBOTTOM
 10
0.0
 20
0.0
 30
0.0
  9
$PUCSORGLEFT
 10
0.0
 20
0.0
 30
0.0
  9
$PUCSORGRIGHT
 10
0.0
 20
0.0
 30
0.0
  9
$PUCSORGFRONT
 10
0.0
 20
0.0
 30
0.0
  9
$PUCSORGBACK
 10
0.0
 20
0.0
 30
0.0
  9
$USERI1
 70
     0
  9
$USERI2
 70
     0
  9
$USERI3
 70
     0
  9
$USERI4
 70
     0
  9
$USERI5
 70
     0
  9
$USERR1
 40
0.0
  9
$USERR2
 40
0.0
  9
$USERR3
 40
0.0
  9
$USERR4
 40
0.0
  9
$USERR5
 40
0.0
  9
$WORLDVIEW
 70
     1
  9
$SHADEDGE
 70
     3
  9
$SHADEDIF
 70
    70
  9
$TILEMODE
 70
     1
  9
$MAXACTVP
 70
    64
  9
$PINSBASE
 10
0.0
 20
0.0
 30
0.0
  9
$PLIMCHECK
 70
     0
  9
$PEXTMIN
 10
0.0
 20
0.0
 30
0.0
  9
$PEXTMAX
 10
2520.0
 20
3564.0
 30
0.0
  9
$PLIMMIN
 10
0.0
 20
0.0
  9
$PLIMMAX
 10
2520.0
 20
3564.0
  9
$UNITMODE
 70
     0
  9
$VISRETAIN
 70
     1
  9
$PLINEGEN
 70
     0
  9
$PSLTSCALE
 70
     1
  9
$TREEDEPTH
 70
  3020
  9
$CMLSTYLE
  2
Standard
  9
$CMLJUST
 70
     0
  9
$CMLSCALE
 40
1.0
  9
$PROXYGRAPHICS
 70
     1
  9
$MEASUREMENT
 70
     1
  9
$CELWEIGHT
370
    -1
  9
$ENDCAPS
280
     0
  9
$JOINSTYLE
280
     0
  9
$LWDISPLAY
290
     0
  9
$INSUNITS
 70
     4
  9
$HYPERLINKBASE
  1

  9
$STYLESHEET
  1

  9
$XEDIT
290
     1
  9
$CEPSNTYPE
380
     0
  9
$PSTYLEMODE
290
     1
  9
$FINGERPRINTGUID
  2
{754D6C5E-5944-4C5E-A788-62A579E0B7A6}
  9
$VERSIONGUID
  2
{60A6940F-311B-41C4-8275-DD7418E5AACE}
  9
$EXTNAMES
290
     1
  9
$PSVPSCALE
 40
0.0
  9
$OLESTARTUP
290
     0
  0
ENDSEC
  0
SECTION
  2
CLASSES
  0
CLASS
  1
ACDBDICTIONARYWDFLT
  2
AcDbDictionaryWithDefault
  3
ObjectDBX Classes
 90
        0
280
     0
281
     0
  0
CLASS
  1
MATERIAL
  2
AcDbMaterial
  3
ObjectDBX Classes
 90
     1153
280
     0
281
     0
  0
CLASS
  1
VISUALSTYLE
  2
AcDbVisualStyle
  3
ObjectDBX Classes
 90
     4095
280
     0
281
     0
  0
CLASS
  1
SCALE
  2
AcDbScale
  3
ObjectDBX Classes
 90
     1153
280
     0
281
     0
  0
CLASS
  1
TABLESTYLE
  2
AcDbTableStyle
  3
ObjectDBX Classes
 90
     4095
280
     0
281
     0
  0
CLASS
  1
MLEADERSTYLE
  2
AcDbMLeaderStyle
  3
ACDB_MLEADERSTYLE_CLASS
 90
     4095
280
     0
281
     0
  0
CLASS
  1
DICTIONARYVAR
  2
AcDbDictionaryVar
  3
ObjectDBX Classes
 90
        0
280
     0
281
     0
  0
CLASS
  1
CELLSTYLEMAP
  2
AcDbCellStyleMap
  3
ObjectDBX Classes
 90
     1152
280
     0
281
     0
  0
CLASS
  1
ACDBPLACEHOLDER
  2
AcDbPlaceHolder
  3
ObjectDBX Classes
 90
        0
280
     0
281
     0
  0
CLASS
  1
LAYOUT
  2
AcDbLayout
  3
ObjectDBX Classes
 90
        0
280
     0
281
     0
  0
ENDSEC
  0
SECTION
  2
TABLES
  0
TABLE
  2
VPORT
  5
8
330
0
100
AcDbSymbolTable
 70
     1
  0
VPORT
  5
5F
330
8
100
AcDbSymbolTableRecord
100
AcDbViewportTableRecord
  2
*Active
 70
     0
 10
0.0
 20
0.0
 11
1.0
 21
1.0
 12
2142.917710059556
 22
2036.47294441934
 13
0.0
 23
0.0
 14
1.0
 24
1.0
 15
0.0
 25
0.0
 16
0.0
 26
0.0
 36
1.0
 17
0.0
 27
0.0
 37
0.0
 40
3958.21065092294
 41
1.61987041036717
 42
50.0
 43
0.0
 44
0.0
 50
0.0
 51
0.0
 71
     0
 72
   100
 73
     1
 74
     1
 75
     0
 76
     0
 77
     0
 78
     0
281
     0
 65
     1
110
0.0
120
0.0
130
0.0
111
1.0
121
0.0
131
0.0
112
0.0
122
1.0
132
0.0
 79
     0
146
0.0
  0
ENDTAB
  0
TABLE
  2
LTYPE
  5
5
330
0
100
AcDbSymbolTable
 70
    62
  0
LTYPE
  5
63
330
5
100
AcDbSymbolTableRecord
100
AcDbLinetypeTableRecord
  2
ByBlock
 70
     0
  3

 72
    65
 73
     0
 40
0.0
  0
LTYPE
  5
64
330
5
100
AcDbSymbolTableRecord
100
AcDbLinetypeTableRecord
  2
ByLayer
 70
     0
  3

 72
    65
 73
     0
 40
0.0
  0
LTYPE
  5
65
330
5
100
AcDbSymbolTableRecord
100
AcDbLinetypeTableRecord
  2
Continuous
 70
     0
  3
Solid line
 72
    65
 73
     0
 40
0.0
  0
LTYPE
  5
7D
330
5
100
AcDbSymbolTableRecord
100
AcDbLinetypeTableRecord
  2
Section_View_Lines
 70
     0
  3
Section View Lines
 72
    65
 73
     4
 40
0.8406
 49
0.6614
 74
     0
 49
-0.0827
 74
     0
 49
0.0138
 74
     0
 49
-0.0827
 74
     0
  0
LTYPE
  5
7E
330
5
100
AcDbSymbolTableRecord
100
AcDbLinetypeTableRecord
  2
CHAIN
 70
     0
  3
Chain ____ _ ____ _ ____ _ ____ _ ____ _ ____
 72
    65
 73
     4
 40
0.3543
 49
0.2362
 74
     0
 49
-0.0295
 74
     0
 49
0.0591
 74
     0
 49
-0.0295
 74
     0
  0
LTYPE
  5
7F
330
5
100
AcDbSymbolTableRecord
100
AcDbLinetypeTableRecord
  2
DASH_DOT
 70
     0
  3
Dash dot _._._._._._._._._._._._._._._.
 72
    65
 73
     4
 40
0.182
 49
0.1181
 74
     0
 49
-0.0295
 74
     0
 49
0.0049
 74
     0
 49
-0.0295
 74
     0
  0
LTYPE
  5
80
330
5
100
AcDbSymbolTableRecord
100
AcDbLinetypeTableRecord
  2
DASH_DOUBLE_DOT
 70
     0
  3
Dash Double Dot __ __ . __ __ . __ __ . __ _
 72
    65
 73
     6
 40
0.2164
 49
0.1181
 74
     0
 49
-0.0295
 74
     0
 49
0.0049
 74
     0
 49
-0.0295
 74
     0
 49
0.0049
 74
     0
 49
-0.0295
 74
     0
  0
LTYPE
  5
81
330
5
100
AcDbSymbolTableRecord
100
AcDbLinetypeTableRecord
  2
DASH_TRIPLE_DOT
 70
     0
  3
Dash Triple-Dot _ . . . _ . . . _ . . . _
 72
    65
 73
     8
 40
0.2508
 49
0.1181
 74
     0
 49
-0.0295
 74
     0
 49
0.0049
 74
     0
 49
-0.0295
 74
     0
 49
0.0049
 74
     0
 49
-0.0295
 74
     0
 49
0.0049
 74
     0
 49
-0.0295
 74
     0
  0
LTYPE
  5
82
330
5
100
AcDbSymbolTableRecord
100
AcDbLinetypeTableRecord
  2
DASHED
 70
     0
  3
Dashed __ __ __ __ __ __ __ __ __ __ __ __ __ _
 72
    65
 73
     2
 40
0.2068
 49
0.1655
 74
     0
 49
-0.0413
 74
     0
  0
LTYPE
  5
83
330
5
100
AcDbSymbolTableRecord
100
AcDbLinetypeTableRecord
  2
DASHED_SPACE
 70
     0
  3
Dashed Space __ __ __ __ __ __ __ __ __ __ __ _
 72
    65
 73
     2
 40
0.2067
 49
0.1654
 74
     0
 49
-0.0413
 74
     0
  0
LTYPE
  5
84
330
5
100
AcDbSymbolTableRecord
100
AcDbLinetypeTableRecord
  2
DOTTED
 70
     0
  3
Dotted . . . . . . . . . . . . . . . . . . . . 
 72
    65
 73
     2
 40
0.0481
 49
0.0068
 74
     0
 49
-0.0413
 74
     0
  0
LTYPE
  5
85
330
5
100
AcDbSymbolTableRecord
100
AcDbLinetypeTableRecord
  2
DOUBLE_DASH_CHAIN
 70
     0
  3
Double Dash Chain ___ _ _ ___ _ _ ___ _ _ ___ _
 72
    65
 73
     6
 40
1.240299999999998
 49
0.6614
 74
     0
 49
-0.0827
 74
     0
 49
0.1654
 74
     0
 49
-0.0827
 74
     0
 49
0.1654
 74
     0
 49
-0.0827
 74
     0
  0
LTYPE
  5
86
330
5
100
AcDbSymbolTableRecord
100
AcDbLinetypeTableRecord
  2
DOUBLE_DASH_DOT
 70
     0
  3
Double Dash Dot __ __ . __ __ . __ __ . __ _
 72
    65
 73
     6
 40
0.3296
 49
0.1181
 74
     0
 49
-0.0295
 74
     0
 49
0.1181
 74
     0
 49
-0.0295
 74
     0
 49
0.0049
 74
     0
 49
-0.0295
 74
     0
  0
LTYPE
  5
87
330
5
100
AcDbSymbolTableRecord
100
AcDbLinetypeTableRecord
  2
DOUBLE_DASH_DOUBLE_DOT
 70
     0
  3
Double Dash Double Dot _ _ . . _ _ . . _ _
 72
    65
 73
     8
 40
0.364
 49
0.1181
 74
     0
 49
-0.0295
 74
     0
 49
0.1181
 74
     0
 49
-0.0295
 74
     0
 49
0.0049
 74
     0
 49
-0.0295
 74
     0
 49
0.0049
 74
     0
 49
-0.0295
 74
     0
  0
LTYPE
  5
88
330
5
100
AcDbSymbolTableRecord
100
AcDbLinetypeTableRecord
  2
DOUBLE_DASH_TRIPLE_DOT
 70
     0
  3
Double Dash Triple Dot __ __ . . . __ __ . . .
 72
    65
 73
    10
 40
0.3984
 49
0.1181
 74
     0
 49
-0.0295
 74
     0
 49
0.1181
 74
     0
 49
-0.0295
 74
     0
 49
0.0049
 74
     0
 49
-0.0295
 74
     0
 49
0.0049
 74
     0
 49
-0.0295
 74
     0
 49
0.0049
 74
     0
 49
-0.0295
 74
     0
  0
LTYPE
  5
89
330
5
100
AcDbSymbolTableRecord
100
AcDbLinetypeTableRecord
  2
LONG_DASH_DOTTED
 70
     0
  3
Long Dash Dotted ____ . ____ . ____ . ____ . _
 72
    65
 73
     4
 40
0.3001
 49
0.2362
 74
     0
 49
-0.0295
 74
     0
 49
0.0049
 74
     0
 49
-0.0295
 74
     0
  0
LTYPE
  5
8A
330
5
100
AcDbSymbolTableRecord
100
AcDbLinetypeTableRecord
  2
LONG_DASH_DOUBLE_DOT
 70
     0
  3
Long Dash Double Dot ____ . . ____ . . ____ . .
 72
    65
 73
     6
 40
0.3345
 49
0.2362
 74
     0
 49
-0.0295
 74
     0
 49
0.0049
 74
     0
 49
-0.0295
 74
     0
 49
0.0049
 74
     0
 49
-0.0295
 74
     0
  0
LTYPE
  5
8B
330
5
100
AcDbSymbolTableRecord
100
AcDbLinetypeTableRecord
  2
LONG_DASH_TRIPLE_DOT
 70
     0
  3
Long Dash Triple Dot ____ ... ____ ... ____
 72
    65
 73
     8
 40
0.3689
 49
0.2362
 74
     0
 49
-0.0295
 74
     0
 49
0.0049
 74
     0
 49
-0.0295
 74
     0
 49
0.0049
 74
     0
 49
-0.0295
 74
     0
 49
0.0049
 74
     0
 49
-0.0295
 74
     0
  0
LTYPE
  5
8C
330
5
100
AcDbSymbolTableRecord
100
AcDbLinetypeTableRecord
  2
BORDER
 70
     0
  3
Border __ __ . __ __ . __ __ . __ __ . __ __ .
 72
    65
 73
     6
 40
44.45
 49
12.7
 74
     0
 49
-6.349999999999998
 74
     0
 49
12.7
 74
     0
 49
-6.349999999999998
 74
     0
 49
0.0
 74
     0
 49
-6.349999999999998
 74
     0
  0
LTYPE
  5
8D
330
5
100
AcDbSymbolTableRecord
100
AcDbLinetypeTableRecord
  2
BORDER2
 70
     0
  3
Border (.5x) __.__.__.__.__.__.__.__.__.__.__.
 72
    65
 73
     6
 40
22.225
 49
6.349999999999998
 74
     0
 49
-3.174999999999998
 74
     0
 49
6.349999999999998
 74
     0
 49
-3.174999999999998
 74
     0
 49
0.0
 74
     0
 49
-3.174999999999998
 74
     0
  0
LTYPE
  5
8E
330
5
100
AcDbSymbolTableRecord
100
AcDbLinetypeTableRecord
  2
BORDERX2
 70
     0
  3
Border (2x) ____  ____  .  ____  ____  .  ___
 72
    65
 73
     6
 40
88.9
 49
25.4
 74
     0
 49
-12.7
 74
     0
 49
25.4
 74
     0
 49
-12.7
 74
     0
 49
0.0
 74
     0
 49
-12.7
 74
     0
  0
LTYPE
  5
8F
330
5
100
AcDbSymbolTableRecord
100
AcDbLinetypeTableRecord
  2
CENTER
 70
     0
  3
Center ____ _ ____ _ ____ _ ____ _ ____ _ ____
 72
    65
 73
     4
 40
50.8
 49
31.75
 74
     0
 49
-6.349999999999998
 74
     0
 49
6.349999999999998
 74
     0
 49
-6.349999999999998
 74
     0
  0
LTYPE
  5
90
330
5
100
AcDbSymbolTableRecord
100
AcDbLinetypeTableRecord
  2
CENTER2
 70
     0
  3
Center (.5x) ___ _ ___ _ ___ _ ___ _ ___ _ ___
 72
    65
 73
     4
 40
28.575
 49
19.05
 74
     0
 49
-3.174999999999998
 74
     0
 49
3.174999999999998
 74
     0
 49
-3.174999999999998
 74
     0
  0
LTYPE
  5
91
330
5
100
AcDbSymbolTableRecord
100
AcDbLinetypeTableRecord
  2
CENTERX2
 70
     0
  3
Center (2x) ________  __  ________  __  _____
 72
    65
 73
     4
 40
101.6
 49
63.5
 74
     0
 49
-12.7
 74
     0
 49
12.7
 74
     0
 49
-12.7
 74
     0
  0
LTYPE
  5
92
330
5
100
AcDbSymbolTableRecord
100
AcDbLinetypeTableRecord
  2
DASHDOT2
 70
     0
  3
Dash dot (.5x) _._._._._._._._._._._._._._._.
 72
    65
 73
     4
 40
12.7
 49
6.349999999999998
 74
     0
 49
-3.174999999999998
 74
     0
 49
0.0
 74
     0
 49
-3.174999999999998
 74
     0
  0
LTYPE
  5
93
330
5
100
AcDbSymbolTableRecord
100
AcDbLinetypeTableRecord
  2
DASHDOTX2
 70
     0
  3
Dash dot (2x) ____  .  ____  .  ____  .  ___
 72
    65
 73
     4
 40
50.8
 49
25.4
 74
     0
 49
-12.7
 74
     0
 49
0.0
 74
     0
 49
-12.7
 74
     0
  0
LTYPE
  5
94
330
5
100
AcDbSymbolTableRecord
100
AcDbLinetypeTableRecord
  2
DASHED2
 70
     0
  3
Dashed (.5x) _ _ _ _ _ _ _ _ _ _ _ _ _ _ _ _ _
 72
    65
 73
     2
 40
9.524999999999996
 49
6.349999999999998
 74
     0
 49
-3.174999999999998
 74
     0
  0
LTYPE
  5
95
330
5
100
AcDbSymbolTableRecord
100
AcDbLinetypeTableRecord
  2
DASHEDX2
 70
     0
  3
Dashed (2x) ____  ____  ____  ____  ____  ___
 72
    65
 73
     2
 40
38.1
 49
25.4
 74
     0
 49
-12.7
 74
     0
  0
LTYPE
  5
96
330
5
100
AcDbSymbolTableRecord
100
AcDbLinetypeTableRecord
  2
DIVIDE
 70
     0
  3
Divide ____ . . ____ . . ____ . . ____ . . ____
 72
    65
 73
     6
 40
31.75
 49
12.7
 74
     0
 49
-6.349999999999998
 74
     0
 49
0.0
 74
     0
 49
-6.349999999999998
 74
     0
 49
0.0
 74
     0
 49
-6.349999999999998
 74
     0
  0
LTYPE
  5
97
330
5
100
AcDbSymbolTableRecord
100
AcDbLinetypeTableRecord
  2
DIVIDE2
 70
     0
  3
Divide (.5x) __..__..__..__..__..__..__..__.._
 72
    65
 73
     6
 40
15.875
 49
6.349999999999998
 74
     0
 49
-3.174999999999998
 74
     0
 49
0.0
 74
     0
 49
-3.174999999999998
 74
     0
 49
0.0
 74
     0
 49
-3.174999999999998
 74
     0
  0
LTYPE
  5
98
330
5
100
AcDbSymbolTableRecord
100
AcDbLinetypeTableRecord
  2
DIVIDEX2
 70
     0
  3
Divide (2x) ________  .  .  ________  .  .  _
 72
    65
 73
     6
 40
63.49999999999999
 49
25.4
 74
     0
 49
-12.7
 74
     0
 49
0.0
 74
     0
 49
-12.7
 74
     0
 49
0.0
 74
     0
 49
-12.7
 74
     0
  0
LTYPE
  5
99
330
5
100
AcDbSymbolTableRecord
100
AcDbLinetypeTableRecord
  2
DOT
 70
     0
  3
Dot . . . . . . . . . . . . . . . . . . . . . .
 72
    65
 73
     2
 40
6.349999999999998
 49
0.0
 74
     0
 49
-6.349999999999998
 74
     0
  0
LTYPE
  5
9A
330
5
100
AcDbSymbolTableRecord
100
AcDbLinetypeTableRecord
  2
DOT2
 70
     0
  3
Dot (.5x) .....................................
 72
    65
 73
     2
 40
3.174999999999998
 49
0.0
 74
     0
 49
-3.174999999999998
 74
     0
  0
LTYPE
  5
9B
330
5
100
AcDbSymbolTableRecord
100
AcDbLinetypeTableRecord
  2
DOTX2
 70
     0
  3
Dot (2x) .  .  .  .  .  .  .  .  .  .  .  .  . 
 72
    65
 73
     2
 40
12.7
 49
0.0
 74
     0
 49
-12.7
 74
     0
  0
LTYPE
  5
9C
330
5
100
AcDbSymbolTableRecord
100
AcDbLinetypeTableRecord
  2
HIDDEN
 70
     0
  3
Hidden __ __ __ __ __ __ __ __ __ __ __ __ __ _
 72
    65
 73
     2
 40
9.524999999999996
 49
6.349999999999998
 74
     0
 49
-3.174999999999998
 74
     0
  0
LTYPE
  5
9D
330
5
100
AcDbSymbolTableRecord
100
AcDbLinetypeTableRecord
  2
HIDDEN2
 70
     0
  3
Hidden (.5x) _ _ _ _ _ _ _ _ _ _ _ _ _ _ _ _ _
 72
    65
 73
     2
 40
4.762499999999998
 49
3.174999999999998
 74
     0
 49
-1.587499999999999
 74
     0
  0
LTYPE
  5
9E
330
5
100
AcDbSymbolTableRecord
100
AcDbLinetypeTableRecord
  2
HIDDENX2
 70
     0
  3
Hidden (2x) ____ ____ ____ ____ ____ ____ ____
 72
    65
 73
     2
 40
19.05
 49
12.7
 74
     0
 49
-6.349999999999998
 74
     0
  0
LTYPE
  5
9F
330
5
100
AcDbSymbolTableRecord
100
AcDbLinetypeTableRecord
  2
PHANTOM
 70
     0
  3
Phantom ______  __  __  ______  __  __  ______
 72
    65
 73
     6
 40
63.5
 49
31.75
 74
     0
 49
-6.349999999999998
 74
     0
 49
6.349999999999998
 74
     0
 49
-6.349999999999998
 74
     0
 49
6.349999999999998
 74
     0
 49
-6.349999999999998
 74
     0
  0
LTYPE
  5
A0
330
5
100
AcDbSymbolTableRecord
100
AcDbLinetypeTableRecord
  2
PHANTOM2
 70
     0
  3
Phantom (.5x) ___ _ _ ___ _ _ ___ _ _ ___ _ _
 72
    65
 73
     6
 40
31.75
 49
15.875
 74
     0
 49
-3.174999999999998
 74
     0
 49
3.174999999999998
 74
     0
 49
-3.174999999999998
 74
     0
 49
3.174999999999998
 74
     0
 49
-3.174999999999998
 74
     0
  0
LTYPE
  5
A1
330
5
100
AcDbSymbolTableRecord
100
AcDbLinetypeTableRecord
  2
PHANTOMX2
 70
     0
  3
Phantom (2x) ____________    ____    ____   _
 72
    65
 73
     6
 40
127.0
 49
63.5
 74
     0
 49
-12.7
 74
     0
 49
12.7
 74
     0
 49
-12.7
 74
     0
 49
12.7
 74
     0
 49
-12.7
 74
     0
  0
LTYPE
  5
A2
330
5
100
AcDbSymbolTableRecord
100
AcDbLinetypeTableRecord
  2
ACAD_ISO02W100
 70
     0
  3
ISO dash __ __ __ __ __ __ __ __ __ __ __ __ __
 72
    65
 73
     2
 40
15.0
 49
12.0
 74
     0
 49
-3.0
 74
     0
  0
LTYPE
  5
A3
330
5
100
AcDbSymbolTableRecord
100
AcDbLinetypeTableRecord
  2
ACAD_ISO03W100
 70
     0
  3
ISO dash space __    __    __    __    __    __
 72
    65
 73
     2
 40
30.0
 49
12.0
 74
     0
 49
-18.0
 74
     0
  0
LTYPE
  5
A4
330
5
100
AcDbSymbolTableRecord
100
AcDbLinetypeTableRecord
  2
ACAD_ISO04W100
 70
     0
  3
ISO long-dash dot ____ . ____ . ____ . ____ . _
 72
    65
 73
     4
 40
30.0
 49
24.0
 74
     0
 49
-3.0
 74
     0
 49
0.0
 74
     0
 49
-3.0
 74
     0
  0
LTYPE
  5
A5
330
5
100
AcDbSymbolTableRecord
100
AcDbLinetypeTableRecord
  2
ACAD_ISO05W100
 70
     0
  3
ISO long-dash double-dot ____ .. ____ .. ____ .
 72
    65
 73
     6
 40
33.0
 49
24.0
 74
     0
 49
-3.0
 74
     0
 49
0.0
 74
     0
 49
-3.0
 74
     0
 49
0.0
 74
     0
 49
-3.0
 74
     0
  0
LTYPE
  5
A6
330
5
100
AcDbSymbolTableRecord
100
AcDbLinetypeTableRecord
  2
ACAD_ISO06W100
 70
     0
  3
ISO long-dash triple-dot ____ ... ____ ... ____
 72
    65
 73
     8
 40
36.0
 49
24.0
 74
     0
 49
-3.0
 74
     0
 49
0.0
 74
     0
 49
-3.0
 74
     0
 49
0.0
 74
     0
 49
-3.0
 74
     0
 49
0.0
 74
     0
 49
-3.0
 74
     0
  0
LTYPE
  5
A7
330
5
100
AcDbSymbolTableRecord
100
AcDbLinetypeTableRecord
  2
ACAD_ISO07W100
 70
     0
  3
ISO dot . . . . . . . . . . . . . . . . . . . .
 72
    65
 73
     2
 40
3.0
 49
0.0
 74
     0
 49
-3.0
 74
     0
  0
LTYPE
  5
A8
330
5
100
AcDbSymbolTableRecord
100
AcDbLinetypeTableRecord
  2
ACAD_ISO08W100
 70
     0
  3
ISO long-dash short-dash ____ __ ____ __ ____ _
 72
    65
 73
     4
 40
36.0
 49
24.0
 74
     0
 49
-3.0
 74
     0
 49
6.0
 74
     0
 49
-3.0
 74
     0
  0
LTYPE
  5
A9
330
5
100
AcDbSymbolTableRecord
100
AcDbLinetypeTableRecord
  2
ACAD_ISO09W100
 70
     0
  3
ISO long-dash double-short-dash ____ __ __ ____
 72
    65
 73
     6
 40
45.0
 49
24.0
 74
     0
 49
-3.0
 74
     0
 49
6.0
 74
     0
 49
-3.0
 74
     0
 49
6.0
 74
     0
 49
-3.0
 74
     0
  0
LTYPE
  5
AA
330
5
100
AcDbSymbolTableRecord
100
AcDbLinetypeTableRecord
  2
ACAD_ISO10W100
 70
     0
  3
ISO dash dot __ . __ . __ . __ . __ . __ . __ .
 72
    65
 73
     4
 40
18.0
 49
12.0
 74
     0
 49
-3.0
 74
     0
 49
0.0
 74
     0
 49
-3.0
 74
     0
  0
LTYPE
  5
AB
330
5
100
AcDbSymbolTableRecord
100
AcDbLinetypeTableRecord
  2
ACAD_ISO11W100
 70
     0
  3
ISO double-dash dot __ __ . __ __ . __ __ . __ 
 72
    65
 73
     6
 40
33.0
 49
12.0
 74
     0
 49
-3.0
 74
     0
 49
12.0
 74
     0
 49
-3.0
 74
     0
 49
0.0
 74
     0
 49
-3.0
 74
     0
  0
LTYPE
  5
AC
330
5
100
AcDbSymbolTableRecord
100
AcDbLinetypeTableRecord
  2
ACAD_ISO12W100
 70
     0
  3
ISO dash double-dot __ . . __ . . __ . . __ . .
 72
    65
 73
     6
 40
21.0
 49
12.0
 74
     0
 49
-3.0
 74
     0
 49
0.0
 74
     0
 49
-3.0
 74
     0
 49
0.0
 74
     0
 49
-3.0
 74
     0
  0
LTYPE
  5
AD
330
5
100
AcDbSymbolTableRecord
100
AcDbLinetypeTableRecord
  2
ACAD_ISO13W100
 70
     0
  3
ISO double-dash double-dot __ __ . . __ __ . . 
 72
    65
 73
     8
 40
36.0
 49
12.0
 74
     0
 49
-3.0
 74
     0
 49
12.0
 74
     0
 49
-3.0
 74
     0
 49
0.0
 74
     0
 49
-3.0
 74
     0
 49
0.0
 74
     0
 49
-3.0
 74
     0
  0
LTYPE
  5
AE
330
5
100
AcDbSymbolTableRecord
100
AcDbLinetypeTableRecord
  2
ACAD_ISO14W100
 70
     0
  3
ISO dash triple-dot __ . . . __ . . . __ . . . 
 72
    65
 73
     8
 40
24.0
 49
12.0
 74
     0
 49
-3.0
 74
     0
 49
0.0
 74
     0
 49
-3.0
 74
     0
 49
0.0
 74
     0
 49
-3.0
 74
     0
 49
0.0
 74
     0
 49
-3.0
 74
     0
  0
LTYPE
  5
AF
330
5
100
AcDbSymbolTableRecord
100
AcDbLinetypeTableRecord
  2
ACAD_ISO15W100
 70
     0
  3
ISO double-dash triple-dot __ __ . . . __ __ . 
 72
    65
 73
    10
 40
39.0
 49
12.0
 74
     0
 49
-3.0
 74
     0
 49
12.0
 74
     0
 49
-3.0
 74
     0
 49
0.0
 74
     0
 49
-3.0
 74
     0
 49
0.0
 74
     0
 49
-3.0
 74
     0
 49
0.0
 74
     0
 49
-3.0
 74
     0
  0
LTYPE
  5
B2
330
5
100
AcDbSymbolTableRecord
100
AcDbLinetypeTableRecord
  2
FENCELINE1
 70
     0
  3
Fenceline circle ----0-----0----0-----0----0---
 72
    65
 73
     4
 40
36.83
 49
6.349999999999998
 74
     0
 49
-2.54
 74
     4
 75
   133
340
B1
 46
2.54
 50
0.0
 44
-2.54
 45
0.0
 49
-2.54
 74
     0
 49
25.4
 74
     0
  0
LTYPE
  5
B3
330
5
100
AcDbSymbolTableRecord
100
AcDbLinetypeTableRecord
  2
FENCELINE2
 70
     0
  3
Fenceline square ----[]-----[]----[]-----[]----
 72
    65
 73
     4
 40
36.83
 49
6.349999999999998
 74
     0
 49
-2.54
 74
     4
 75
   132
340
B1
 46
2.54
 50
0.0
 44
-2.54
 45
0.0
 49
-2.54
 74
     0
 49
25.4
 74
     0
  0
LTYPE
  5
B4
330
5
100
AcDbSymbolTableRecord
100
AcDbLinetypeTableRecord
  2
TRACKS
 70
     0
  3
Tracks -|-|-|-|-|-|-|-|-|-|-|-|-|-|-|-|-|-|-|-|
 72
    65
 73
     2
 40
7.62
 49
3.81
 74
     4
 75
   130
340
B1
 46
6.349999999999998
 50
0.0
 44
0.0
 45
0.0
 49
3.81
 74
     0
  0
LTYPE
  5
B5
330
5
100
AcDbSymbolTableRecord
100
AcDbLinetypeTableRecord
  2
BATTING
 70
     0
  3
Batting SSSSSSSSSSSSSSSSSSSSSSSSSSSSSSSSSSSSSSS
 72
    65
 73
     4
 40
10.16254
 49
0.00254
 74
     0
 49
-2.54
 74
     4
 75
   134
340
B1
 46
2.54
 50
0.0
 44
-2.54
 45
0.0
 49
-5.08
 74
     4
 75
   134
340
B1
 46
2.54
 50
180.0
 44
2.54
 45
0.0
 49
-2.54
 74
     0
  0
LTYPE
  5
B6
330
5
100
AcDbSymbolTableRecord
100
AcDbLinetypeTableRecord
  2
HOT_WATER_SUPPLY
 70
     0
  3
Hot water supply ---- HW ---- HW ---- HW ----
 72
    65
 73
     3
 40
22.86
 49
12.7
 74
     0
 49
-5.08
 74
     2
 75
     0
340
5D
 46
2.54
 50
0.0
 44
-2.54
 45
-1.27
  9
HW
 49
-5.08
 74
     0
  0
LTYPE
  5
B7
330
5
100
AcDbSymbolTableRecord
100
AcDbLinetypeTableRecord
  2
GAS_LINE
 70
     0
  3
Gas line ----GAS----GAS----GAS----GAS----GAS---
 72
    65
 73
     3
 40
24.13
 49
12.7
 74
     0
 49
-5.08
 74
     2
 75
     0
340
5D
 46
2.54
 50
0.0
 44
-2.54
 45
-1.27
  9
GAS
 49
-6.349999999999998
 74
     0
  0
LTYPE
  5
B8
330
5
100
AcDbSymbolTableRecord
100
AcDbLinetypeTableRecord
  2
ZIGZAG
 70
     0
  3
Zig zag /\/\/\/\/\/\/\/\/\/\/\/\/\/\/\/\/\/\/\/
 72
    65
 73
     4
 40
20.32254
 49
0.00254
 74
     0
 49
-5.08
 74
     4
 75
   131
340
B1
 46
5.08
 50
0.0
 44
-5.08
 45
0.0
 49
-10.16
 74
     4
 75
   131
340
B1
 46
5.08
 50
180.0
 44
5.08
 45
0.0
 49
-5.08
 74
     0
  0
LTYPE
  5
109
330
5
100
AcDbSymbolTableRecord
100
AcDbLinetypeTableRecord
  2
MarMittel
 70
     0
  3
_ _ 
 72
    65
 73
     4
 40
500.0001983642578
 49
263.1579895019531
 74
     0
 49
-78.94740295410156
 74
     0
 49
78.94740295410156
 74
     0
 49
-78.94740295410156
 74
     0
  0
LTYPE
  5
10A
330
5
100
AcDbSymbolTableRecord
100
AcDbLinetypeTableRecord
  2
MarPhantom
 70
     0
  3
_ _ _ 
 72
    65
 73
     6
 40
789.4740142822265
 49
394.7369995117187
 74
     0
 49
-78.94740295410156
 74
     0
 49
78.94740295410156
 74
     0
 49
-78.94740295410156
 74
     0
 49
78.94740295410156
 74
     0
 49
-78.94740295410156
 74
     0
  0
LTYPE
  5
10B
330
5
100
AcDbSymbolTableRecord
100
AcDbLinetypeTableRecord
  2
MarVerdeckt
 70
     0
  3
_ 
 72
    65
 73
     2
 40
236.8424072265625
 49
157.8950042724609
 74
     0
 49
-78.94740295410156
 74
     0
  0
ENDTAB
  0
TABLE
  2
LAYER
  5
2
330
0
100
AcDbSymbolTable
 70
    14
  0
LAYER
  5
5C
102
{ACAD_XDICTIONARY
360
11D2
102
}
330
2
100
AcDbSymbolTableRecord
100
AcDbLayerTableRecord
  2
0
 70
     0
 62
     7
  6
Continuous
370
    -3
390
F
  0
LAYER
  5
C9
102
{ACAD_XDICTIONARY
360
11D4
102
}
330
2
100
AcDbSymbolTableRecord
100
AcDbLayerTableRecord
  2
Bemaßungen(DIN)
 70
     0
 62
     7
  6
Continuous
370
    25
390
F
  0
LAYER
  5
CF
102
{ACAD_XDICTIONARY
360
11D6
102
}
330
2
100
AcDbSymbolTableRecord
100
AcDbLayerTableRecord
  2
Centerline(ISO)
 70
     0
 62
     7
  6
DASH_DOT
370
    25
390
F
  0
LAYER
  5
D5
102
{ACAD_XDICTIONARY
360
11D8
102
}
330
2
100
AcDbSymbolTableRecord
100
AcDbLayerTableRecord
  2
Hatch
 70
     0
 62
     7
  6
Continuous
370
     9
390
F
  0
LAYER
  5
DC
102
{ACAD_XDICTIONARY
360
11DA
102
}
330
2
100
AcDbSymbolTableRecord
100
AcDbLayerTableRecord
  2
MaCenterline
 70
     0
 62
     7
  6
Continuous
370
    35
390
F
  0
LAYER
  5
DD
102
{ACAD_XDICTIONARY
360
11DC
102
}
330
2
100
AcDbSymbolTableRecord
100
AcDbLayerTableRecord
  2
MaHiddenEdge
 70
     0
 62
     7
  6
Continuous
370
    35
390
F
  0
LAYER
  5
DF
102
{ACAD_XDICTIONARY
360
11DE
102
}
330
2
100
AcDbSymbolTableRecord
100
AcDbLayerTableRecord
  2
MaSichtkante dünnFliese
 70
     0
 62
     7
  6
Continuous
370
    30
390
F
  0
LAYER
  5
E0
102
{ACAD_XDICTIONARY
360
11E0
102
}
330
2
100
AcDbSymbolTableRecord
100
AcDbLayerTableRecord
  2
MaVisibleEdge
 70
     0
 62
     7
  6
Continuous
370
    50
390
F
  0
LAYER
  5
E8
102
{ACAD_XDICTIONARY
360
11E2
102
}
330
2
100
AcDbSymbolTableRecord
100
AcDbLayerTableRecord
  2
Phantom Lines(ISO)
 70
     0
 62
     7
  6
DOUBLE_DASH_CHAIN
370
    70
390
F
  0
LAYER
  5
EF
102
{ACAD_XDICTIONARY
360
11E4
102
}
330
2
100
AcDbSymbolTableRecord
100
AcDbLayerTableRecord
  2
Sketch Geometry(DIN)
 70
     0
 62
     7
  6
Continuous
370
    50
390
F
  0
LAYER
  5
F0
102
{ACAD_XDICTIONARY
360
11E6
102
}
330
2
100
AcDbSymbolTableRecord
100
AcDbLayerTableRecord
  2
Sketch Geometry(ISO)
 70
     0
 62
     7
  6
Continuous
370
    50
390
F
  0
LAYER
  5
FA
102
{ACAD_XDICTIONARY
360
11E8
102
}
330
2
100
AcDbSymbolTableRecord
100
AcDbLayerTableRecord
  2
Symbols(ISO)
 70
     0
 62
     7
  6
Continuous
370
    25
390
F
  0
LAYER
  5
102
102
{ACAD_XDICTIONARY
360
11EA
102
}
330
2
100
AcDbSymbolTableRecord
100
AcDbLayerTableRecord
  2
Visible Edges(DIN)
 70
     0
 62
     7
  6
Continuous
370
    50
390
F
  0
LAYER
  5
3A3
330
2
100
AcDbSymbolTableRecord
100
AcDbLayerTableRecord
  2
Defpoints
 70
     0
 62
     7
  6
Continuous
290
     0
370
    -3
390
F
  0
ENDTAB
  0
TABLE
  2
STYLE
  5
3
330
0
100
AcDbSymbolTable
 70
    26
  0
STYLE
  5
5D
330
3
100
AcDbSymbolTableRecord
100
AcDbTextStyleTableRecord
  2
Standard
 70
     0
 40
0.0
 41
1.0
 50
0.0
 71
     0
 42
0.2
  3
monotxt.shx
  4

  0
STYLE
  5
62
330
3
100
AcDbSymbolTableRecord
100
AcDbTextStyleTableRecord
  2
Annotative
 70
     0
 40
0.0
 41
1.0
 50
0.0
 71
     0
 42
0.2
  3

  4

1001
AcadAnnotative
1000
AnnotativeData
1002
{
1070
     1
1070
     1
1002
}
  0
STYLE
  5
B1
330
3
100
AcDbSymbolTableRecord
100
AcDbTextStyleTableRecord
  2

 70
     1
 40
0.0
 41
1.0
 50
0.0
 71
     0
 42
0.2
  3
ltypeshp.shx
  4

  0
STYLE
  5
10C
330
3
100
AcDbSymbolTableRecord
100
AcDbTextStyleTableRecord
  2
Current-DIN
 70
     0
 40
0.0
 41
1.0
 50
0.0
 71
     0
 42
0.2
  3
TAHOMA.TTF
  4

1001
ACAD
1000
Tahoma
1071
      256
  0
STYLE
  5
10D
330
3
100
AcDbSymbolTableRecord
100
AcDbTextStyleTableRecord
  2
Label Text (ANSI)
 70
     0
 40
0.0
 41
1.0
 50
0.0
 71
     0
 42
0.2
  3
TAHOMA.TTF
  4

1001
ACAD
1000
Tahoma
1071
      256
  0
STYLE
  5
10E
330
3
100
AcDbSymbolTableRecord
100
AcDbTextStyleTableRecord
  2
Label Text (DIN)
 70
     0
 40
0.0
 41
1.0
 50
0.0
 71
     0
 42
0.2
  3
isocpeur.ttf
  4

1001
ACAD
1000
ISOCPEUR
1071
      256
  0
STYLE
  5
10F
330
3
100
AcDbSymbolTableRecord
100
AcDbTextStyleTableRecord
  2
Label Text (ISO)
 70
     0
 40
0.0
 41
1.0
 50
0.0
 71
     0
 42
0.2
  3
TAHOMA.TTF
  4

1001
ACAD
1000
Tahoma
1071
      256
  0
STYLE
  5
110
330
3
100
AcDbSymbolTableRecord
100
AcDbTextStyleTableRecord
  2
Label Text (JIS)
 70
     0
 40
0.0
 41
1.0
 50
0.0
 71
     0
 42
0.2
  3
TAHOMA.TTF
  4

1001
ACAD
1000
Tahoma
1071
      256
  0
STYLE
  5
111
330
3
100
AcDbSymbolTableRecord
100
AcDbTextStyleTableRecord
  2
Note Text (ANSI)
 70
     0
 40
0.0
 41
1.0
 50
0.0
 71
     0
 42
0.2
  3
TAHOMA.TTF
  4

1001
ACAD
1000
Tahoma
1071
      256
  0
STYLE
  5
112
330
3
100
AcDbSymbolTableRecord
100
AcDbTextStyleTableRecord
  2
Note Text (DIN)
 70
     0
 40
0.0
 41
1.0
 50
0.0
 71
     0
 42
0.2
  3
isocpeur.ttf
  4

1001
ACAD
1000
ISOCPEUR
1071
      256
  0
STYLE
  5
113
330
3
100
AcDbSymbolTableRecord
100
AcDbTextStyleTableRecord
  2
Note Text (ISO)
 70
     0
 40
0.0
 41
1.0
 50
0.0
 71
     0
 42
0.2
  3
TAHOMA.TTF
  4

1001
ACAD
1000
Tahoma
1071
      256
  0
STYLE
  5
114
330
3
100
AcDbSymbolTableRecord
100
AcDbTextStyleTableRecord
  2
Note Text (JIS)
 70
     0
 40
0.0
 41
1.0
 50
0.0
 71
     0
 42
0.2
  3
TAHOMA.TTF
  4

1001
ACAD
1000
Tahoma
1071
      256
  0
STYLE
  5
115
330
3
100
AcDbSymbolTableRecord
100
AcDbTextStyleTableRecord
  2
Parts-List_2.0mm
 70
     0
 40
0.0
 41
0.899999976158142
 50
0.0
 71
     0
 42
0.2
  3
ARIAL.TTF
  4

1001
ACAD
1000
Arial
1071
      256
  0
STYLE
  5
116
330
3
100
AcDbSymbolTableRecord
100
AcDbTextStyleTableRecord
  2
Parts-List_2.0mmByLayer
 70
     0
 40
0.0
 41
0.899999976158142
 50
0.0
 71
     0
 42
0.2
  3
ARIAL.TTF
  4

1001
ACAD
1000
Arial
1071
      256
  0
STYLE
  5
117
330
3
100
AcDbSymbolTableRecord
100
AcDbTextStyleTableRecord
  2
Text__1.3mm
 70
     0
 40
0.0
 41
0.899999976158142
 50
0.0
 71
     0
 42
0.2
  3
ARIAL.TTF
  4

1001
ACAD
1000
Arial
1071
      256
  0
STYLE
  5
118
330
3
100
AcDbSymbolTableRecord
100
AcDbTextStyleTableRecord
  2
Text__1.5mm
 70
     0
 40
0.0
 41
0.899999976158142
 50
0.0
 71
     0
 42
0.2
  3
ARIAL.TTF
  4

1001
ACAD
1000
Arial
1071
      256
  0
STYLE
  5
119
330
3
100
AcDbSymbolTableRecord
100
AcDbTextStyleTableRecord
  2
Text__3.5mm
 70
     0
 40
0.0
 41
0.899999976158142
 50
0.0
 71
     0
 42
0.2
  3
ARIAL.TTF
  4

1001
ACAD
1000
Arial
1071
      256
  0
STYLE
  5
11A
330
3
100
AcDbSymbolTableRecord
100
AcDbTextStyleTableRecord
  2
Text__3.5mmBigText
 70
     0
 40
0.0
 41
0.899999976158142
 50
0.0
 71
     0
 42
0.2
  3
ARIAL.TTF
  4

1001
ACAD
1000
Arial
1071
      256
  0
STYLE
  5
11B
330
3
100
AcDbSymbolTableRecord
100
AcDbTextStyleTableRecord
  2
Text__3.5mmByLayer
 70
     0
 40
0.0
 41
0.899999976158142
 50
0.0
 71
     0
 42
0.2
  3
ARIAL.TTF
  4

1001
ACAD
1000
Arial
1071
      256
  0
STYLE
  5
11C
330
3
100
AcDbSymbolTableRecord
100
AcDbTextStyleTableRecord
  2
Text__4.0mm
 70
     0
 40
0.0
 41
0.899999976158142
 50
0.0
 71
     0
 42
0.2
  3
ARIAL.TTF
  4

1001
ACAD
1000
Arial
1071
      256
  0
STYLE
  5
11D
330
3
100
AcDbSymbolTableRecord
100
AcDbTextStyleTableRecord
  2
Text__5.0mm
 70
     0
 40
0.0
 41
0.899999976158142
 50
0.0
 71
     0
 42
0.2
  3
ARIAL.TTF
  4

1001
ACAD
1000
Arial
1071
      256
  0
STYLE
  5
11E
330
3
100
AcDbSymbolTableRecord
100
AcDbTextStyleTableRecord
  2
Text__5.0mmByLayer
 70
     0
 40
0.0
 41
0.899999976158142
 50
0.0
 71
     0
 42
0.2
  3
ARIAL.TTF
  4

1001
ACAD
1000
Arial
1071
      256
  0
STYLE
  5
11F
330
3
100
AcDbSymbolTableRecord
100
AcDbTextStyleTableRecord
  2
Text_2.5mm
 70
     0
 40
0.0
 41
0.899999976158142
 50
0.0
 71
     0
 42
0.2
  3
ARIAL.TTF
  4

1001
ACAD
1000
Arial
1071
      256
  0
STYLE
  5
120
330
3
100
AcDbSymbolTableRecord
100
AcDbTextStyleTableRecord
  2
Text_3.5mm
 70
     0
 40
0.0
 41
0.899999976158142
 50
0.0
 71
     0
 42
0.2
  3
ARIAL.TTF
  4

1001
ACAD
1000
Arial
1071
      256
  0
STYLE
  5
121
330
3
100
AcDbSymbolTableRecord
100
AcDbTextStyleTableRecord
  2
Text_5.0mm
 70
     0
 40
0.0
 41
0.899999976158142
 50
0.0
 71
     0
 42
0.2
  3
ARIAL.TTF
  4

1001
ACAD
1000
Arial
1071
      256
  0
STYLE
  5
122
330
3
100
AcDbSymbolTableRecord
100
AcDbTextStyleTableRecord
  2
Text_5.0mmByLayer
 70
     0
 40
0.0
 41
0.899999976158142
 50
0.0
 71
     0
 42
0.2
  3
ARIAL.TTF
  4

1001
ACAD
1000
Arial
1071
      256
  0
ENDTAB
  0
TABLE
  2
VIEW
  5
6
330
0
100
AcDbSymbolTable
 70
     0
  0
ENDTAB
  0
TABLE
  2
UCS
  5
7
330
0
100
AcDbSymbolTable
 70
     0
  0
ENDTAB
  0
TABLE
  2
APPID
  5
9
330
0
100
AcDbSymbolTable
 70
     4
  0
APPID
  5
5E
330
9
100
AcDbSymbolTableRecord
100
AcDbRegAppTableRecord
  2
ACAD
 70
     0
  0
APPID
  5
66
330
9
100
AcDbSymbolTableRecord
100
AcDbRegAppTableRecord
  2
AcadAnnotative
 70
     0
  0
APPID
  5
70
330
9
100
AcDbSymbolTableRecord
100
AcDbRegAppTableRecord
  2
ACAD_MLEADERVER
 70
     0
  0
APPID
  5
11C3
330
9
100
AcDbSymbolTableRecord
100
AcDbRegAppTableRecord
  2
AMAcad
 70
     0
  0
ENDTAB
  0
TABLE
  2
DIMSTYLE
  5
A
330
0
100
AcDbSymbolTable
 70
    17
100
AcDbDimStyleTable
 71
     2
340
127
340
60
  0
DIMSTYLE
105
60
330
A
100
AcDbSymbolTableRecord
100
AcDbDimStyleTableRecord
  2
Standard
 70
     0
340
5D
  0
DIMSTYLE
105
61
330
A
100
AcDbSymbolTableRecord
100
AcDbDimStyleTableRecord
  2
Annotative
 70
     0
340
5D
1001
AcadAnnotative
1000
AnnotativeData
1002
{
1070
     1
1070
     1
1002
}
  0
DIMSTYLE
105
123
330
A
100
AcDbSymbolTableRecord
100
AcDbDimStyleTableRecord
  2
KS-STANDARD
 70
     0
 40
12.0
 41
2.5
 42
0.0
 43
12.0
 44
3.174999999999998
 45
0.00000001
 46
10.0
 73
     0
 74
     0
 77
     1
 78
     8
 79
     2
140
3.5
143
0.03937
146
0.7142857142857145
147
0.8000000000000001
171
     3
172
     1
176
     7
177
     7
178
     7
271
     1
274
     3
278
    44
284
     8
286
     8
340
120
371
    25
372
    25
  0
DIMSTYLE
105
124
330
A
100
AcDbSymbolTableRecord
100
AcDbDimStyleTableRecord
  2
KS-STANDARD$7
 70
     0
 40
12.0
 41
2.5
 42
0.0
 43
12.0
 44
3.174999999999998
 45
0.00000001
 46
10.0
 73
     0
 74
     0
 77
     1
 78
     8
 79
     2
140
3.5
143
0.03937
146
0.7142857142857145
147
0.8000000000000001
171
     3
172
     1
176
     7
177
     7
178
     7
271
     1
274
     3
278
    44
284
     8
286
     8
340
120
371
    25
372
    25
  0
DIMSTYLE
105
125
330
A
100
AcDbSymbolTableRecord
100
AcDbDimStyleTableRecord
  2
KS-STANDARDBigText
 70
     0
 40
12.0
 41
5.0
 42
0.0
 43
12.0
 44
3.174999999999998
 45
0.00000001
 46
10.0
 73
     0
 74
     0
 77
     1
 78
     8
 79
     2
140
5.25
143
0.03937
146
0.4761904761904762
147
0.8000000000000001
171
     3
172
     1
176
     7
177
     7
178
     7
271
     1
274
     3
278
    44
284
     8
286
     8
340
11A
371
    25
372
    25
  0
DIMSTYLE
105
126
330
A
100
AcDbSymbolTableRecord
100
AcDbDimStyleTableRecord
  2
KS-STANDARDBigText$7
 70
     0
 40
12.0
 41
5.0
 42
0.0
 43
12.0
 44
3.174999999999998
 45
0.00000001
 46
10.0
 73
     0
 74
     0
 77
     1
 78
     8
 79
     2
140
5.25
143
0.03937
146
0.4761904761904762
147
0.8000000000000001
171
     3
172
     1
176
     7
177
     7
178
     7
271
     1
274
     3
278
    44
284
     8
286
     8
340
11A
371
    25
372
    25
  0
DIMSTYLE
105
127
102
{ACAD_REACTORS
330
3A2
330
487
330
567
330
647
330
72F
330
80F
330
8EF
330
9D2
330
AB2
330
B8D
330
C6D
330
D4D
330
E2A
330
F0A
330
FEA
330
10C5
102
}
330
A
100
AcDbSymbolTableRecord
100
AcDbDimStyleTableRecord
  2
MarketingDrawing
 70
     0
 40
12.0
 41
4.0
 42
2.0
 43
12.0
 44
2.0
 45
0.00000001
 46
10.0
 78
     8
 79
     2
140
4.0
143
0.03937
146
0.625
147
1.0
171
     3
176
     7
177
     7
178
     7
271
     0
274
     3
278
    44
284
     8
286
     8
340
11C
371
    25
372
    25
  0
DIMSTYLE
105
128
330
A
100
AcDbSymbolTableRecord
100
AcDbDimStyleTableRecord
  2
MarketingDrawing$7
 70
     0
 40
12.0
 41
5.0
 42
2.0
 43
12.0
 44
2.0
 45
0.00000001
 46
10.0
 78
     8
 79
     2
140
4.0
143
0.03937
146
0.625
147
1.0
171
     3
176
     7
177
     7
178
     7
271
     0
274
     3
278
    44
284
     8
286
     8
340
11C
371
    25
372
    25
  0
DIMSTYLE
105
133
330
A
100
AcDbSymbolTableRecord
100
AcDbDimStyleTableRecord
  2
Leader-Datum(DIN)
 70
     0
 40
12.0
 41
2.5
340
5D
342
134
  0
DIMSTYLE
105
13B
330
A
100
AcDbSymbolTableRecord
100
AcDbDimStyleTableRecord
  2
Leader-Datum(ISO)
 70
     0
 40
12.0
 41
2.5
340
5D
342
134
  0
DIMSTYLE
105
13C
330
A
100
AcDbSymbolTableRecord
100
AcDbDimStyleTableRecord
  2
Leader-Dot(DIN)
 70
     0
 40
12.0
 41
2.5
340
5D
342
134
  0
DIMSTYLE
105
13D
330
A
100
AcDbSymbolTableRecord
100
AcDbDimStyleTableRecord
  2
Leader-Dot(ISO)
 70
     0
 40
12.0
 41
2.5
340
5D
342
134
  0
DIMSTYLE
105
13E
330
A
100
AcDbSymbolTableRecord
100
AcDbDimStyleTableRecord
  2
Leader-Large(DIN)
 70
     0
 40
12.0
 41
5.0
340
5D
342
134
  0
DIMSTYLE
105
13F
330
A
100
AcDbSymbolTableRecord
100
AcDbDimStyleTableRecord
  2
Leader-OriginIndicator(DIN)
 70
     0
 40
12.0
 41
2.5
340
5D
342
134
  0
DIMSTYLE
105
140
330
A
100
AcDbSymbolTableRecord
100
AcDbDimStyleTableRecord
  2
Leader-OriginIndicator(ISO)
 70
     0
 40
12.0
 41
2.5
340
5D
342
134
  0
DIMSTYLE
105
141
330
A
100
AcDbSymbolTableRecord
100
AcDbDimStyleTableRecord
  2
Leader(DIN)
 70
     0
 40
12.0
 41
2.5
340
5D
342
134
  0
DIMSTYLE
105
142
330
A
100
AcDbSymbolTableRecord
100
AcDbDimStyleTableRecord
  2
Leader(ISO)
 70
     0
 40
12.0
 41
2.5
340
5D
342
134
  0
ENDTAB
  0
TABLE
  2
BLOCK_RECORD
  5
1
330
0
100
AcDbSymbolTable
 70
    27
  0
BLOCK_RECORD
  5
75
330
1
100
AcDbSymbolTableRecord
100
AcDbBlockTableRecord
  2
*Model_Space
340
78
  0
BLOCK_RECORD
  5
71
330
1
100
AcDbSymbolTableRecord
100
AcDbBlockTableRecord
  2
*Paper_Space
340
74
  0
BLOCK_RECORD
  5
79
330
1
100
AcDbSymbolTableRecord
100
AcDbBlockTableRecord
  2
*Paper_Space0
340
7C
  0
BLOCK_RECORD
  5
129
330
1
100
AcDbSymbolTableRecord
100
AcDbBlockTableRecord
  2
DatumFilled45
340
0
  0
BLOCK_RECORD
  5
134
330
1
100
AcDbSymbolTableRecord
100
AcDbBlockTableRecord
  2
_Closed
340
0
  0
BLOCK_RECORD
  5
143
330
1
100
AcDbSymbolTableRecord
100
AcDbBlockTableRecord
  2
Index
340
0
  0
BLOCK_RECORD
  5
14A
330
1
100
AcDbSymbolTableRecord
100
AcDbBlockTableRecord
  2
AIR
340
0
  0
BLOCK_RECORD
  5
157
330
1
100
AcDbSymbolTableRecord
100
AcDbBlockTableRecord
  2
Zertifizierungszeichnung
340
0
  0
BLOCK_RECORD
  5
15F
330
1
100
AcDbSymbolTableRecord
100
AcDbBlockTableRecord
  2
Pfeil 1_1
340
0
  0
BLOCK_RECORD
  5
171
330
1
100
AcDbSymbolTableRecord
100
AcDbBlockTableRecord
  2
TWK 1_1
340
0
  0
BLOCK_RECORD
  5
17F
330
1
100
AcDbSymbolTableRecord
100
AcDbBlockTableRecord
  2
TWW 1_1
340
0
  0
BLOCK_RECORD
  5
18F
330
1
100
AcDbSymbolTableRecord
100
AcDbBlockTableRecord
  2
Title Blocks WS-Marketing-FUN
340
0
102
{BLKREFS
331
297
102
}
  0
BLOCK_RECORD
  5
2AC
330
1
100
AcDbSymbolTableRecord
100
AcDbBlockTableRecord
  2
Borders Verkauf Border_85x80
340
0
102
{BLKREFS
331
2B7
102
}
  0
BLOCK_RECORD
  5
3A4
330
1
100
AcDbSymbolTableRecord
100
AcDbBlockTableRecord
  2
*D11
340
0
  0
BLOCK_RECORD
  5
488
330
1
100
AcDbSymbolTableRecord
100
AcDbBlockTableRecord
  2
*D12
340
0
  0
BLOCK_RECORD
  5
568
330
1
100
AcDbSymbolTableRecord
100
AcDbBlockTableRecord
  2
*D13
340
0
  0
BLOCK_RECORD
  5
648
330
1
100
AcDbSymbolTableRecord
100
AcDbBlockTableRecord
  2
*D14
340
0
  0
BLOCK_RECORD
  5
730
330
1
100
AcDbSymbolTableRecord
100
AcDbBlockTableRecord
  2
*D15
340
0
  0
BLOCK_RECORD
  5
810
330
1
100
AcDbSymbolTableRecord
100
AcDbBlockTableRecord
  2
*D16
340
0
  0
BLOCK_RECORD
  5
8F0
330
1
100
AcDbSymbolTableRecord
100
AcDbBlockTableRecord
  2
*D17
340
0
  0
BLOCK_RECORD
  5
9D3
330
1
100
AcDbSymbolTableRecord
100
AcDbBlockTableRecord
  2
*D18
340
0
  0
BLOCK_RECORD
  5
AB3
330
1
100
AcDbSymbolTableRecord
100
AcDbBlockTableRecord
  2
*D19
340
0
  0
BLOCK_RECORD
  5
B8E
330
1
100
AcDbSymbolTableRecord
100
AcDbBlockTableRecord
  2
*D20
340
0
  0
BLOCK_RECORD
  5
C6E
330
1
100
AcDbSymbolTableRecord
100
AcDbBlockTableRecord
  2
*D21
340
0
  0
BLOCK_RECORD
  5
D4E
330
1
100
AcDbSymbolTableRecord
100
AcDbBlockTableRecord
  2
*D22
340
0
  0
BLOCK_RECORD
  5
E2B
330
1
100
AcDbSymbolTableRecord
100
AcDbBlockTableRecord
  2
*D23
340
0
  0
BLOCK_RECORD
  5
F0B
330
1
100
AcDbSymbolTableRecord
100
AcDbBlockTableRecord
  2
*D24
340
0
  0
BLOCK_RECORD
  5
FEB
330
1
100
AcDbSymbolTableRecord
100
AcDbBlockTableRecord
  2
*D25
340
0
  0
BLOCK_RECORD
  5
10C6
330
1
100
AcDbSymbolTableRecord
100
AcDbBlockTableRecord
  2
*D26
340
0
  0
ENDTAB
  0
ENDSEC
  0
SECTION
  2
BLOCKS
  0
BLOCK
  5
76
330
75
100
AcDbEntity
  8
0
100
AcDbBlockBegin
  2
*Model_Space
 70
     0
 10
0.0
 20
0.0
 30
0.0
  3
*Model_Space
  1

  0
ENDBLK
  5
77
330
75
100
AcDbEntity
  8
0
100
AcDbBlockEnd
  0
BLOCK
  5
72
330
71
100
AcDbEntity
 67
     1
  8
0
100
AcDbBlockBegin
  2
*Paper_Space
 70
     0
 10
0.0
 20
0.0
 30
0.0
  3
*Paper_Space
  1

  0
ENDBLK
  5
73
330
71
100
AcDbEntity
 67
     1
  8
0
100
AcDbBlockEnd
  0
BLOCK
  5
7A
330
79
100
AcDbEntity
 67
     1
  8
0
100
AcDbBlockBegin
  2
*Paper_Space0
 70
     0
 10
0.0
 20
0.0
 30
0.0
  3
*Paper_Space0
  1

  0
ENDBLK
  5
7B
330
79
100
AcDbEntity
 67
     1
  8
0
100
AcDbBlockEnd
  0
BLOCK
  5
12A
330
129
100
AcDbEntity
  8
0
100
AcDbBlockBegin
  2
DatumFilled45
 70
     0
 10
0.0
 20
0.0
 30
0.0
  3
DatumFilled45
  1

  0
POLYLINE
  5
12C
330
129
100
AcDbEntity
  8
0
 62
     0
100
AcDb2dPolyline
 66
     1
 10
0.0
 20
0.0
 30
0.0
 70
   128
  0
VERTEX
  5
12D
330
12C
100
AcDbEntity
  8
0
 62
     0
100
AcDbVertex
100
AcDb2dVertex
 10
0.0
 20
1.0
 30
0.0
  0
VERTEX
  5
12E
330
12C
100
AcDbEntity
  8
0
 62
     0
100
AcDbVertex
100
AcDb2dVertex
 10
0.0
 20
-1.0
 30
0.0
  0
VERTEX
  5
130
330
12C
100
AcDbEntity
  8
0
 62
     0
100
AcDbVertex
100
AcDb2dVertex
 10
-1.0
 20
0.0
 30
0.0
  0
VERTEX
  5
131
330
12C
100
AcDbEntity
  8
0
 62
     0
100
AcDbVertex
100
AcDb2dVertex
 10
0.0
 20
1.0
 30
0.0
  0
SEQEND
  5
12F
330
12C
100
AcDbEntity
  8
0
 62
     0
  0
SOLID
  5
132
330
129
100
AcDbEntity
  8
0
 62
     0
100
AcDbTrace
 10
0.0
 20
1.0
 30
0.0
 11
0.0
 21
-1.0
 31
0.0
 12
-1.0
 22
0.0
 32
0.0
 13
0.0
 23
1.0
 33
0.0
  0
ENDBLK
  5
12B
330
129
100
AcDbEntity
  8
0
100
AcDbBlockEnd
  0
BLOCK
  5
139
330
134
100
AcDbEntity
  8
0
100
AcDbBlockBegin
  2
_Closed
 70
     0
 10
0.0
 20
0.0
 30
0.0
  3
_Closed
  1

  0
LINE
  5
135
330
134
100
AcDbEntity
  8
0
  6
ByBlock
 62
     0
370
    -2
100
AcDbLine
 10
-1.0
 20
0.1666666666666666
 30
0.0
 11
0.0
 21
0.0
 31
0.0
  0
LINE
  5
136
330
134
100
AcDbEntity
  8
0
  6
ByBlock
 62
     0
370
    -2
100
AcDbLine
 10
0.0
 20
0.0
 30
0.0
 11
-1.0
 21
-0.1666666666666666
 31
0.0
  0
LINE
  5
137
330
134
100
AcDbEntity
  8
0
  6
ByBlock
 62
     0
370
    -2
100
AcDbLine
 10
-1.0
 20
0.1666666666666666
 30
0.0
 11
-1.0
 21
-0.1666666666666666
 31
0.0
  0
LINE
  5
138
330
134
100
AcDbEntity
  8
0
  6
ByBlock
 62
     0
370
    -2
100
AcDbLine
 10
0.0
 20
0.0
 30
0.0
 11
-1.0
 21
0.0
 31
0.0
  0
ENDBLK
  5
13A
330
134
100
AcDbEntity
  8
0
100
AcDbBlockEnd
  0
BLOCK
  5
144
330
143
100
AcDbEntity
  8
0
100
AcDbBlockBegin
  2
Index
 70
     2
 10
0.0
 20
0.0
 30
0.0
  3
Index
  1

  0
CIRCLE
  5
146
330
143
100
AcDbEntity
  8
Sketch Geometry(ISO)
  6
Continuous
 62
     7
370
    25
100
AcDbCircle
 10
0.0
 20
0.0
 30
0.0
 40
2.5
  0
ATTDEF
  5
147
330
143
100
AcDbEntity
  8
Symbols(ISO)
 62
     7
100
AcDbText
 10
-0.4366473281326594
 20
-1.25
 30
0.0
 40
2.5
  1
 
 41
0.899999976158142
  7
Text__3.5mm
 72
     1
 11
0.0
 21
0.0
 31
0.0
100
AcDbAttributeDefinition
  3
<Enter Prompt for Field>
  2
<Enter_Prompt_for_Field>
 70
     0
 74
     2
  0
ENDBLK
  5
145
330
143
100
AcDbEntity
  8
0
100
AcDbBlockEnd
  0
BLOCK
  5
14B
330
14A
100
AcDbEntity
  8
0
100
AcDbBlockBegin
  2
AIR
 70
     0
 10
0.0
 20
0.0
 30
0.0
  3
AIR
  1

  0
LINE
  5
14D
330
14A
100
AcDbEntity
  8
Sketch Geometry(ISO)
 62
     7
370
    70
100
AcDbLine
 10
-7.0
 20
6.000000000000048
 30
0.0
 11
6.999999999999992
 21
6.000000000000013
 31
0.0
  0
LINE
  5
14E
330
14A
100
AcDbEntity
  8
Sketch Geometry(ISO)
 62
     7
370
    70
100
AcDbLine
 10
10.00000000000001
 20
3.000000000000006
 30
0.0
 11
10.00000000000001
 21
-2.999999999999971
 31
0.0
  0
LINE
  5
14F
330
14A
100
AcDbEntity
  8
Sketch Geometry(ISO)
 62
     7
370
    70
100
AcDbLine
 10
6.999999999999992
 20
-5.999999999999976
 30
0.0
 11
-7.0
 21
-6.000000000000013
 31
0.0
  0
LINE
  5
150
330
14A
100
AcDbEntity
  8
Sketch Geometry(ISO)
 62
     7
370
    70
100
AcDbLine
 10
-10.00000000000001
 20
-2.999999999999971
 30
0.0
 11
-10.0
 21
3.000000000000006
 31
0.0
  0
ARC
  5
151
330
14A
100
AcDbEntity
  8
Sketch Geometry(ISO)
 62
     7
370
    70
100
AcDbCircle
 10
6.999999999999992
 20
3.000000000000006
 30
0.0
 40
3.0
100
AcDbArc
 50
0.0
 51
90.0
  0
ARC
  5
152
330
14A
100
AcDbEntity
  8
Sketch Geometry(ISO)
 62
     7
370
    70
100
AcDbCircle
 10
6.999999999999992
 20
-2.999999999999971
 30
0.0
 40
3.0
100
AcDbArc
 50
270.0
 51
0.0
  0
ARC
  5
153
330
14A
100
AcDbEntity
  8
Sketch Geometry(ISO)
 62
     7
370
    70
100
AcDbCircle
 10
-7.0
 20
-2.999999999999971
 30
0.0
 40
3.0
100
AcDbArc
 50
180.0
 51
270.0
  0
ARC
  5
154
330
14A
100
AcDbEntity
  8
Sketch Geometry(ISO)
 62
     7
370
    70
100
AcDbCircle
 10
-7.0
 20
3.000000000000006
 30
0.0
 40
3.0
100
AcDbArc
 50
90.0
 51
180.0
  0
MTEXT
  5
155
330
14A
100
AcDbEntity
  8
Symbols(ISO)
 62
     7
100
AcDbMText
 10
0.0
 20
0.0
 30
0.0
 40
6.99999988079071
 41
16.10195276430038
 71
     5
 72
     1
  1
\fArial|b0|i0;\H7.0000;AIR
  7
Text__3.5mm
 73
     1
 44
1.0
1001
ACAD
1000
MTEXTBEGIN
1070
    73
1070
     1
1070
    44
1040
1.0
1070
    74
1070
     0
1000
MTEXTEND
  0
ENDBLK
  5
14C
330
14A
100
AcDbEntity
  8
0
100
AcDbBlockEnd
  0
BLOCK
  5
158
330
157
100
AcDbEntity
  8
0
100
AcDbBlockBegin
  2
Zertifizierungszeichnung
 70
     0
 10
0.0
 20
0.0
 30
0.0
  3
Zertifizierungszeichnung
  1

  0
LINE
  5
15A
330
157
100
AcDbEntity
  8
Sketch Geometry(ISO)
100
AcDbLine
 10
-36.13491376407675
 20
6.581399957023617
 30
0.0
 11
36.13491376407676
 21
6.581399957023617
 31
0.0
  0
LINE
  5
15B
330
157
100
AcDbEntity
  8
Sketch Geometry(ISO)
100
AcDbLine
 10
36.13491376407676
 20
6.581399957023617
 30
0.0
 11
36.13491376407676
 21
-6.581399957023633
 31
0.0
  0
LINE
  5
15C
330
157
100
AcDbEntity
  8
Sketch Geometry(ISO)
100
AcDbLine
 10
36.13491376407676
 20
-6.581399957023633
 30
0.0
 11
-36.13491376407675
 21
-6.581399957023633
 31
0.0
  0
LINE
  5
15D
330
157
100
AcDbEntity
  8
Sketch Geometry(ISO)
100
AcDbLine
 10
-36.13491376407675
 20
-6.581399957023633
 30
0.0
 11
-36.13491376407675
 21
6.581399957023617
 31
0.0
  0
MTEXT
  5
15E
330
157
100
AcDbEntity
  8
Symbols(ISO)
 62
     7
100
AcDbMText
 10
-34.13997890763035
 20
-0.338671892615654
 30
0.0
 40
3.000000119209288
 41
0.0
 71
     4
 72
     1
  1
\fTahoma|b0|i0;\H3.0000;Drawing for certification purposes only!\PDrawing not for manufacturing purposes!
  7
Text__3.5mm
 73
     2
 44
0.9442214369773862
1001
ACAD
1000
MTEXTBEGIN
1070
    73
1070
     2
1070
    44
1040
0.9442214369773862
1070
    74
1070
     0
1000
MTEXTEND
  0
ENDBLK
  5
159
330
157
100
AcDbEntity
  8
0
100
AcDbBlockEnd
  0
BLOCK
  5
160
330
15F
100
AcDbEntity
  8
0
100
AcDbBlockBegin
  2
Pfeil 1_1
 70
     0
 10
0.0
 20
0.0
 30
0.0
  3
Pfeil 1_1
  1

  0
LINE
  5
162
102
{ACAD_REACTORS
330
169
102
}
330
15F
100
AcDbEntity
  8
0
100
AcDbLine
 10
-2.327499999999814
 20
0.6650000000002621
 30
0.0
 11
0.0
 21
-2.659999999999874
 31
0.0
  0
LINE
  5
163
102
{ACAD_REACTORS
330
169
102
}
330
15F
100
AcDbEntity
  8
0
100
AcDbLine
 10
-0.664999999999978
 20
0.6650000000002621
 30
0.0
 11
-2.327499999999814
 21
0.6650000000002621
 31
0.0
  0
LINE
  5
164
102
{ACAD_REACTORS
330
169
102
}
330
15F
100
AcDbEntity
  8
0
100
AcDbLine
 10
-0.664999999999978
 20
2.659999999999858
 30
0.0
 11
-0.664999999999978
 21
0.6650000000002621
 31
0.0
  0
LINE
  5
165
102
{ACAD_REACTORS
330
169
102
}
330
15F
100
AcDbEntity
  8
0
100
AcDbLine
 10
0.6649999999998713
 20
2.659999999999858
 30
0.0
 11
-0.664999999999978
 21
2.659999999999858
 31
0.0
  0
LINE
  5
166
102
{ACAD_REACTORS
330
169
102
}
330
15F
100
AcDbEntity
  8
0
100
AcDbLine
 10
0.6649999999998713
 20
0.6650000000002621
 30
0.0
 11
0.6649999999998713
 21
2.659999999999858
 31
0.0
  0
LINE
  5
167
102
{ACAD_REACTORS
330
169
102
}
330
15F
100
AcDbEntity
  8
0
100
AcDbLine
 10
2.327499999999833
 20
0.6650000000002621
 30
0.0
 11
0.6649999999998713
 21
0.6650000000002621
 31
0.0
  0
LINE
  5
168
102
{ACAD_REACTORS
330
169
102
}
330
15F
100
AcDbEntity
  8
0
100
AcDbLine
 10
0.0
 20
-2.659999999999874
 30
0.0
 11
2.327499999999833
 21
0.6650000000002621
 31
0.0
  0
HATCH
  5
169
330
15F
100
AcDbEntity
  8
Hatch
100
AcDbHatch
 10
0.0
 20
0.0
 30
0.0
210
0.0
220
0.0
230
1.0
  2
ANSI31
 70
     0
 71
     1
 91
        1
 92
        1
 93
        7
 72
     1
 10
-2.327499999999814
 20
0.6650000000002621
 11
0.0
 21
-2.659999999999874
 72
     1
 10
0.0
 20
-2.659999999999874
 11
2.327499999999833
 21
0.6650000000002621
 72
     1
 10
2.327499999999833
 20
0.6650000000002621
 11
0.6649999999998713
 21
0.6650000000002621
 72
     1
 10
0.6649999999998713
 20
0.6650000000002621
 11
0.6649999999998713
 21
2.659999999999858
 72
     1
 10
0.6649999999998713
 20
2.659999999999858
 11
-0.6649999999999779
 21
2.659999999999858
 72
     1
 10
-0.664999999999978
 20
2.659999999999858
 11
-0.664999999999978
 21
0.6650000000002621
 72
     1
 10
-0.664999999999978
 20
0.6650000000002621
 11
-2.327499999999814
 21
0.6650000000002621
 97
        7
330
162
330
168
330
167
330
166
330
165
330
164
330
163
 75
     0
 76
     1
 52
0.0
 41
0.0254
 77
     0
 78
     1
 53
45.0
 43
0.0
 44
0.0
 45
-0.0022450640302673
 46
0.0022450640302673
 79
     0
 98
        1
 10
0.0
 20
0.0
  0
LINE
  5
16A
330
15F
100
AcDbEntity
  8
MaSichtkante dünnFliese
370
     5
100
AcDbLine
 10
-2.327499999999814
 20
0.6650000000002621
 30
0.0
 11
-0.664999999999978
 21
0.6650000000002621
 31
0.0
  0
LINE
  5
16B
330
15F
100
AcDbEntity
  8
MaSichtkante dünnFliese
370
     5
100
AcDbLine
 10
0.0
 20
-2.659999999999874
 30
0.0
 11
-2.327499999999814
 21
0.6650000000002621
 31
0.0
  0
LINE
  5
16C
330
15F
100
AcDbEntity
  8
MaSichtkante dünnFliese
370
     5
100
AcDbLine
 10
-0.664999999999978
 20
0.6650000000002621
 30
0.0
 11
-0.664999999999978
 21
2.659999999999858
 31
0.0
  0
LINE
  5
16D
330
15F
100
AcDbEntity
  8
MaSichtkante dünnFliese
370
     5
100
AcDbLine
 10
-0.664999999999978
 20
2.659999999999858
 30
0.0
 11
0.6649999999998713
 21
2.659999999999858
 31
0.0
  0
LINE
  5
16E
330
15F
100
AcDbEntity
  8
MaSichtkante dünnFliese
370
     5
100
AcDbLine
 10
0.6649999999998713
 20
2.659999999999858
 30
0.0
 11
0.6649999999998713
 21
0.6650000000002621
 31
0.0
  0
LINE
  5
16F
330
15F
100
AcDbEntity
  8
MaSichtkante dünnFliese
370
     5
100
AcDbLine
 10
2.327499999999833
 20
0.6650000000002621
 30
0.0
 11
0.0
 21
-2.659999999999874
 31
0.0
  0
LINE
  5
170
330
15F
100
AcDbEntity
  8
MaSichtkante dünnFliese
370
     5
100
AcDbLine
 10
0.6649999999998713
 20
0.6650000000002621
 30
0.0
 11
2.327499999999833
 21
0.6650000000002621
 31
0.0
  0
ENDBLK
  5
161
330
15F
100
AcDbEntity
  8
0
100
AcDbBlockEnd
  0
BLOCK
  5
172
330
171
100
AcDbEntity
  8
0
100
AcDbBlockBegin
  2
TWK 1_1
 70
     0
 10
0.0
 20
0.0
 30
0.0
  3
TWK 1_1
  1

  0
ARC
  5
174
102
{ACAD_REACTORS
330
176
102
}
330
171
100
AcDbEntity
  8
0
100
AcDbCircle
 10
0.0
 20
-3.324999949999316
 30
0.0
 40
2.659999999999999
100
AcDbArc
 50
148.4507563219767
 51
31.54924367803084
  0
LINE
  5
175
102
{ACAD_REACTORS
330
176
102
}
330
171
100
AcDbEntity
  8
0
100
AcDbLine
 10
2.266827476457925
 20
-1.933204996720494
 30
0.0
 11
-2.266827476458601
 21
-1.933204996720494
 31
0.0
  0
HATCH
  5
176
330
171
100
AcDbEntity
  8
Hatch
100
AcDbHatch
 10
0.0
 20
0.0
 30
0.0
210
0.0
220
0.0
230
1.0
  2
ANSI31
 70
     0
 71
     1
 91
        1
 92
        1
 93
        2
 72
     2
 10
0.0
 20
-3.324999949999316
 40
2.659999999999999
 50
148.4507563219767
 51
391.5492436780309
 73
     1
 72
     1
 10
2.266827476457925
 20
-1.933204996720494
 11
-2.2668274764586
 21
-1.933204996720494
 97
        2
330
174
330
175
 75
     0
 76
     1
 52
0.0
 41
0.0254
 77
     0
 78
     1
 53
45.0
 43
0.0
 44
0.0
 45
-0.0022450640302673
 46
0.0022450640302673
 79
     0
 98
        1
 10
0.0
 20
0.0
  0
LINE
  5
177
330
171
100
AcDbEntity
  8
MaSichtkante dünnFliese
100
AcDbLine
 10
-2.266827476458601
 20
-1.933204996720494
 30
0.0
 11
2.266827476457925
 21
-1.933204996720494
 31
0.0
  0
ARC
  5
178
330
171
100
AcDbEntity
  8
MaSichtkante dünnFliese
100
AcDbCircle
 10
0.0
 20
-3.324999949999316
 30
0.0
 40
2.66
100
AcDbArc
 50
112.0243128370458
 51
67.97568716296805
  0
LINE
  5
179
330
171
100
AcDbEntity
  8
MaSichtkante dünnFliese
100
AcDbLine
 10
-0.9975000000001619
 20
-0.8591139530400582
 30
0.0
 11
-0.9975000000001619
 21
5.985000049999325
 31
0.0
  0
LINE
  5
17A
330
171
100
AcDbEntity
  8
MaSichtkante dünnFliese
100
AcDbLine
 10
0.9974999999994691
 20
5.985000049999325
 30
0.0
 11
0.9974999999994691
 21
-0.8591139530400582
 31
0.0
  0
LINE
  5
17B
330
171
100
AcDbEntity
  8
MaSichtkante dünnFliese
100
AcDbLine
 10
0.9974999999994873
 20
2.827327836441567
 30
0.0
 11
2.194499999999254
 21
2.827327836441567
 31
0.0
  0
LINE
  5
17C
330
171
100
AcDbEntity
  8
MaSichtkante dünnFliese
100
AcDbLine
 10
-0.9975000000001619
 20
5.985000049999325
 30
0.0
 11
0.9974999999994691
 21
5.985000049999325
 31
0.0
  0
LINE
  5
17D
330
171
100
AcDbEntity
  8
MaSichtkante dünnFliese
100
AcDbLine
 10
0.9974999999994691
 20
4.932451836441167
 30
0.0
 11
2.194499999999236
 21
4.932451836441167
 31
0.0
  0
LINE
  5
17E
330
171
100
AcDbEntity
  8
MaSichtkante dünnFliese
100
AcDbLine
 10
0.9974999999994691
 20
0.7222038364418637
 30
0.0
 11
2.194499999999236
 21
0.7222038364418637
 31
0.0
  0
ENDBLK
  5
173
330
171
100
AcDbEntity
  8
0
100
AcDbBlockEnd
  0
BLOCK
  5
180
330
17F
100
AcDbEntity
  8
0
100
AcDbBlockBegin
  2
TWW 1_1
 70
     0
 10
0.0
 20
0.0
 30
0.0
  3
TWW 1_1
  1

  0
LINE
  5
182
102
{ACAD_REACTORS
330
186
102
}
330
17F
100
AcDbEntity
  8
0
100
AcDbLine
 10
0.9974999999997892
 20
4.796219377687264
 30
0.0
 11
-0.9975000000000909
 21
4.796219377687264
 31
0.0
  0
LINE
  5
183
102
{ACAD_REACTORS
330
186
102
}
330
17F
100
AcDbEntity
  8
0
100
AcDbLine
 10
0.9974999999997892
 20
-0.8591139530402891
 30
0.0
 11
0.9974999999997892
 21
4.796219377687264
 31
0.0
  0
ARC
  5
184
102
{ACAD_REACTORS
330
186
102
}
330
17F
100
AcDbEntity
  8
0
100
AcDbCircle
 10
0.0
 20
-3.324999950000062
 30
0.0
 40
2.659999999999827
100
AcDbArc
 50
112.0243128370403
 51
67.9756871629658
  0
LINE
  5
185
102
{ACAD_REACTORS
330
186
102
}
330
17F
100
AcDbEntity
  8
0
100
AcDbLine
 10
-0.9975000000000909
 20
4.796219377687264
 30
0.0
 11
-0.9975000000000909
 21
-0.8591139530402891
 31
0.0
  0
HATCH
  5
186
330
17F
100
AcDbEntity
  8
Hatch
100
AcDbHatch
 10
0.0
 20
0.0
 30
0.0
210
0.0
220
0.0
230
1.0
  2
ANSI31
 70
     0
 71
     1
 91
        1
 92
        1
 93
        4
 72
     1
 10
0.9974999999997892
 20
4.796219377687264
 11
-0.9975000000000909
 21
4.796219377687264
 72
     1
 10
-0.9975000000000909
 20
4.796219377687264
 11
-0.9975000000000909
 21
-0.8591139530402891
 72
     2
 10
0.0
 20
-3.324999950000062
 40
2.659999999999827
 50
112.0243128370403
 51
427.9756871629657
 73
     1
 72
     1
 10
0.9974999999997892
 20
-0.8591139530402891
 11
0.9974999999997892
 21
4.796219377687264
 97
        4
330
182
330
185
330
184
330
183
 75
     0
 76
     1
 52
0.0
 41
0.0254
 77
     0
 78
     1
 53
45.0
 43
0.0
 44
0.0
 45
-0.0022450640302673
 46
0.0022450640302673
 79
     0
 98
        1
 10
0.0
 20
0.0
  0
LINE
  5
187
330
17F
100
AcDbEntity
  8
MaSichtkante dünnFliese
370
    18
100
AcDbLine
 10
0.9974999999997892
 20
4.893283779707643
 30
0.0
 11
2.194499999999734
 21
4.893283779707643
 31
0.0
  0
LINE
  5
188
330
17F
100
AcDbEntity
  8
MaSichtkante dünnFliese
370
    18
100
AcDbLine
 10
0.9974999999997892
 20
0.8330332774134241
 30
0.0
 11
2.194499999999734
 21
0.8330332774134241
 31
0.0
  0
LINE
  5
189
330
17F
100
AcDbEntity
  8
MaSichtkante dünnFliese
370
    18
100
AcDbLine
 10
0.9974999999997892
 20
2.863158528560525
 30
0.0
 11
2.194499999999734
 21
2.863158528560525
 31
0.0
  0
LINE
  5
18A
330
17F
100
AcDbEntity
  8
Sketch Geometry(DIN)
370
    18
100
AcDbLine
 10
0.9974999999997892
 20
5.98500004999991
 30
0.0
 11
0.9974999999997892
 21
-0.8591139530402891
 31
0.0
  0
LINE
  5
18B
330
17F
100
AcDbEntity
  8
MaSichtkante dünnFliese
100
AcDbLine
 10
-0.9975000000000909
 20
5.98500004999991
 30
0.0
 11
0.9974999999997892
 21
5.98500004999991
 31
0.0
  0
LINE
  5
18C
330
17F
100
AcDbEntity
  8
MaSichtkante dünnFliese
100
AcDbLine
 10
-0.9975000000000909
 20
-0.8591139530402891
 30
0.0
 11
-0.9975000000000909
 21
5.98500004999991
 31
0.0
  0
LINE
  5
18D
330
17F
100
AcDbEntity
  8
MaSichtkante dünnFliese
370
    18
100
AcDbLine
 10
-0.9975000000000909
 20
4.796219377687264
 30
0.0
 11
0.9974999999997892
 21
4.796219377687264
 31
0.0
  0
ARC
  5
18E
330
17F
100
AcDbEntity
  8
MaSichtkante dünnFliese
370
    18
100
AcDbCircle
 10
0.0
 20
-3.324999950000062
 30
0.0
 40
2.659999999999829
100
AcDbArc
 50
112.0243128370402
 51
67.9756871629658
  0
ENDBLK
  5
181
330
17F
100
AcDbEntity
  8
0
100
AcDbBlockEnd
  0
BLOCK
  5
190
330
18F
100
AcDbEntity
  8
0
100
AcDbBlockBegin
  2
Title Blocks WS-Marketing-FUN
 70
     2
 10
0.0
 20
0.0
 30
0.0
  3
Title Blocks WS-Marketing-FUN
  1

  0
LINE
  5
192
330
18F
100
AcDbEntity
  8
Visible Edges(DIN)
100
AcDbLine
 10
89.59999999999997
 20
100.2741925130958
 30
0.0
 11
289.6
 21
100.2741925130958
 31
0.0
  0
LINE
  5
193
330
18F
100
AcDbEntity
  8
Visible Edges(DIN)
100
AcDbLine
 10
289.6
 20
100.2741925130958
 30
0.0
 11
289.6
 21
146.0241925130958
 31
0.0
  0
LINE
  5
194
330
18F
100
AcDbEntity
  8
Visible Edges(DIN)
100
AcDbLine
 10
289.6
 20
146.0241925130958
 30
0.0
 11
89.59999999999999
 21
146.0241925130958
 31
0.0
  0
LINE
  5
195
330
18F
100
AcDbEntity
  8
Visible Edges(DIN)
100
AcDbLine
 10
89.59999999999999
 20
146.0241925130958
 30
0.0
 11
89.59999999999997
 21
100.2741925130958
 31
0.0
  0
LINE
  5
196
330
18F
100
AcDbEntity
  8
Visible Edges(DIN)
100
AcDbLine
 10
154.6
 20
100.2741925130958
 30
0.0
 11
154.6
 21
146.0241925130958
 31
0.0
  0
LINE
  5
197
330
18F
100
AcDbEntity
  8
Visible Edges(DIN)
100
AcDbLine
 10
204.6
 20
100.2741925130958
 30
0.0
 11
204.6
 21
146.0241925130958
 31
0.0
  0
LINE
  5
198
330
18F
100
AcDbEntity
  8
Sketch Geometry(ISO)
  6
Continuous
 62
     7
370
    25
100
AcDbLine
 10
109.6
 20
131.0241925130958
 30
0.0
 11
109.6
 21
146.0241925130958
 31
0.0
  0
LINE
  5
199
330
18F
100
AcDbEntity
  8
Sketch Geometry(ISO)
  6
Continuous
 62
     7
370
    25
100
AcDbLine
 10
89.59999999999999
 20
138.5241925130958
 30
0.0
 11
154.6
 21
138.5241925130958
 31
0.0
  0
LINE
  5
19A
330
18F
100
AcDbEntity
  8
Sketch Geometry(ISO)
  6
Continuous
 62
     7
370
    25
100
AcDbLine
 10
89.59999999999999
 20
131.0241925130958
 30
0.0
 11
154.6
 21
131.0241925130958
 31
0.0
  0
LINE
  5
19B
330
18F
100
AcDbEntity
  8
Sketch Geometry(ISO)
  6
Continuous
 62
     7
370
    25
100
AcDbLine
 10
289.6
 20
110.2741925130957
 30
0.0
 11
204.6
 21
110.2741925130957
 31
0.0
  0
LINE
  5
19C
330
18F
100
AcDbEntity
  8
Sketch Geometry(ISO)
  6
Continuous
 62
     7
370
    25
100
AcDbLine
 10
216.6
 20
100.2741925130958
 30
0.0
 11
216.6
 21
110.2741925130957
 31
0.0
  0
LINE
  5
19D
330
18F
100
AcDbEntity
  8
Sketch Geometry(ISO)
  6
Continuous
 62
     7
370
    25
100
AcDbLine
 10
282.1
 20
110.2741925130957
 30
0.0
 11
282.1
 21
100.2741925130958
 31
0.0
  0
LINE
  5
19E
330
18F
100
AcDbEntity
  8
Sketch Geometry(ISO)
  6
Continuous
 62
     7
370
    25
100
AcDbLine
 10
274.6
 20
110.2741925130957
 30
0.0
 11
274.6
 21
100.2741925130958
 31
0.0
  0
LINE
  5
19F
330
18F
100
AcDbEntity
  8
Sketch Geometry(ISO)
  6
Continuous
 62
     7
370
    25
100
AcDbLine
 10
220.7048524866916
 20
143.6616925130957
 30
0.0
 11
226.2048524866916
 21
144.4616925130956
 31
0.0
  0
LINE
  5
1A0
330
18F
100
AcDbEntity
  8
Centerline(ISO)
  6
LONG_DASH_DOTTED
 62
     7
 48
10.16328048706053
370
    18
100
AcDbLine
 10
227.2048524866917
 20
142.4616925130957
 30
0.0
 11
219.7048524866915
 21
142.4616925130957
 31
0.0
  0
LINE
  5
1A1
330
18F
100
AcDbEntity
  8
Sketch Geometry(ISO)
  6
Continuous
 62
     7
370
    25
100
AcDbLine
 10
220.7048524866916
 20
143.6616925130957
 30
0.0
 11
220.7048524866916
 21
141.2616925130957
 31
0.0
  0
LINE
  5
1A2
330
18F
100
AcDbEntity
  8
Sketch Geometry(ISO)
  6
Continuous
 62
     7
370
    25
100
AcDbLine
 10
220.7048524866916
 20
141.2616925130957
 30
0.0
 11
226.2048524866916
 21
140.4616925130957
 31
0.0
  0
LINE
  5
1A3
330
18F
100
AcDbEntity
  8
Centerline(ISO)
  6
LONG_DASH_DOTTED
 62
     7
 48
5.081640243530273
370
    18
100
AcDbLine
 10
227.7048524866915
 20
142.4616925130957
 30
0.0
 11
233.7048524866915
 21
142.4616925130957
 31
0.0
  0
LINE
  5
1A4
330
18F
100
AcDbEntity
  8
Sketch Geometry(ISO)
  6
Continuous
 62
     7
370
    25
100
AcDbLine
 10
226.2048524866916
 20
144.4616925130956
 30
0.0
 11
226.2048524866916
 21
140.4616925130957
 31
0.0
  0
CIRCLE
  5
1A5
330
18F
100
AcDbEntity
  8
Sketch Geometry(ISO)
  6
Continuous
 62
     7
370
    25
100
AcDbCircle
 10
230.7048524866915
 20
142.4616925130957
 30
0.0
 40
1.199999999999999
  0
LINE
  5
1A6
330
18F
100
AcDbEntity
  8
Centerline(ISO)
  6
LONG_DASH_DOTTED
 62
     7
 48
5.081640243530273
370
    18
100
AcDbLine
 10
230.7048524866914
 20
145.4616925130956
 30
0.0
 11
230.7048524866914
 21
139.4616925130957
 31
0.0
  0
CIRCLE
  5
1A7
330
18F
100
AcDbEntity
  8
Sketch Geometry(ISO)
  6
Continuous
 62
     7
370
    25
100
AcDbCircle
 10
230.7048524866915
 20
142.4616925130957
 30
0.0
 40
2.0
  0
LINE
  5
1A8
330
18F
100
AcDbEntity
  8
Sketch Geometry(ISO)
  6
Continuous
 62
     7
370
    25
100
AcDbLine
 10
134.6
 20
131.0241925130958
 30
0.0
 11
134.6
 21
146.0241925130958
 31
0.0
  0
LINE
  5
1A9
330
18F
100
AcDbEntity
  8
Sketch Geometry(ISO)
  6
Continuous
 62
     7
370
    35
100
AcDbLine
 10
204.6
 20
138.5241925130958
 30
0.0
 11
289.6
 21
138.5241925130958
 31
0.0
  0
LINE
  5
1AA
330
18F
100
AcDbEntity
  8
Sketch Geometry(ISO)
  6
Continuous
 62
     7
370
    25
100
AcDbLine
 10
204.6
 20
131.0241925130958
 30
0.0
 11
289.6
 21
131.0241925130958
 31
0.0
  0
LINE
  5
1AB
330
18F
100
AcDbEntity
  8
Sketch Geometry(ISO)
  6
Continuous
 62
     7
370
    25
100
AcDbLine
 10
247.1
 20
146.0241925130956
 30
0.0
 11
247.1
 21
131.0241925130958
 31
0.0
  0
LINE
  5
1AC
330
18F
100
AcDbEntity
  8
Sketch Geometry(ISO)
  6
Continuous
 62
     7
370
    25
100
AcDbLine
 10
263.6
 20
110.2741925130957
 30
0.0
 11
263.6
 21
100.2741925130958
 31
0.0
  0
LINE
  5
1AD
330
18F
100
AcDbEntity
  8
Sketch Geometry(DIN)
  6
Continuous
 62
     7
370
    18
100
AcDbLine
 10
104.8419687591776
 20
126.4474596613701
 30
0.0
 11
104.708542955785
 21
126.4474596613701
 31
0.0
  0
LINE
  5
1AE
330
18F
100
AcDbEntity
  8
Sketch Geometry(DIN)
  6
Continuous
 62
     7
370
    18
100
AcDbLine
 10
104.8419687591776
 20
125.9871380380973
 30
0.0
 11
104.8419687591776
 21
126.4474596613701
 31
0.0
  0
LINE
  5
1AF
330
18F
100
AcDbEntity
  8
Sketch Geometry(DIN)
  6
Continuous
 62
     7
370
    18
100
AcDbLine
 10
105.032169470591
 20
126.4492027126165
 30
0.0
 11
105.032169470591
 21
125.9888377298602
 31
0.0
  0
LINE
  5
1B0
330
18F
100
AcDbEntity
  8
Sketch Geometry(DIN)
  6
Continuous
 62
     7
370
    18
100
AcDbLine
 10
106.9469156010504
 20
125.9888377298602
 30
0.0
 11
106.9469156010504
 21
126.6493414177054
 31
0.0
  0
LINE
  5
1B1
330
18F
100
AcDbEntity
  8
Sketch Geometry(DIN)
  6
Continuous
 62
     7
370
    18
100
AcDbLine
 10
105.032169470591
 20
125.9888377298602
 30
0.0
 11
106.9469156010504
 21
125.9888377298602
 31
0.0
  0
LINE
  5
1B2
330
18F
100
AcDbEntity
  8
Sketch Geometry(DIN)
  6
Continuous
 62
     7
370
    18
100
AcDbLine
 10
102.420185497654
 20
128.0753567911394
 30
0.0
 11
102.420185497654
 21
127.6550386275736
 31
0.0
  0
LINE
  5
1B3
330
18F
100
AcDbEntity
  8
Sketch Geometry(DIN)
  6
Continuous
 62
     7
370
    18
100
AcDbLine
 10
103.5743629236721
 20
128.0753567911394
 30
0.0
 11
102.420185497654
 21
128.0753567911394
 31
0.0
  0
LINE
  5
1B4
330
18F
100
AcDbEntity
  8
Sketch Geometry(DIN)
  6
Continuous
 62
     7
370
    18
100
AcDbLine
 10
103.4275910711816
 20
127.1946823167133
 30
0.0
 11
103.4275910711816
 21
127.6550386275736
 31
0.0
  0
LINE
  5
1B5
330
18F
100
AcDbEntity
  8
Sketch Geometry(DIN)
  6
Continuous
 62
     7
370
    18
100
AcDbLine
 10
103.4275910711816
 20
127.6550386275736
 30
0.0
 11
103.5743629236721
 21
127.6550386275736
 31
0.0
  0
LINE
  5
1B6
330
18F
100
AcDbEntity
  8
Sketch Geometry(DIN)
  6
Continuous
 62
     7
370
    18
100
AcDbLine
 10
103.5743629236721
 20
127.6550386275736
 30
0.0
 11
103.5743629236721
 21
128.0753567911394
 31
0.0
  0
LINE
  5
1B7
330
18F
100
AcDbEntity
  8
Sketch Geometry(DIN)
  6
Continuous
 62
     7
370
    18
100
AcDbLine
 10
103.7344894971573
 20
128.0753567911394
 30
0.0
 11
103.7344894971573
 21
127.6550386275736
 31
0.0
  0
LINE
  5
1B8
330
18F
100
AcDbEntity
  8
Sketch Geometry(DIN)
  6
Continuous
 62
     7
370
    18
100
AcDbLine
 10
103.8679153005499
 20
127.6550386275736
 30
0.0
 11
103.4275910711816
 21
127.1946823167133
 31
0.0
  0
LINE
  5
1B9
330
18F
100
AcDbEntity
  8
Sketch Geometry(DIN)
  6
Continuous
 62
     7
370
    18
100
AcDbLine
 10
103.7344894971573
 20
127.6550386275736
 30
0.0
 11
103.8679153005499
 21
127.6550386275736
 31
0.0
  0
LINE
  5
1BA
330
18F
100
AcDbEntity
  8
Sketch Geometry(DIN)
  6
Continuous
 62
     7
370
    18
100
AcDbLine
 10
104.0880947590273
 20
127.1813622833059
 30
0.0
 11
104.541765037493
 21
127.6616986442773
 31
0.0
  0
LINE
  5
1BB
330
18F
100
AcDbEntity
  8
Sketch Geometry(DIN)
  6
Continuous
 62
     7
370
    18
100
AcDbLine
 10
104.541765037493
 20
127.6616986442773
 30
0.0
 11
104.7152029724891
 21
127.6616986442773
 31
0.0
  0
LINE
  5
1BC
330
18F
100
AcDbEntity
  8
Sketch Geometry(DIN)
  6
Continuous
 62
     7
370
    18
100
AcDbLine
 10
104.7152029724891
 20
127.6616986442773
 30
0.0
 11
104.7152029724891
 21
128.0753567911394
 31
0.0
  0
LINE
  5
1BD
330
18F
100
AcDbEntity
  8
Sketch Geometry(DIN)
  6
Continuous
 62
     7
370
    18
100
AcDbLine
 10
104.7152029724891
 20
128.0753567911394
 30
0.0
 11
103.7344894971573
 21
128.0753567911394
 31
0.0
  0
LINE
  5
1BE
330
18F
100
AcDbEntity
  8
Sketch Geometry(DIN)
  6
Continuous
 62
     7
370
    18
100
AcDbLine
 10
106.466544552492
 20
126.8695208761829
 30
0.0
 11
106.466544552492
 21
127.2230827785689
 31
0.0
  0
LINE
  5
1BF
330
18F
100
AcDbEntity
  8
Sketch Geometry(DIN)
  6
Continuous
 62
     7
370
    18
100
AcDbLine
 10
106.5065913716826
 20
126.4492027126165
 30
0.0
 11
106.0462697484097
 21
126.4492027126165
 31
0.0
  0
LINE
  5
1C0
330
18F
100
AcDbEntity
  8
Sketch Geometry(DIN)
  6
Continuous
 62
     7
370
    18
100
AcDbLine
 10
106.0462697484097
 20
126.4492027126165
 30
0.0
 11
106.0462697484097
 21
126.8695208761829
 31
0.0
  0
LINE
  5
1C1
330
18F
100
AcDbEntity
  8
Sketch Geometry(DIN)
  6
Continuous
 62
     7
370
    18
100
AcDbLine
 10
106.0462697484097
 20
126.8695208761829
 30
0.0
 11
106.466544552492
 21
126.8695208761829
 31
0.0
  0
LINE
  5
1C2
330
18F
100
AcDbEntity
  8
Sketch Geometry(DIN)
  6
Continuous
 62
     7
370
    18
100
AcDbLine
 10
106.5065913716826
 20
127.4299161879484
 30
0.0
 11
106.9469156010504
 21
127.4299161879484
 31
0.0
  0
LINE
  5
1C3
330
18F
100
AcDbEntity
  8
Sketch Geometry(DIN)
  6
Continuous
 62
     7
370
    18
100
AcDbLine
 10
106.466544552492
 20
127.2230827785689
 30
0.0
 11
106.0462697484097
 21
127.2230827785689
 31
0.0
  0
LINE
  5
1C4
330
18F
100
AcDbEntity
  8
Sketch Geometry(DIN)
  6
Continuous
 62
     7
370
    18
100
AcDbLine
 10
106.5065913716826
 20
127.6500869745293
 30
0.0
 11
106.5065913716826
 21
127.4299161879484
 31
0.0
  0
LINE
  5
1C5
330
18F
100
AcDbEntity
  8
Sketch Geometry(DIN)
  6
Continuous
 62
     7
370
    18
100
AcDbLine
 10
106.0462697484097
 20
127.6500869745293
 30
0.0
 11
106.5065913716826
 21
127.6500869745293
 31
0.0
  0
LINE
  5
1C6
330
18F
100
AcDbEntity
  8
Sketch Geometry(DIN)
  6
Continuous
 62
     7
370
    18
100
AcDbLine
 10
106.0462697484097
 20
127.2230827785689
 30
0.0
 11
106.0462697484097
 21
127.6500869745293
 31
0.0
  0
LINE
  5
1C7
330
18F
100
AcDbEntity
  8
Sketch Geometry(DIN)
  6
Continuous
 62
     7
370
    18
100
AcDbLine
 10
105.2323081756798
 20
126.4492027126165
 30
0.0
 11
105.032169470591
 21
126.4492027126165
 31
0.0
  0
LINE
  5
1C8
330
18F
100
AcDbEntity
  8
Sketch Geometry(DIN)
  6
Continuous
 62
     7
370
    18
100
AcDbLine
 10
105.2323081756798
 20
127.6500869745293
 30
0.0
 11
105.2323081756798
 21
126.4492027126165
 31
0.0
  0
LINE
  5
1C9
330
18F
100
AcDbEntity
  8
Sketch Geometry(DIN)
  6
Continuous
 62
     7
370
    18
100
AcDbLine
 10
106.9469156010504
 20
127.4299161879484
 30
0.0
 11
106.9469156010504
 21
128.0770651547993
 31
0.0
  0
LINE
  5
1CA
330
18F
100
AcDbEntity
  8
Sketch Geometry(DIN)
  6
Continuous
 62
     7
370
    18
100
AcDbLine
 10
106.9469156010504
 20
128.0770651547993
 30
0.0
 11
105.032169470591
 21
128.0770651547993
 31
0.0
  0
LINE
  5
1CB
330
18F
100
AcDbEntity
  8
Sketch Geometry(DIN)
  6
Continuous
 62
     7
370
    18
100
AcDbLine
 10
105.032169470591
 20
128.0770651547993
 30
0.0
 11
105.032169470591
 21
127.6500869745293
 31
0.0
  0
LINE
  5
1CC
330
18F
100
AcDbEntity
  8
Sketch Geometry(DIN)
  6
Continuous
 62
     7
370
    18
100
AcDbLine
 10
102.0646377309122
 20
124.5375774404595
 30
0.0
 11
102.0646377309122
 21
129.533943808766
 31
0.0
  0
LINE
  5
1CD
330
18F
100
AcDbEntity
  8
Sketch Geometry(DIN)
  6
Continuous
 62
     7
370
    18
100
AcDbLine
 10
102.2772726392172
 20
124.5367536102683
 30
0.0
 11
107.2676023428579
 21
124.5375774404595
 31
0.0
  0
LINE
  5
1CE
330
18F
100
AcDbEntity
  8
Sketch Geometry(DIN)
  6
Continuous
 62
     7
370
    18
100
AcDbLine
 10
107.2676023428579
 20
124.5375774404595
 30
0.0
 11
107.2676023428579
 21
129.533943808766
 31
0.0
  0
LINE
  5
1CF
330
18F
100
AcDbEntity
  8
Sketch Geometry(DIN)
  6
Continuous
 62
     7
370
    18
100
AcDbLine
 10
107.2676023428579
 20
129.533943808766
 30
0.0
 11
102.2772726392172
 21
129.533943808766
 31
0.0
  0
LINE
  5
1D0
330
18F
100
AcDbEntity
  8
Sketch Geometry(DIN)
  6
Continuous
 62
     7
370
    18
100
AcDbLine
 10
104.708542955785
 20
126.4474596613701
 30
0.0
 11
104.0880947590273
 21
127.1813622833059
 31
0.0
  0
LINE
  5
1D1
330
18F
100
AcDbEntity
  8
Sketch Geometry(DIN)
  6
Continuous
 62
     7
370
    18
100
AcDbLine
 10
103.7344894971573
 20
125.9871380380973
 30
0.0
 11
104.8419687591776
 21
125.9871380380973
 31
0.0
  0
LINE
  5
1D2
330
18F
100
AcDbEntity
  8
Sketch Geometry(DIN)
  6
Continuous
 62
     7
370
    18
100
AcDbLine
 10
103.8679153005499
 20
126.4474596613701
 30
0.0
 11
103.7344894971573
 21
126.4474596613701
 31
0.0
  0
LINE
  5
1D3
330
18F
100
AcDbEntity
  8
Sketch Geometry(DIN)
  6
Continuous
 62
     7
370
    18
100
AcDbLine
 10
103.7344894971573
 20
126.4474596613701
 30
0.0
 11
103.7344894971573
 21
125.9871380380973
 31
0.0
  0
LINE
  5
1D4
330
18F
100
AcDbEntity
  8
Sketch Geometry(DIN)
  6
Continuous
 62
     7
370
    18
100
AcDbLine
 10
103.5810229403762
 20
125.9871380380973
 30
0.0
 11
103.5810229403762
 21
126.4474596613701
 31
0.0
  0
LINE
  5
1D5
330
18F
100
AcDbEntity
  8
Sketch Geometry(DIN)
  6
Continuous
 62
     7
370
    18
100
AcDbLine
 10
103.4275910711816
 20
126.9478367757306
 30
0.0
 11
103.8679153005499
 21
126.4474596613701
 31
0.0
  0
LINE
  5
1D6
330
18F
100
AcDbEntity
  8
Sketch Geometry(DIN)
  6
Continuous
 62
     7
370
    18
100
AcDbLine
 10
103.5810229403762
 20
126.4474596613701
 30
0.0
 11
103.4275910711816
 21
126.4474596613701
 31
0.0
  0
LINE
  5
1D7
330
18F
100
AcDbEntity
  8
Sketch Geometry(DIN)
  6
Continuous
 62
     7
370
    18
100
AcDbLine
 10
103.4275910711816
 20
126.4474596613701
 30
0.0
 11
103.4275910711816
 21
126.9478367757306
 31
0.0
  0
LINE
  5
1D8
330
18F
100
AcDbEntity
  8
Sketch Geometry(DIN)
  6
Continuous
 62
     7
370
    18
100
AcDbLine
 10
102.420185497654
 20
125.9871380380973
 30
0.0
 11
103.5810229403762
 21
125.9871380380973
 31
0.0
  0
LINE
  5
1D9
330
18F
100
AcDbEntity
  8
Sketch Geometry(DIN)
  6
Continuous
 62
     7
370
    18
100
AcDbLine
 10
102.420185497654
 20
126.4474596613701
 30
0.0
 11
102.420185497654
 21
125.9871380380973
 31
0.0
  0
LINE
  5
1DA
330
18F
100
AcDbEntity
  8
Sketch Geometry(DIN)
  6
Continuous
 62
     7
370
    18
100
AcDbLine
 10
102.6403649561314
 20
126.4474596613701
 30
0.0
 11
102.420185497654
 21
126.4474596613701
 31
0.0
  0
LINE
  5
1DB
330
18F
100
AcDbEntity
  8
Sketch Geometry(DIN)
  6
Continuous
 62
     7
370
    18
100
AcDbLine
 10
102.6403649561314
 20
127.6550386275736
 30
0.0
 11
102.6403649561314
 21
126.4474596613701
 31
0.0
  0
LINE
  5
1DC
330
18F
100
AcDbEntity
  8
Sketch Geometry(DIN)
  6
Continuous
 62
     7
370
    18
100
AcDbLine
 10
102.2772726392172
 20
129.533943808766
 30
0.0
 11
102.2772726392172
 21
124.5367536102683
 31
0.0
  0
LINE
  5
1DD
330
18F
100
AcDbEntity
  8
Sketch Geometry(DIN)
  6
Continuous
 62
     7
370
    18
100
AcDbLine
 10
102.420185497654
 20
127.6550386275736
 30
0.0
 11
102.6403649561314
 21
127.6550386275736
 31
0.0
  0
LINE
  5
1DE
330
18F
100
AcDbEntity
  8
Sketch Geometry(DIN)
  6
Continuous
 62
     7
370
    18
100
AcDbLine
 10
101.0907923978064
 20
127.656746991233
 30
0.0
 11
101.2509102993947
 21
127.656746991233
 31
0.0
  0
LINE
  5
1DF
330
18F
100
AcDbEntity
  8
Sketch Geometry(DIN)
  6
Continuous
 62
     7
370
    18
100
AcDbLine
 10
101.0907923978064
 20
128.0770651547993
 30
0.0
 11
101.0907923978064
 21
127.656746991233
 31
0.0
  0
LINE
  5
1E0
330
18F
100
AcDbEntity
  8
Sketch Geometry(DIN)
  6
Continuous
 62
     7
370
    18
100
AcDbLine
 10
101.6845398244714
 20
127.656746991233
 30
0.0
 11
101.9113792996529
 21
127.656746991233
 31
0.0
  0
LINE
  5
1E1
330
18F
100
AcDbEntity
  8
Sketch Geometry(DIN)
  6
Continuous
 62
     7
370
    18
100
AcDbLine
 10
101.9113792996529
 20
128.0770651547993
 30
0.0
 11
101.0907923978064
 21
128.0770651547993
 31
0.0
  0
LINE
  5
1E2
330
18F
100
AcDbEntity
  8
Sketch Geometry(DIN)
  6
Continuous
 62
     7
370
    18
100
AcDbLine
 10
101.9113792996529
 20
127.656746991233
 30
0.0
 11
101.9113792996529
 21
128.0770651547993
 31
0.0
  0
LINE
  5
1E3
330
18F
100
AcDbEntity
  8
Sketch Geometry(DIN)
  6
Continuous
 62
     7
370
    18
100
AcDbLine
 10
97.58174406558607
 20
127.6521422140591
 30
0.0
 11
97.58174406558607
 21
128.0791117224321
 31
0.0
  0
LINE
  5
1E4
330
18F
100
AcDbEntity
  8
Sketch Geometry(DIN)
  6
Continuous
 62
     7
370
    18
100
AcDbLine
 10
98.25965225020826
 20
127.6715672627784
 30
0.0
 11
98.08617962762555
 21
126.9844061643244
 31
0.0
  0
LINE
  5
1E5
330
18F
100
AcDbEntity
  8
Sketch Geometry(DIN)
  6
Continuous
 62
     7
370
    18
100
AcDbLine
 10
98.08617962762555
 20
126.9844061643244
 30
0.0
 11
98.43978488949517
 21
126.9844061643244
 31
0.0
  0
LINE
  5
1E6
330
18F
100
AcDbEntity
  8
Sketch Geometry(DIN)
  6
Continuous
 62
     7
370
    18
100
AcDbLine
 10
98.43978488949517
 20
126.9844061643244
 30
0.0
 11
98.25965225020826
 21
127.6715672627784
 31
0.0
  0
LINE
  5
1E7
330
18F
100
AcDbEntity
  8
Sketch Geometry(DIN)
  6
Continuous
 62
     7
370
    18
100
AcDbLine
 10
97.58174406558607
 20
128.0791117224321
 30
0.0
 11
99.11619283597985
 21
128.0791117224321
 31
0.0
  0
LINE
  5
1E8
330
18F
100
AcDbEntity
  8
Sketch Geometry(DIN)
  6
Continuous
 62
     7
370
    18
100
AcDbLine
 10
99.11619283597985
 20
127.6521422140591
 30
0.0
 11
98.94272021339665
 21
127.6521422140591
 31
0.0
  0
LINE
  5
1E9
330
18F
100
AcDbEntity
  8
Sketch Geometry(DIN)
  6
Continuous
 62
     7
370
    18
100
AcDbLine
 10
99.11619283597985
 20
128.0791117224321
 30
0.0
 11
99.11619283597985
 21
127.6587935588663
 31
0.0
  0
LINE
  5
1EA
330
18F
100
AcDbEntity
  8
Sketch Geometry(DIN)
  6
Continuous
 62
     7
370
    18
100
AcDbLine
 10
98.94272021339665
 20
127.6521422140591
 30
0.0
 11
99.30297682007379
 21
126.4512492802498
 31
0.0
  0
LINE
  5
1EB
330
18F
100
AcDbEntity
  8
Sketch Geometry(DIN)
  6
Continuous
 62
     7
370
    18
100
AcDbLine
 10
99.30297682007379
 20
126.4512492802498
 30
0.0
 11
99.49645550845856
 21
126.4512492802498
 31
0.0
  0
LINE
  5
1EC
330
18F
100
AcDbEntity
  8
Sketch Geometry(DIN)
  6
Continuous
 62
     7
370
    18
100
AcDbLine
 10
99.49645550845856
 20
126.4512492802498
 30
0.0
 11
99.49645550845856
 21
125.990927656977
 31
0.0
  0
LINE
  5
1ED
330
18F
100
AcDbEntity
  8
Sketch Geometry(DIN)
  6
Continuous
 62
     7
370
    18
100
AcDbLine
 10
99.49645550845856
 20
125.990927656977
 30
0.0
 11
98.36231883582909
 21
125.990927656977
 31
0.0
  0
LINE
  5
1EE
330
18F
100
AcDbEntity
  8
Sketch Geometry(DIN)
  6
Continuous
 62
     7
370
    18
100
AcDbLine
 10
98.36231883582909
 20
125.990927656977
 30
0.0
 11
98.36231883582909
 21
126.4512492802498
 31
0.0
  0
LINE
  5
1EF
330
18F
100
AcDbEntity
  8
Sketch Geometry(DIN)
  6
Continuous
 62
     7
370
    18
100
AcDbLine
 10
98.36231883582909
 20
126.4512492802498
 30
0.0
 11
98.56910888572512
 21
126.4512492802498
 31
0.0
  0
LINE
  5
1F0
330
18F
100
AcDbEntity
  8
Sketch Geometry(DIN)
  6
Continuous
 62
     7
370
    18
100
AcDbLine
 10
98.52241072172736
 20
126.6447279686345
 30
0.0
 11
98.00202754156529
 21
126.6447279686345
 31
0.0
  0
LINE
  5
1F1
330
18F
100
AcDbEntity
  8
Sketch Geometry(DIN)
  6
Continuous
 62
     7
370
    18
100
AcDbLine
 10
98.56910888572512
 20
126.4512492802498
 30
0.0
 11
98.52241072172736
 21
126.6447279686345
 31
0.0
  0
LINE
  5
1F2
330
18F
100
AcDbEntity
  8
Sketch Geometry(DIN)
  6
Continuous
 62
     7
370
    18
100
AcDbLine
 10
98.00202754156529
 20
126.6447279686345
 30
0.0
 11
97.94200067226325
 21
126.4512492802498
 31
0.0
  0
LINE
  5
1F3
330
18F
100
AcDbEntity
  8
Sketch Geometry(DIN)
  6
Continuous
 62
     7
370
    18
100
AcDbLine
 10
97.94200067226325
 20
126.4512492802498
 30
0.0
 11
98.12879332825378
 21
126.4512492802498
 31
0.0
  0
LINE
  5
1F4
330
18F
100
AcDbEntity
  8
Sketch Geometry(DIN)
  6
Continuous
 62
     7
370
    18
100
AcDbLine
 10
98.12879332825378
 20
126.4512492802498
 30
0.0
 11
98.12879332825378
 21
125.990927656977
 31
0.0
  0
LINE
  5
1F5
330
18F
100
AcDbEntity
  8
Sketch Geometry(DIN)
  6
Continuous
 62
     7
370
    18
100
AcDbLine
 10
97.3682246238124
 20
126.4512492802498
 30
0.0
 11
97.74852198387852
 21
127.6521422140591
 31
0.0
  0
LINE
  5
1F6
330
18F
100
AcDbEntity
  8
Sketch Geometry(DIN)
  6
Continuous
 62
     7
370
    18
100
AcDbLine
 10
97.22814747561304
 20
126.4512492802498
 30
0.0
 11
97.3682246238124
 21
126.4512492802498
 31
0.0
  0
LINE
  5
1F7
330
18F
100
AcDbEntity
  8
Sketch Geometry(DIN)
  6
Continuous
 62
     7
370
    18
100
AcDbLine
 10
98.12879332825378
 20
125.990927656977
 30
0.0
 11
97.22814747561304
 21
125.990927656977
 31
0.0
  0
LINE
  5
1F8
330
18F
100
AcDbEntity
  8
Sketch Geometry(DIN)
  6
Continuous
 62
     7
370
    18
100
AcDbLine
 10
97.22814747561304
 20
125.990927656977
 30
0.0
 11
97.22814747561304
 21
126.4512492802498
 31
0.0
  0
LINE
  5
1F9
330
18F
100
AcDbEntity
  8
Sketch Geometry(DIN)
  6
Continuous
 62
     7
370
    18
100
AcDbLine
 10
97.74852198387852
 20
127.6521422140591
 30
0.0
 11
97.58174406558607
 21
127.6521422140591
 31
0.0
  0
LINE
  5
1FA
330
18F
100
AcDbEntity
  8
Sketch Geometry(DIN)
  6
Continuous
 62
     7
370
    18
100
AcDbLine
 10
101.0707863320044
 20
125.9888377298602
 30
0.0
 11
101.6845398244714
 21
125.9888377298602
 31
0.0
  0
LINE
  5
1FB
330
18F
100
AcDbEntity
  8
Sketch Geometry(DIN)
  6
Continuous
 62
     7
370
    18
100
AcDbLine
 10
100.5036963159481
 20
125.9888377298602
 30
0.0
 11
100.5036963159481
 21
126.4492027126165
 31
0.0
  0
LINE
  5
1FC
330
18F
100
AcDbEntity
  8
Sketch Geometry(DIN)
  6
Continuous
 62
     7
370
    18
100
AcDbLine
 10
100.5036963159481
 20
126.4492027126165
 30
0.0
 11
100.330223693365
 21
126.4492027126165
 31
0.0
  0
LINE
  5
1FD
330
18F
100
AcDbEntity
  8
Sketch Geometry(DIN)
  6
Continuous
 62
     7
370
    18
100
AcDbLine
 10
99.6497226116147
 20
125.9888377298602
 30
0.0
 11
100.5036963159481
 21
125.9888377298602
 31
0.0
  0
LINE
  5
1FE
330
18F
100
AcDbEntity
  8
Sketch Geometry(DIN)
  6
Continuous
 62
     7
370
    18
100
AcDbLine
 10
99.85654734909729
 20
126.4492027126165
 30
0.0
 11
99.6497226116147
 21
126.4492027126165
 31
0.0
  0
LINE
  5
1FF
330
18F
100
AcDbEntity
  8
Sketch Geometry(DIN)
  6
Continuous
 62
     7
370
    18
100
AcDbLine
 10
99.6497226116147
 20
126.4492027126165
 30
0.0
 11
99.6497226116147
 21
125.9888377298602
 31
0.0
  0
LINE
  5
200
330
18F
100
AcDbEntity
  8
Sketch Geometry(DIN)
  6
Continuous
 62
     7
370
    18
100
AcDbLine
 10
101.6845398244714
 20
125.9888377298602
 30
0.0
 11
101.6845398244714
 21
127.656746991233
 31
0.0
  0
LINE
  5
201
330
18F
100
AcDbEntity
  8
Sketch Geometry(DIN)
  6
Continuous
 62
     7
370
    18
100
AcDbLine
 10
100.330223693365
 20
126.4492027126165
 30
0.0
 11
100.330223693365
 21
127.2364374995637
 31
0.0
  0
LINE
  5
202
330
18F
100
AcDbEntity
  8
Sketch Geometry(DIN)
  6
Continuous
 62
     7
370
    18
100
AcDbLine
 10
100.330223693365
 20
127.2364374995637
 30
0.0
 11
101.0707863320044
 21
125.9888377298602
 31
0.0
  0
LINE
  5
203
330
18F
100
AcDbEntity
  8
Sketch Geometry(DIN)
  6
Continuous
 62
     7
370
    18
100
AcDbLine
 10
101.2509102993947
 20
127.656746991233
 30
0.0
 11
101.2509102993947
 21
126.9762459094827
 31
0.0
  0
LINE
  5
204
330
18F
100
AcDbEntity
  8
Sketch Geometry(DIN)
  6
Continuous
 62
     7
370
    18
100
AcDbLine
 10
99.85654734909729
 20
127.656746991233
 30
0.0
 11
99.85654734909729
 21
126.4492027126165
 31
0.0
  0
LINE
  5
205
330
18F
100
AcDbEntity
  8
Sketch Geometry(DIN)
  6
Continuous
 62
     7
370
    18
100
AcDbLine
 10
101.2509102993947
 20
126.9762459094827
 30
0.0
 11
100.5904152834459
 21
128.0770651547993
 31
0.0
  0
LINE
  5
206
330
18F
100
AcDbEntity
  8
Sketch Geometry(DIN)
  6
Continuous
 62
     7
370
    18
100
AcDbLine
 10
99.6497226116147
 20
127.656746991233
 30
0.0
 11
99.85654734909729
 21
127.656746991233
 31
0.0
  0
LINE
  5
207
330
18F
100
AcDbEntity
  8
Sketch Geometry(DIN)
  6
Continuous
 62
     7
370
    18
100
AcDbLine
 10
100.5904152834459
 20
128.0770651547993
 30
0.0
 11
99.6497226116147
 21
128.0770651547993
 31
0.0
  0
LINE
  5
208
330
18F
100
AcDbEntity
  8
Sketch Geometry(DIN)
  6
Continuous
 62
     7
370
    18
100
AcDbLine
 10
99.6497226116147
 20
128.0770651547993
 30
0.0
 11
99.6497226116147
 21
127.656746991233
 31
0.0
  0
LINE
  5
209
330
18F
100
AcDbEntity
  8
Sketch Geometry(DIN)
  6
Continuous
 62
     7
370
    18
100
AcDbLine
 10
99.11619283597985
 20
127.6587935588663
 30
0.0
 11
99.11619283597985
 21
127.6521422140591
 31
0.0
  0
LINE
  5
20A
330
18F
100
AcDbEntity
  8
Sketch Geometry(DIN)
  6
Continuous
 62
     7
370
    18
100
AcDbLine
 10
97.07429935537462
 20
124.5375774404595
 30
0.0
 11
102.0646377309122
 21
124.5375774404595
 31
0.0
  0
LINE
  5
20B
330
18F
100
AcDbEntity
  8
Sketch Geometry(DIN)
  6
Continuous
 62
     7
370
    18
100
AcDbLine
 10
97.07429935537462
 20
129.533943808766
 30
0.0
 11
97.07429935537462
 21
124.5375774404595
 31
0.0
  0
LINE
  5
20C
330
18F
100
AcDbEntity
  8
Sketch Geometry(DIN)
  6
Continuous
 62
     7
370
    18
100
AcDbLine
 10
102.0646377309122
 20
129.533943808766
 30
0.0
 11
97.07429935537462
 21
129.533943808766
 31
0.0
  0
LINE
  5
20D
330
18F
100
AcDbEntity
  8
Sketch Geometry(DIN)
  6
Continuous
 62
     7
370
    18
100
AcDbLine
 10
96.56334252697977
 20
127.3913696068958
 30
0.0
 11
96.55003116546893
 21
127.3313167219032
 31
0.0
  0
LINE
  5
20E
330
18F
100
AcDbEntity
  8
Sketch Geometry(DIN)
  6
Continuous
 62
     7
370
    18
100
AcDbLine
 10
96.55003116546893
 20
127.3313167219032
 30
0.0
 11
96.52999041207987
 21
127.2779498693052
 31
0.0
  0
LINE
  5
20F
330
18F
100
AcDbEntity
  8
Sketch Geometry(DIN)
  6
Continuous
 62
     7
370
    18
100
AcDbLine
 10
96.52999041207987
 20
127.2779498693052
 30
0.0
 11
96.50332432957418
 21
127.2178969843126
 31
0.0
  0
LINE
  5
210
330
18F
100
AcDbEntity
  8
Sketch Geometry(DIN)
  6
Continuous
 62
     7
370
    18
100
AcDbLine
 10
96.4699635427778
 20
127.1711901484184
 30
0.0
 11
96.42991672358721
 21
127.1245180001105
 31
0.0
  0
LINE
  5
211
330
18F
100
AcDbEntity
  8
Sketch Geometry(DIN)
  6
Continuous
 62
     7
370
    18
100
AcDbLine
 10
96.42991672358721
 20
127.1245180001105
 30
0.0
 11
96.38990459198367
 21
127.0778111642164
 31
0.0
  0
LINE
  5
212
330
18F
100
AcDbEntity
  8
Sketch Geometry(DIN)
  6
Continuous
 62
     7
370
    18
100
AcDbLine
 10
96.38990459198367
 20
127.0778111642164
 30
0.0
 11
96.34319775608931
 21
127.0444590493165
 31
0.0
  0
LINE
  5
213
330
18F
100
AcDbEntity
  8
Sketch Geometry(DIN)
  6
Continuous
 62
     7
370
    18
100
AcDbLine
 10
96.34319775608931
 20
127.0444590493165
 30
0.0
 11
96.28983957538782
 21
127.0177582792238
 31
0.0
  0
LINE
  5
214
330
18F
100
AcDbEntity
  8
Sketch Geometry(DIN)
  6
Continuous
 62
     7
370
    18
100
AcDbLine
 10
96.28983957538782
 20
127.0177582792238
 30
0.0
 11
96.2631388052952
 21
126.9844061643244
 31
0.0
  0
LINE
  5
215
330
18F
100
AcDbEntity
  8
Sketch Geometry(DIN)
  6
Continuous
 62
     7
370
    18
100
AcDbLine
 10
96.50332432957418
 20
127.2178969843126
 30
0.0
 11
96.4699635427778
 21
127.1711901484184
 31
0.0
  0
LINE
  5
216
330
18F
100
AcDbEntity
  8
Sketch Geometry(DIN)
  6
Continuous
 62
     7
370
    18
100
AcDbLine
 10
96.50332432957418
 20
126.4440169183604
 30
0.0
 11
96.7034630346675
 21
126.4440169183604
 31
0.0
  0
LINE
  5
217
330
18F
100
AcDbEntity
  8
Sketch Geometry(DIN)
  6
Continuous
 62
     7
370
    18
100
AcDbLine
 10
96.2631388052952
 20
126.9844061643244
 30
0.0
 11
96.50332432957418
 21
126.4440169183604
 31
0.0
  0
LINE
  5
218
330
18F
100
AcDbEntity
  8
Sketch Geometry(DIN)
  6
Continuous
 62
     7
370
    18
100
AcDbLine
 10
96.7034630346675
 20
126.4440169183604
 30
0.0
 11
96.70346303466777
 21
125.9836519356054
 31
0.0
  0
LINE
  5
219
330
18F
100
AcDbEntity
  8
Sketch Geometry(DIN)
  6
Continuous
 62
     7
370
    18
100
AcDbLine
 10
96.70346303466777
 20
125.9836519356054
 30
0.0
 11
95.96959510031894
 21
125.9836519356054
 31
0.0
  0
LINE
  5
21A
330
18F
100
AcDbEntity
  8
Sketch Geometry(DIN)
  6
Continuous
 62
     7
370
    18
100
AcDbLine
 10
96.12302696951056
 20
128.0652106719415
 30
0.0
 11
96.1830798545032
 21
128.0385185737453
 31
0.0
  0
LINE
  5
21B
330
18F
100
AcDbEntity
  8
Sketch Geometry(DIN)
  6
Continuous
 62
     7
370
    18
100
AcDbLine
 10
96.0029472152188
 20
128.0718706886462
 30
0.0
 11
96.0630001002108
 21
128.0718706886462
 31
0.0
  0
LINE
  5
21C
330
18F
100
AcDbEntity
  8
Sketch Geometry(DIN)
  6
Continuous
 62
     7
370
    18
100
AcDbLine
 10
96.0630001002108
 20
128.0718706886462
 30
0.0
 11
96.12302696951056
 21
128.0652106719415
 31
0.0
  0
LINE
  5
21D
330
18F
100
AcDbEntity
  8
Sketch Geometry(DIN)
  6
Continuous
 62
     7
370
    18
100
AcDbLine
 10
95.74951970459784
 20
127.5380373966253
 30
0.0
 11
95.736164983603
 21
127.5580781500138
 31
0.0
  0
LINE
  5
21E
330
18F
100
AcDbEntity
  8
Sketch Geometry(DIN)
  6
Continuous
 62
     7
370
    18
100
AcDbLine
 10
91.85580337634979
 20
129.533943808766
 30
0.0
 11
91.85580337634979
 21
124.5375774404595
 31
0.0
  0
LINE
  5
21F
330
18F
100
AcDbEntity
  8
Sketch Geometry(DIN)
  6
Continuous
 62
     7
370
    18
100
AcDbLine
 10
91.85580337634979
 20
124.5375774404595
 30
0.0
 11
96.85282778428158
 21
124.5375774404595
 31
0.0
  0
LINE
  5
220
330
18F
100
AcDbEntity
  8
Sketch Geometry(DIN)
  6
Continuous
 62
     7
370
    18
100
AcDbLine
 10
96.85282778428158
 20
124.5375774404595
 30
0.0
 11
96.85282778428158
 21
129.533943808766
 31
0.0
  0
LINE
  5
221
330
18F
100
AcDbEntity
  8
Sketch Geometry(DIN)
  6
Continuous
 62
     7
370
    18
100
AcDbLine
 10
96.85282778428158
 20
129.533943808766
 30
0.0
 11
91.85580337634979
 21
129.533943808766
 31
0.0
  0
LINE
  5
222
330
18F
100
AcDbEntity
  8
Sketch Geometry(DIN)
  6
Continuous
 62
     7
370
    18
100
AcDbLine
 10
94.51517059313244
 20
127.6515611969787
 30
0.0
 11
94.295025822242
 21
127.6515611969787
 31
0.0
  0
LINE
  5
223
330
18F
100
AcDbEntity
  8
Sketch Geometry(DIN)
  6
Continuous
 62
     7
370
    18
100
AcDbLine
 10
94.295025822242
 20
127.6515611969787
 30
0.0
 11
94.295025822242
 21
128.0718706886462
 31
0.0
  0
LINE
  5
224
330
18F
100
AcDbEntity
  8
Sketch Geometry(DIN)
  6
Continuous
 62
     7
370
    18
100
AcDbLine
 10
94.295025822242
 20
128.0718706886462
 30
0.0
 11
96.0029472152188
 21
128.0718706886462
 31
0.0
  0
LINE
  5
225
330
18F
100
AcDbEntity
  8
Sketch Geometry(DIN)
  6
Continuous
 62
     7
370
    18
100
AcDbLine
 10
95.75617104940503
 20
127.5180313308232
 30
0.0
 11
95.74951970459784
 21
127.5380373966253
 31
0.0
  0
LINE
  5
226
330
18F
100
AcDbEntity
  8
Sketch Geometry(DIN)
  6
Continuous
 62
     7
370
    18
100
AcDbLine
 10
95.63609996700732
 20
127.65814316661
 30
0.0
 11
95.61609390120528
 21
127.6648031833137
 31
0.0
  0
LINE
  5
227
330
18F
100
AcDbEntity
  8
Sketch Geometry(DIN)
  6
Continuous
 62
     7
370
    18
100
AcDbLine
 10
95.736164983603
 20
127.5580781500138
 30
0.0
 11
95.72951363879587
 21
127.5780842158158
 31
0.0
  0
LINE
  5
228
330
18F
100
AcDbEntity
  8
Sketch Geometry(DIN)
  6
Continuous
 62
     7
370
    18
100
AcDbLine
 10
95.72951363879587
 20
127.5780842158158
 30
0.0
 11
95.70949890109728
 21
127.5980902816174
 31
0.0
  0
LINE
  5
229
330
18F
100
AcDbEntity
  8
Sketch Geometry(DIN)
  6
Continuous
 62
     7
370
    18
100
AcDbLine
 10
95.67614678619788
 20
127.638137100808
 30
0.0
 11
95.66280073710002
 21
127.6447971175117
 31
0.0
  0
LINE
  5
22A
330
18F
100
AcDbEntity
  8
Sketch Geometry(DIN)
  6
Continuous
 62
     7
370
    18
100
AcDbLine
 10
95.70949890109728
 20
127.5980902816174
 30
0.0
 11
95.69615285199942
 21
127.6180963474194
 31
0.0
  0
LINE
  5
22B
330
18F
100
AcDbEntity
  8
Sketch Geometry(DIN)
  6
Continuous
 62
     7
370
    18
100
AcDbLine
 10
95.69615285199942
 20
127.6180963474194
 30
0.0
 11
95.67614678619788
 21
127.638137100808
 31
0.0
  0
LINE
  5
22C
330
18F
100
AcDbEntity
  8
Sketch Geometry(DIN)
  6
Continuous
 62
     7
370
    18
100
AcDbLine
 10
105.032169470591
 20
127.6500869745293
 30
0.0
 11
105.2323081756798
 21
127.6500869745293
 31
0.0
  0
LINE
  5
22D
330
18F
100
AcDbEntity
  8
Sketch Geometry(DIN)
  6
Continuous
 62
     7
370
    18
100
AcDbLine
 10
96.1830798545032
 20
128.0385185737453
 30
0.0
 11
96.22978669039742
 21
128.0185125079437
 31
0.0
  0
LINE
  5
22E
330
18F
100
AcDbEntity
  8
Sketch Geometry(DIN)
  6
Continuous
 62
     7
370
    18
100
AcDbLine
 10
96.22978669039742
 20
128.0185125079437
 30
0.0
 11
96.2898395753897
 21
127.9918117378511
 31
0.0
  0
LINE
  5
22F
330
18F
100
AcDbEntity
  8
Sketch Geometry(DIN)
  6
Continuous
 62
     7
370
    18
100
AcDbLine
 10
96.2898395753897
 20
127.9918117378511
 30
0.0
 11
96.32985170699658
 21
127.9584509510524
 31
0.0
  0
LINE
  5
230
330
18F
100
AcDbEntity
  8
Sketch Geometry(DIN)
  6
Continuous
 62
     7
370
    18
100
AcDbLine
 10
96.32985170699658
 20
127.9584509510524
 30
0.0
 11
96.38320988769462
 21
127.9317588528585
 31
0.0
  0
LINE
  5
231
330
18F
100
AcDbEntity
  8
Sketch Geometry(DIN)
  6
Continuous
 62
     7
370
    18
100
AcDbLine
 10
96.38320988769462
 20
127.9317588528585
 30
0.0
 11
96.42326537878005
 21
127.8917467212558
 31
0.0
  0
LINE
  5
232
330
18F
100
AcDbEntity
  8
Sketch Geometry(DIN)
  6
Continuous
 62
     7
370
    18
100
AcDbLine
 10
96.42326537878005
 20
127.8917467212558
 30
0.0
 11
96.46327751038359
 21
127.8383798686578
 31
0.0
  0
LINE
  5
233
330
18F
100
AcDbEntity
  8
Sketch Geometry(DIN)
  6
Continuous
 62
     7
370
    18
100
AcDbLine
 10
96.5700372312704
 20
127.4514224918879
 30
0.0
 11
96.56334252697977
 21
127.3913696068958
 31
0.0
  0
LINE
  5
234
330
18F
100
AcDbEntity
  8
Sketch Geometry(DIN)
  6
Continuous
 62
     7
370
    18
100
AcDbLine
 10
96.57003723127045
 20
127.5114406892935
 30
0.0
 11
96.5700372312704
 21
127.4514224918879
 31
0.0
  0
LINE
  5
235
330
18F
100
AcDbEntity
  8
Sketch Geometry(DIN)
  6
Continuous
 62
     7
370
    18
100
AcDbLine
 10
96.57003723127049
 20
127.5714935742857
 30
0.0
 11
96.57003723127045
 21
127.5114406892935
 31
0.0
  0
LINE
  5
236
330
18F
100
AcDbEntity
  8
Sketch Geometry(DIN)
  6
Continuous
 62
     7
370
    18
100
AcDbLine
 10
96.56334252697977
 20
127.6315551311748
 30
0.0
 11
96.57003723127049
 21
127.5714935742857
 31
0.0
  0
LINE
  5
237
330
18F
100
AcDbEntity
  8
Sketch Geometry(DIN)
  6
Continuous
 62
     7
370
    18
100
AcDbLine
 10
96.54333646117777
 20
127.6916080161674
 30
0.0
 11
96.56334252697977
 21
127.6315551311748
 31
0.0
  0
LINE
  5
238
330
18F
100
AcDbEntity
  8
Sketch Geometry(DIN)
  6
Continuous
 62
     7
370
    18
100
AcDbLine
 10
96.52333039537621
 20
127.7382801644747
 30
0.0
 11
96.54333646117777
 21
127.6916080161674
 31
0.0
  0
LINE
  5
239
330
18F
100
AcDbEntity
  8
Sketch Geometry(DIN)
  6
Continuous
 62
     7
370
    18
100
AcDbLine
 10
96.48996960857985
 20
127.7916730327631
 30
0.0
 11
96.52333039537621
 21
127.7382801644747
 31
0.0
  0
LINE
  5
23A
330
18F
100
AcDbEntity
  8
Sketch Geometry(DIN)
  6
Continuous
 62
     7
370
    18
100
AcDbLine
 10
96.46327751038359
 20
127.8383798686578
 30
0.0
 11
96.48996960857985
 21
127.7916730327631
 31
0.0
  0
LINE
  5
23B
330
18F
100
AcDbEntity
  8
Sketch Geometry(DIN)
  6
Continuous
 62
     7
370
    18
100
AcDbLine
 10
93.22251164791238
 20
126.4511799050758
 30
0.0
 11
93.22251164791238
 21
126.864838051938
 31
0.0
  0
LINE
  5
23C
330
18F
100
AcDbEntity
  8
Sketch Geometry(DIN)
  6
Continuous
 62
     7
370
    18
100
AcDbLine
 10
93.40264428719921
 20
126.4511799050758
 30
0.0
 11
93.22251164791238
 21
126.4511799050758
 31
0.0
  0
LINE
  5
23D
330
18F
100
AcDbEntity
  8
Sketch Geometry(DIN)
  6
Continuous
 62
     7
370
    18
100
AcDbLine
 10
92.3685726311659
 20
127.6520728388851
 30
0.0
 11
92.3685726311659
 21
126.4511799050758
 31
0.0
  0
LINE
  5
23E
330
18F
100
AcDbEntity
  8
Sketch Geometry(DIN)
  6
Continuous
 62
     7
370
    18
100
AcDbLine
 10
92.16839923849006
 20
127.6520728388851
 30
0.0
 11
92.3685726311659
 21
127.6520728388851
 31
0.0
  0
LINE
  5
23F
330
18F
100
AcDbEntity
  8
Sketch Geometry(DIN)
  6
Continuous
 62
     7
370
    18
100
AcDbLine
 10
93.22251164791238
 20
126.864838051938
 30
0.0
 11
93.63616979477447
 21
126.864838051938
 31
0.0
  0
LINE
  5
240
330
18F
100
AcDbEntity
  8
Sketch Geometry(DIN)
  6
Continuous
 62
     7
370
    18
100
AcDbLine
 10
93.63616979477447
 20
126.864838051938
 30
0.0
 11
93.63616979477447
 21
127.2250946586152
 31
0.0
  0
LINE
  5
241
330
18F
100
AcDbEntity
  8
Sketch Geometry(DIN)
  6
Continuous
 62
     7
370
    18
100
AcDbLine
 10
93.22251164791238
 20
127.2250946586152
 30
0.0
 11
93.22251164791238
 21
127.6520728388851
 31
0.0
  0
LINE
  5
242
330
18F
100
AcDbEntity
  8
Sketch Geometry(DIN)
  6
Continuous
 62
     7
370
    18
100
AcDbLine
 10
92.16839923849006
 20
128.0857370515493
 30
0.0
 11
92.16839923849006
 21
127.6520728388851
 31
0.0
  0
LINE
  5
243
330
18F
100
AcDbEntity
  8
Sketch Geometry(DIN)
  6
Continuous
 62
     7
370
    18
100
AcDbLine
 10
94.12985220484378
 20
128.0857370515493
 30
0.0
 11
92.16839923849006
 21
128.0857370515493
 31
0.0
  0
LINE
  5
244
330
18F
100
AcDbEntity
  8
Sketch Geometry(DIN)
  6
Continuous
 62
     7
370
    18
100
AcDbLine
 10
93.22251164791238
 20
127.6520728388851
 30
0.0
 11
93.67618192637806
 21
127.6520728388851
 31
0.0
  0
LINE
  5
245
330
18F
100
AcDbEntity
  8
Sketch Geometry(DIN)
  6
Continuous
 62
     7
370
    18
100
AcDbLine
 10
93.67618192637806
 20
127.6520728388851
 30
0.0
 11
93.67618192637806
 21
127.4319280679947
 31
0.0
  0
LINE
  5
246
330
18F
100
AcDbEntity
  8
Sketch Geometry(DIN)
  6
Continuous
 62
     7
370
    18
100
AcDbLine
 10
94.51517059313244
 20
126.4440169183623
 30
0.0
 11
94.51517059313244
 21
127.6515611969787
 31
0.0
  0
LINE
  5
247
330
18F
100
AcDbEntity
  8
Sketch Geometry(DIN)
  6
Continuous
 62
     7
370
    18
100
AcDbLine
 10
93.67618192637806
 20
127.4319280679947
 30
0.0
 11
94.12985220484378
 21
127.4319280679947
 31
0.0
  0
LINE
  5
248
330
18F
100
AcDbEntity
  8
Sketch Geometry(DIN)
  6
Continuous
 62
     7
370
    18
100
AcDbLine
 10
94.12985220484378
 20
127.4319280679947
 30
0.0
 11
94.12985220484378
 21
128.0857370515493
 31
0.0
  0
LINE
  5
249
330
18F
100
AcDbEntity
  8
Sketch Geometry(DIN)
  6
Continuous
 62
     7
370
    18
100
AcDbLine
 10
93.63616979477447
 20
127.2250946586152
 30
0.0
 11
93.22251164791238
 21
127.2250946586152
 31
0.0
  0
LINE
  5
24A
330
18F
100
AcDbEntity
  8
Sketch Geometry(DIN)
  6
Continuous
 62
     7
370
    18
100
AcDbLine
 10
92.3685726311659
 20
126.4511799050758
 30
0.0
 11
92.16839923849006
 21
126.4511799050758
 31
0.0
  0
LINE
  5
24B
330
18F
100
AcDbEntity
  8
Sketch Geometry(DIN)
  6
Continuous
 62
     7
370
    18
100
AcDbLine
 10
93.40264428719921
 20
125.990858281803
 30
0.0
 11
93.40264428719921
 21
126.4511799050758
 31
0.0
  0
LINE
  5
24C
330
18F
100
AcDbEntity
  8
Sketch Geometry(DIN)
  6
Continuous
 62
     7
370
    18
100
AcDbLine
 10
92.16839923849006
 20
125.990858281803
 30
0.0
 11
93.40264428719921
 21
125.990858281803
 31
0.0
  0
LINE
  5
24D
330
18F
100
AcDbEntity
  8
Sketch Geometry(DIN)
  6
Continuous
 62
     7
370
    18
100
AcDbLine
 10
92.16839923849006
 20
126.4511799050758
 30
0.0
 11
92.16839923849006
 21
125.990858281803
 31
0.0
  0
LINE
  5
24E
330
18F
100
AcDbEntity
  8
Sketch Geometry(DIN)
  6
Continuous
 62
     7
370
    18
100
AcDbLine
 10
95.66280073710002
 20
127.6447971175117
 30
0.0
 11
95.63609996700732
 21
127.65814316661
 31
0.0
  0
LINE
  5
24F
330
18F
100
AcDbEntity
  8
Sketch Geometry(DIN)
  6
Continuous
 62
     7
370
    18
100
AcDbLine
 10
95.74285968789419
 20
127.3178926257348
 30
0.0
 11
95.74951970459784
 21
127.3378986915364
 31
0.0
  0
LINE
  5
250
330
18F
100
AcDbEntity
  8
Sketch Geometry(DIN)
  6
Continuous
 62
     7
370
    18
100
AcDbLine
 10
95.74951970459784
 20
127.3378986915364
 30
0.0
 11
95.76286575369572
 21
127.3645994616291
 31
0.0
  0
LINE
  5
251
330
18F
100
AcDbEntity
  8
Sketch Geometry(DIN)
  6
Continuous
 62
     7
370
    18
100
AcDbLine
 10
95.76286575369572
 20
127.3645994616291
 30
0.0
 11
95.76952577039945
 21
127.3846055274307
 31
0.0
  0
LINE
  5
252
330
18F
100
AcDbEntity
  8
Sketch Geometry(DIN)
  6
Continuous
 62
     7
370
    18
100
AcDbLine
 10
95.76952577039945
 20
127.3846055274307
 30
0.0
 11
95.78287181949781
 21
127.4179663142276
 31
0.0
  0
LINE
  5
253
330
18F
100
AcDbEntity
  8
Sketch Geometry(DIN)
  6
Continuous
 62
     7
370
    18
100
AcDbLine
 10
95.78287181949781
 20
127.4179663142276
 30
0.0
 11
95.78287181949781
 21
127.437972380029
 31
0.0
  0
LINE
  5
254
330
18F
100
AcDbEntity
  8
Sketch Geometry(DIN)
  6
Continuous
 62
     7
370
    18
100
AcDbLine
 10
95.78287181949781
 20
127.437972380029
 30
0.0
 11
95.78287181949781
 21
127.4646644782248
 31
0.0
  0
LINE
  5
255
330
18F
100
AcDbEntity
  8
Sketch Geometry(DIN)
  6
Continuous
 62
     7
370
    18
100
AcDbLine
 10
95.78287181949781
 20
127.4646644782248
 30
0.0
 11
95.76952577039945
 21
127.4846792159234
 31
0.0
  0
LINE
  5
256
330
18F
100
AcDbEntity
  8
Sketch Geometry(DIN)
  6
Continuous
 62
     7
370
    18
100
AcDbLine
 10
95.76952577039945
 20
127.4846792159234
 30
0.0
 11
95.75617104940503
 21
127.5180313308232
 31
0.0
  0
LINE
  5
257
330
18F
100
AcDbEntity
  8
Sketch Geometry(DIN)
  6
Continuous
 62
     7
370
    18
100
AcDbLine
 10
95.61609390120528
 20
127.6648031833137
 30
0.0
 11
95.58939313111256
 21
127.6781579043086
 31
0.0
  0
LINE
  5
258
330
18F
100
AcDbEntity
  8
Sketch Geometry(DIN)
  6
Continuous
 62
     7
370
    18
100
AcDbLine
 10
95.58939313111256
 20
127.6781579043086
 30
0.0
 11
95.569387065311
 21
127.6781579043086
 31
0.0
  0
LINE
  5
259
330
18F
100
AcDbEntity
  8
Sketch Geometry(DIN)
  6
Continuous
 62
     7
370
    18
100
AcDbLine
 10
95.569387065311
 20
127.6781579043086
 30
0.0
 11
95.549380999509
 21
127.6781579043086
 31
0.0
  0
LINE
  5
25A
330
18F
100
AcDbEntity
  8
Sketch Geometry(DIN)
  6
Continuous
 62
     7
370
    18
100
AcDbLine
 10
95.549380999509
 20
127.6781579043086
 30
0.0
 11
95.29584942613217
 21
127.6781579043086
 31
0.0
  0
LINE
  5
25B
330
18F
100
AcDbEntity
  8
Sketch Geometry(DIN)
  6
Continuous
 62
     7
370
    18
100
AcDbLine
 10
95.29584942613217
 20
127.6781579043086
 30
0.0
 11
95.29584942613217
 21
127.191126839046
 31
0.0
  0
LINE
  5
25C
330
18F
100
AcDbEntity
  8
Sketch Geometry(DIN)
  6
Continuous
 62
     7
370
    18
100
AcDbLine
 10
95.29584942613217
 20
127.191126839046
 30
0.0
 11
95.549380999509
 21
127.191126839046
 31
0.0
  0
LINE
  5
25D
330
18F
100
AcDbEntity
  8
Sketch Geometry(DIN)
  6
Continuous
 62
     7
370
    18
100
AcDbLine
 10
95.549380999509
 20
127.191126839046
 30
0.0
 11
95.569387065311
 21
127.191126839046
 31
0.0
  0
LINE
  5
25E
330
18F
100
AcDbEntity
  8
Sketch Geometry(DIN)
  6
Continuous
 62
     7
370
    18
100
AcDbLine
 10
95.72951363879587
 20
127.2978865599328
 30
0.0
 11
95.74285968789419
 21
127.3178926257348
 31
0.0
  0
LINE
  5
25F
330
18F
100
AcDbEntity
  8
Sketch Geometry(DIN)
  6
Continuous
 62
     7
370
    18
100
AcDbLine
 10
95.70949890109728
 20
127.2778458065443
 30
0.0
 11
95.72951363879587
 21
127.2978865599328
 31
0.0
  0
LINE
  5
260
330
18F
100
AcDbEntity
  8
Sketch Geometry(DIN)
  6
Continuous
 62
     7
370
    18
100
AcDbLine
 10
95.67614678619788
 20
127.2444936916444
 30
0.0
 11
95.69615285199942
 21
127.2645344450329
 31
0.0
  0
LINE
  5
261
330
18F
100
AcDbEntity
  8
Sketch Geometry(DIN)
  6
Continuous
 62
     7
370
    18
100
AcDbLine
 10
95.66280073710002
 20
127.2378336749407
 30
0.0
 11
95.67614678619788
 21
127.2444936916444
 31
0.0
  0
LINE
  5
262
330
18F
100
AcDbEntity
  8
Sketch Geometry(DIN)
  6
Continuous
 62
     7
370
    18
100
AcDbLine
 10
95.63609996700732
 20
127.2178276091387
 30
0.0
 11
95.66280073710002
 21
127.2378336749407
 31
0.0
  0
LINE
  5
263
330
18F
100
AcDbEntity
  8
Sketch Geometry(DIN)
  6
Continuous
 62
     7
370
    18
100
AcDbLine
 10
95.61609390120528
 20
127.2044815600408
 30
0.0
 11
95.63609996700732
 21
127.2178276091387
 31
0.0
  0
LINE
  5
264
330
18F
100
AcDbEntity
  8
Sketch Geometry(DIN)
  6
Continuous
 62
     7
370
    18
100
AcDbLine
 10
95.59608783540371
 20
127.1977868557497
 30
0.0
 11
95.61609390120528
 21
127.2044815600408
 31
0.0
  0
LINE
  5
265
330
18F
100
AcDbEntity
  8
Sketch Geometry(DIN)
  6
Continuous
 62
     7
370
    18
100
AcDbLine
 10
95.569387065311
 20
127.191126839046
 30
0.0
 11
95.59608783540371
 21
127.1977868557497
 31
0.0
  0
LINE
  5
266
330
18F
100
AcDbEntity
  8
Sketch Geometry(DIN)
  6
Continuous
 62
     7
370
    18
100
AcDbLine
 10
95.69615285199942
 20
127.2645344450329
 30
0.0
 11
95.70949890109728
 21
127.2778458065443
 31
0.0
  0
LINE
  5
267
330
18F
100
AcDbEntity
  8
Sketch Geometry(DIN)
  6
Continuous
 62
     7
370
    18
100
AcDbLine
 10
94.295025822242
 20
125.9836519356054
 30
0.0
 11
94.295025822242
 21
126.4440169183623
 31
0.0
  0
LINE
  5
268
330
18F
100
AcDbEntity
  8
Sketch Geometry(DIN)
  6
Continuous
 62
     7
370
    18
100
AcDbLine
 10
94.295025822242
 20
126.4440169183623
 30
0.0
 11
94.51517059313244
 21
126.4440169183623
 31
0.0
  0
LINE
  5
269
330
18F
100
AcDbEntity
  8
Sketch Geometry(DIN)
  6
Continuous
 62
     7
370
    18
100
AcDbLine
 10
95.48922405176055
 20
125.9836519356054
 30
0.0
 11
94.295025822242
 21
125.9836519356054
 31
0.0
  0
LINE
  5
26A
330
18F
100
AcDbEntity
  8
Sketch Geometry(DIN)
  6
Continuous
 62
     7
370
    18
100
AcDbLine
 10
95.30244006766656
 20
126.8776464434394
 30
0.0
 11
95.30244006766656
 21
126.4440169183623
 31
0.0
  0
LINE
  5
26B
330
18F
100
AcDbEntity
  8
Sketch Geometry(DIN)
  6
Continuous
 62
     7
370
    18
100
AcDbLine
 10
95.30244006766656
 20
126.4440169183623
 30
0.0
 11
95.48922405176055
 21
126.4440169183623
 31
0.0
  0
LINE
  5
26C
330
18F
100
AcDbEntity
  8
Sketch Geometry(DIN)
  6
Continuous
 62
     7
370
    18
100
AcDbLine
 10
95.5826377235491
 20
126.8776464434394
 30
0.0
 11
95.30244006766656
 21
126.8776464434394
 31
0.0
  0
LINE
  5
26D
330
18F
100
AcDbEntity
  8
Sketch Geometry(DIN)
  6
Continuous
 62
     7
370
    18
100
AcDbLine
 10
95.48922405176055
 20
126.4440169183623
 30
0.0
 11
95.48922405176055
 21
125.9836519356054
 31
0.0
  0
LINE
  5
26E
330
18F
100
AcDbEntity
  8
Sketch Geometry(DIN)
  6
Continuous
 62
     7
370
    18
100
AcDbLine
 10
95.96959510031894
 20
125.9836519356054
 30
0.0
 11
95.5826377235491
 21
126.8776464434394
 31
0.0
  0
LINE
  5
26F
330
18F
100
AcDbEntity
  8
Sketch Geometry(DIN)
  6
Continuous
 62
     7
370
    18
100
AcDbLine
 10
106.5065913716826
 20
126.6493414177054
 30
0.0
 11
106.5065913716826
 21
126.4492027126165
 31
0.0
  0
LINE
  5
270
330
18F
100
AcDbEntity
  8
Sketch Geometry(DIN)
  6
Continuous
 62
     7
370
    18
100
AcDbLine
 10
106.9469156010504
 20
126.6493414177054
 30
0.0
 11
106.5065913716826
 21
126.6493414177054
 31
0.0
  0
LINE
  5
271
330
18F
100
AcDbEntity
  8
Sketch Geometry(ISO)
  6
Continuous
 62
     7
370
    25
100
AcDbLine
 10
89.59999999999999
 20
110.2741925130958
 30
0.0
 11
154.6
 21
110.2741925130957
 31
0.0
  0
MTEXT
  5
272
330
18F
100
AcDbEntity
  8
Symbols(ISO)
 62
     7
100
AcDbMText
 10
155.6
 20
144.5241925130958
 30
0.0
 40
1.49859994649887
 41
23.77876622243585
 71
     4
 72
     1
  1
Revision Description:
  7
Text__1.5mm
 73
     1
 44
1.0
1001
ACAD
1000
MTEXTBEGIN
1070
    73
1070
     1
1070
    44
1040
1.0
1070
    74
1070
     0
1000
MTEXTEND
  0
MTEXT
  5
273
330
18F
100
AcDbEntity
  8
Symbols(ISO)
 62
     7
100
AcDbMText
 10
91.09999999999997
 20
105.2368704004262
 30
0.0
 40
1.299999952316284
 41
62.47629165649414
 71
     4
 72
     1
  1
\fArial|b0|i0;These drawings and specifications are the property of NIRO-Plan AG and shall not be reproduced, copied or transfered to any third party without the prior written permission of NIRO-Plan AG, Aarburg, Switzerland
  7
Text__1.3mm
 73
     2
 44
0.9442214369773862
1001
ACAD
1000
MTEXTBEGIN
1070
    73
1070
     2
1070
    44
1040
0.9442214369773862
1070
    74
1070
     0
1000
MTEXTEND
  0
MTEXT
  5
274
330
18F
100
AcDbEntity
  8
Symbols(ISO)
 62
     7
100
AcDbMText
 10
264.6
 20
108.7741925130957
 30
0.0
 40
1.49859994649887
 41
6.687050822926429
 71
     4
 72
     1
  1
\fArial|b0|i0;Rev.
  7
Text__1.5mm
 73
     1
 44
1.0
1001
ACAD
1000
MTEXTBEGIN
1070
    73
1070
     1
1070
    44
1040
1.0
1070
    74
1070
     0
1000
MTEXTEND
  0
MTEXT
  5
275
330
18F
100
AcDbEntity
  8
Symbols(ISO)
 62
     7
100
AcDbMText
 10
275.6
 20
108.7741925130957
 30
0.0
 40
1.49859994649887
 41
6.687050822926429
 71
     4
 72
     1
  1
\fArial|b0|i0;Sheet
  7
Text__1.5mm
 73
     1
 44
1.0
1001
ACAD
1000
MTEXTBEGIN
1070
    73
1070
     1
1070
    44
1040
1.0
1070
    74
1070
     0
1000
MTEXTEND
  0
MTEXT
  5
276
330
18F
100
AcDbEntity
  8
Symbols(ISO)
 62
     7
100
AcDbMText
 10
205.6
 20
108.7741925130957
 30
0.0
 40
1.49859994649887
 41
6.629477143287657
 71
     4
 72
     1
  1
\fArial|b0|i0;Format
  7
Text__1.5mm
 73
     1
 44
1.0
1001
ACAD
1000
MTEXTBEGIN
1070
    73
1070
     1
1070
    44
1040
1.0
1070
    74
1070
     0
1000
MTEXTEND
  0
MTEXT
  5
277
330
18F
100
AcDbEntity
  8
Symbols(ISO)
 62
     7
100
AcDbMText
 10
248.1
 20
137.0241925130958
 30
0.0
 40
1.49859994649887
 41
9.419934749603273
 71
     4
 72
     1
  1
EAN / UPC
  7
Text__1.5mm
 73
     1
 44
1.0
1001
ACAD
1000
MTEXTBEGIN
1070
    73
1070
     1
1070
    44
1040
1.0
1070
    74
1070
     0
1000
MTEXTEND
  0
MTEXT
  5
278
330
18F
100
AcDbEntity
  8
Symbols(ISO)
 62
     7
100
AcDbMText
 10
205.6
 20
144.3687682948396
 30
0.0
 40
1.49859994649887
 41
8.959617614746091
 71
     4
 72
     1
  1
Projection
  7
Text__1.5mm
 73
     1
 44
1.0
1001
ACAD
1000
MTEXTBEGIN
1070
    73
1070
     1
1070
    44
1040
1.0
1070
    74
1070
     0
1000
MTEXTEND
  0
MTEXT
  5
279
330
18F
100
AcDbEntity
  8
Symbols(ISO)
 62
     7
100
AcDbMText
 10
248.1
 20
144.3687682948396
 30
0.0
 40
1.49859994649887
 41
41.00067758866361
 71
     4
 72
     1
  1
Local part number (producing site)
  7
Text__1.5mm
 73
     1
 44
1.0
1001
ACAD
1000
MTEXTBEGIN
1070
    73
1070
     1
1070
    44
1040
1.0
1070
    74
1070
     0
1000
MTEXTEND
  0
MTEXT
  5
27A
330
18F
100
AcDbEntity
  8
Symbols(ISO)
 62
     7
100
AcDbMText
 10
218.1
 20
108.7741925130957
 30
0.0
 40
1.49859994649887
 41
13.84170077910116
 71
     4
 72
     1
  1
Drawing number
  7
Text__1.5mm
 73
     1
 44
1.0
1001
ACAD
1000
MTEXTBEGIN
1070
    73
1070
     1
1070
    44
1040
1.0
1070
    74
1070
     0
1000
MTEXTEND
  0
MTEXT
  5
27B
330
18F
100
AcDbEntity
  8
Symbols(ISO)
 62
     7
100
AcDbMText
 10
205.6
 20
137.0241925130958
 30
0.0
 40
1.49859994649887
 41
16.71329739486093
 71
     4
 72
     1
  1
WS global number
  7
Text__1.5mm
 73
     1
 44
1.0
1001
ACAD
1000
MTEXTBEGIN
1070
    73
1070
     1
1070
    44
1040
1.0
1070
    74
1070
     0
1000
MTEXTEND
  0
MTEXT
  5
27C
330
18F
100
AcDbEntity
  8
Symbols(ISO)
 62
     7
100
AcDbMText
 10
283.1
 20
108.7741925130957
 30
0.0
 40
1.49859994649887
 41
6.687050822926429
 71
     4
 72
     1
  1
Sheets
  7
Text__1.5mm
 73
     1
 44
1.0
1001
ACAD
1000
MTEXTBEGIN
1070
    73
1070
     1
1070
    44
1040
1.0
1070
    74
1070
     0
1000
MTEXTEND
  0
MTEXT
  5
27D
330
18F
100
AcDbEntity
  8
Symbols(ISO)
 62
     7
100
AcDbMText
 10
91.09999999999997
 20
116.4337326665147
 30
0.0
 40
2.000000029802321
 41
51.58130403925818
 71
     4
 72
     1
  1
\fArial|b0|i0;\H2.0000;Franke Washroom Systems\PE-Mail: ws-info.int@franke.com\PInternet: www.franke.com
  7
Text__1.3mm
 73
     2
 44
0.9442214369773862
1001
ACAD
1000
MTEXTBEGIN
1070
    73
1070
     2
1070
    44
1040
0.9442214369773862
1070
    74
1070
     0
1000
MTEXTEND
  0
MTEXT
  5
27E
330
18F
100
AcDbEntity
  8
Symbols(ISO)
 62
     7
100
AcDbMText
 10
90.6
 20
144.5241925130958
 30
0.0
 40
1.49859994649887
 41
8.959617614746091
 71
     4
 72
     1
  1
Drawn by
  7
Text__1.5mm
 73
     1
 44
1.0
1001
ACAD
1000
MTEXTBEGIN
1070
    73
1070
     1
1070
    44
1040
1.0
1070
    74
1070
     0
1000
MTEXTEND
  0
MTEXT
  5
27F
330
18F
100
AcDbEntity
  8
Symbols(ISO)
 62
     7
100
AcDbMText
 10
90.6
 20
137.0241925130958
 30
0.0
 40
1.49859994649887
 41
9.318276643753053
 71
     4
 72
     1
  1
Revised by
  7
Text__1.5mm
 73
     1
 44
1.0
1001
ACAD
1000
MTEXTBEGIN
1070
    73
1070
     1
1070
    44
1040
1.0
1070
    74
1070
     0
1000
MTEXTEND
  0
MTEXT
  5
280
330
18F
100
AcDbEntity
  8
Symbols(ISO)
 62
     7
100
AcDbMText
 10
135.6
 20
137.0241925130958
 30
0.0
 40
1.49859994649887
 41
12.0866436953507
 71
     4
 72
     1
  1
Revision date
  7
Text__1.5mm
 73
     1
 44
1.0
1001
ACAD
1000
MTEXTBEGIN
1070
    73
1070
     1
1070
    44
1040
1.0
1070
    74
1070
     0
1000
MTEXTEND
  0
MTEXT
  5
281
330
18F
100
AcDbEntity
  8
Symbols(ISO)
 62
     7
100
AcDbMText
 10
135.6
 20
144.5241925130958
 30
0.0
 40
1.49859994649887
 41
12.73810746214334
 71
     4
 72
     1
  1
Creation date
  7
Text__1.5mm
 73
     1
 44
1.0
1001
ACAD
1000
MTEXTBEGIN
1070
    73
1070
     1
1070
    44
1040
1.0
1070
    74
1070
     0
1000
MTEXTEND
  0
MTEXT
  5
282
330
18F
100
AcDbEntity
  8
Symbols(ISO)
 62
     7
100
AcDbMText
 10
110.6
 20
144.5241925130958
 30
0.0
 40
1.49859994649887
 41
10.88769435882568
 71
     4
 72
     1
  1
Departement
  7
Text__1.5mm
 73
     1
 44
1.0
1001
ACAD
1000
MTEXTBEGIN
1070
    73
1070
     1
1070
    44
1040
1.0
1070
    74
1070
     0
1000
MTEXTEND
  0
MTEXT
  5
283
330
18F
100
AcDbEntity
  8
Symbols(ISO)
 62
     7
100
AcDbMText
 10
110.6
 20
137.0241925130958
 30
0.0
 40
1.49859994649887
 41
13.53864551460898
 71
     4
 72
     1
  1
Departement
  7
Text__1.5mm
 73
     1
 44
1.0
1001
ACAD
1000
MTEXTBEGIN
1070
    73
1070
     1
1070
    44
1040
1.0
1070
    74
1070
     0
1000
MTEXTEND
  0
ATTDEF
  5
284
330
18F
100
AcDbEntity
  8
Symbols(ISO)
 62
     7
100
AcDbText
 10
206.6
 20
123.5241925130958
 30
0.0
 40
5.0
  1
Franke Plaster Sink RH
  7
Parts-List_2.0mm
 11
206.6
 21
126.0241925130958
 31
0.0
100
AcDbAttributeDefinition
  3
Title
  2
Title
 70
     0
 74
     2
  0
ATTDEF
  5
285
330
18F
100
AcDbEntity
  8
Symbols(ISO)
 62
     7
100
AcDbText
 10
206.6000000000001
 20
117.7741925428981
 30
0.0
 40
3.499999940395355
  1

  7
Parts-List_2.0mm
 11
206.6000000000001
 21
119.5241925130958
 31
0.0
100
AcDbAttributeDefinition
  3
Auxiliary_Remark1
  2
Auxiliary_Remark1
 70
     0
 74
     2
  0
ATTDEF
  5
286
330
18F
100
AcDbEntity
  8
Symbols(ISO)
 62
     7
100
AcDbText
 10
206.6
 20
111.2741925428981
 30
0.0
 40
3.499999940395355
  1

  7
Parts-List_2.0mm
 11
206.6
 21
113.0241925130958
 31
0.0
100
AcDbAttributeDefinition
  3
Auxiliary_Remark2
  2
Auxiliary_Remark2
 70
     0
 74
     2
  0
ATTDEF
  5
287
330
18F
100
AcDbEntity
  8
Symbols(ISO)
 62
     7
100
AcDbText
 10
248.1
 20
139.7741925130958
 30
0.0
 40
2.5
  1
SIRX836
  7
Parts-List_2.0mm
 11
248.1
 21
141.0241925130958
 31
0.0
100
AcDbAttributeDefinition
  3
Part_number
  2
Part_number
 70
     0
 74
     2
  0
ATTDEF
  5
288
330
18F
100
AcDbEntity
  8
Symbols(ISO)
 62
     7
100
AcDbText
 10
218.1
 20
101.7741925130957
 30
0.0
 40
5.0
  1
0093-122436
  7
Parts-List_2.0mm
 11
218.1
 21
104.2741925130957
 31
0.0
100
AcDbAttributeDefinition
  3
Document_Number
  2
Document_Number
 70
     0
 74
     2
  0
ATTDEF
  5
289
330
18F
100
AcDbEntity
  8
Symbols(ISO)
 62
     7
100
AcDbText
 10
155.6
 20
136.0241924832935
 30
0.0
 40
2.000000029802321
  1

  7
Parts-List_2.0mm
 11
155.6
 21
138.0241925130958
 31
0.0
100
AcDbAttributeDefinition
  3
Revision_Memo_1
  2
Revision_Memo_1
 70
     0
 74
     3
  0
ATTDEF
  5
28A
330
18F
100
AcDbEntity
  8
Symbols(ISO)
 62
     7
100
AcDbText
 10
264.6
 20
101.7741925130957
 30
0.0
 40
5.0
  1
D
  7
Parts-List_2.0mm
 11
264.6
 21
104.2741925130957
 31
0.0
100
AcDbAttributeDefinition
  3
Revision_Index_1
  2
Revision_Index_1
 70
     0
 74
     2
  0
ATTDEF
  5
28B
330
18F
100
AcDbEntity
  8
Symbols(ISO)
 62
     7
100
AcDbText
 10
205.6
 20
101.7741925130957
 30
0.0
 40
5.0
  1
A4
  7
Parts-List_2.0mm
 11
205.6
 21
104.2741925130957
 31
0.0
100
AcDbAttributeDefinition
  3
Sheet Size
  2
Sheet_Size
 70
     0
 74
     2
  0
ATTDEF
  5
28C
330
18F
100
AcDbEntity
  8
Symbols(ISO)
 62
     7
100
AcDbText
 10
90.6
 20
140.0241924981946
 30
0.0
 40
2.000000029802321
  1
HK034
  7
Parts-List_2.0mm
 11
90.6
 21
141.0241925130958
 31
0.0
100
AcDbAttributeDefinition
  3
Drawn_By
  2
Drawn_By
 70
     0
 74
     2
  0
ATTDEF
  5
28D
330
18F
100
AcDbEntity
  8
Symbols(ISO)
 62
     7
100
AcDbText
 10
90.6
 20
132.5241924981946
 30
0.0
 40
2.000000029802321
  1
HK034
  7
Parts-List_2.0mm
 11
90.6
 21
133.5241925130958
 31
0.0
100
AcDbAttributeDefinition
  3
Modified_By
  2
Modified_By
 70
     0
 74
     2
  0
ATTDEF
  5
28E
330
18F
100
AcDbEntity
  8
Symbols(ISO)
 62
     7
100
AcDbText
 10
135.6
 20
140.0241924981946
 30
0.0
 40
2.000000029802321
  1
15/01/2010
  7
Parts-List_2.0mm
 11
135.6
 21
141.0241925130958
 31
0.0
100
AcDbAttributeDefinition
  3
Drawn_Date
  2
Drawn_Date
 70
     0
 74
     2
  0
ATTDEF
  5
28F
330
18F
100
AcDbEntity
  8
Symbols(ISO)
 62
     7
100
AcDbText
 10
135.6
 20
132.5241924981946
 30
0.0
 40
2.000000029802321
  1
22/02/2010
  7
Parts-List_2.0mm
 11
135.6
 21
133.5241925130958
 31
0.0
100
AcDbAttributeDefinition
  3
Modified_Date
  2
Modified_Date
 70
     0
 74
     2
  0
ATTDEF
  5
290
330
18F
100
AcDbEntity
  8
Symbols(ISO)
 62
     7
100
AcDbText
 10
155.6
 20
140.0241924981946
 30
0.0
 40
2.000000029802321
  1

  7
Parts-List_2.0mm
 11
155.6
 21
141.0241925130958
 31
0.0
100
AcDbAttributeDefinition
  3
Revision_Titel_1
  2
Revision_Titel_1
 70
     0
 74
     2
  0
ATTDEF
  5
291
330
18F
100
AcDbEntity
  8
Symbols(ISO)
 62
     7
100
AcDbText
 10
275.7285812427045
 20
101.7741925130957
 30
0.0
 40
5.0
  1
1 
 41
0.899999976158142
  7
Text__5.0mm
 72
     1
 11
278.35
 21
104.2741925130957
 31
0.0
100
AcDbAttributeDefinition
  3
Sheet number
  2
Sheet_number
 70
     0
 74
     2
  0
ATTDEF
  5
292
330
18F
100
AcDbEntity
  8
Symbols(ISO)
 62
     7
100
AcDbText
 10
283.2285812427045
 20
101.7741925130957
 30
0.0
 40
5.0
  1
4 
 41
0.899999976158142
  7
Text__5.0mm
 72
     1
 11
285.85
 21
104.2741925130957
 31
0.0
100
AcDbAttributeDefinition
  3
Number of sheets
  2
Number_of_sheets
 70
     0
 74
     2
  0
ATTDEF
  5
293
330
18F
100
AcDbEntity
  8
Symbols(ISO)
 62
     7
100
AcDbText
 10
205.6
 20
132.2741925130958
 30
0.0
 40
2.5
  1

  7
Parts-List_2.0mm
 11
205.6
 21
133.5241925130958
 31
0.0
100
AcDbAttributeDefinition
  3
FUN
  2
FUN
 70
     0
 74
     2
  0
ATTDEF
  5
294
330
18F
100
AcDbEntity
  8
Symbols(ISO)
 62
     7
100
AcDbText
 10
248.1
 20
132.2741925130958
 30
0.0
 40
2.5
  1
7612210017568
  7
Parts-List_2.0mm
 11
248.1
 21
133.5241925130958
 31
0.0
100
AcDbAttributeDefinition
  3
EAN
  2
EAN
 70
     0
 74
     2
  0
ATTDEF
  5
295
330
18F
100
AcDbEntity
  8
Symbols(ISO)
 62
     7
100
AcDbText
 10
110.6
 20
132.5241924981946
 30
0.0
 40
2.000000029802321
  1
FSI-Marketing
  7
Parts-List_2.0mm
 11
110.6
 21
133.5241925130958
 31
0.0
100
AcDbAttributeDefinition
  3
Departement
  2
Departement
 70
     0
 74
     2
  0
ATTDEF
  5
296
330
18F
100
AcDbEntity
  8
Symbols(ISO)
 62
     7
100
AcDbText
 10
110.6
 20
140.0241924981946
 30
0.0
 40
2.000000029802321
  1
FSI-Marketing
  7
Parts-List_2.0mm
 11
110.6
 21
141.0241925130958
 31
0.0
100
AcDbAttributeDefinition
  3
Departement
  2
Departement
 70
     0
 74
     2
  0
ENDBLK
  5
191
330
18F
100
AcDbEntity
  8
0
100
AcDbBlockEnd
  0
BLOCK
  5
2AD
330
2AC
100
AcDbEntity
  8
0
100
AcDbBlockBegin
  2
Borders Verkauf Border_85x80
 70
     0
 10
0.0
 20
0.0
 30
0.0
  3
Borders Verkauf Border_85x80
  1

  0
LINE
  5
2AF
330
2AC
100
AcDbEntity
  8
Phantom Lines(ISO)
 48
27.41272354125977
100
AcDbLine
 10
20.00000000000014
 20
228.0000000000001
 30
0.0
 11
190.0
 21
228.0000000000001
 31
0.0
  0
LINE
  5
2B0
330
2AC
100
AcDbEntity
  8
Phantom Lines(ISO)
 48
25.80020904541016
100
AcDbLine
 10
190.0
 20
228.0000000000001
 30
0.0
 11
190.0
 21
68.00000000000004
 31
0.0
  0
LINE
  5
2B1
330
2AC
100
AcDbEntity
  8
Phantom Lines(ISO)
 48
27.41272354125977
100
AcDbLine
 10
190.0
 20
68.00000000000003
 30
0.0
 11
20.0
 21
68.00000000000003
 31
0.0
  0
LINE
  5
2B2
330
2AC
100
AcDbEntity
  8
Phantom Lines(ISO)
 48
25.80020904541016
100
AcDbLine
 10
20.0
 20
68.00000000000003
 30
0.0
 11
20.00000000000014
 21
228.0000000000001
 31
0.0
  0
LINE
  5
2B3
330
2AC
100
AcDbEntity
  8
Sketch Geometry(ISO)
100
AcDbLine
 10
204.9999999999999
 20
292.0
 30
0.0
 11
5.0
 21
292.0
 31
0.0
  0
LINE
  5
2B4
330
2AC
100
AcDbEntity
  8
Sketch Geometry(ISO)
100
AcDbLine
 10
4.999999999999981
 20
292.0
 30
0.0
 11
5.000000000000006
 21
5.0
 31
0.0
  0
LINE
  5
2B5
330
2AC
100
AcDbEntity
  8
Sketch Geometry(ISO)
100
AcDbLine
 10
5.000000000000006
 20
5.0
 30
0.0
 11
205.0
 21
5.0
 31
0.0
  0
LINE
  5
2B6
330
2AC
100
AcDbEntity
  8
Sketch Geometry(ISO)
100
AcDbLine
 10
205.0
 20
5.0
 30
0.0
 11
204.9999999999999
 21
292.0
 31
0.0
  0
ENDBLK
  5
2AE
330
2AC
100
AcDbEntity
  8
0
100
AcDbBlockEnd
  0
BLOCK
  5
3A5
330
3A4
100
AcDbEntity
  8
0
100
AcDbBlockBegin
  2
*D11
 70
     1
 10
0.0
 20
0.0
 30
0.0
  3
*D11
  1

  0
LINE
  5
479
330
3A4
100
AcDbEntity
  8
Bemaßungen(DIN)
  6
Continuous
 62
     7
370
    25
100
AcDbLine
 10
436.0442498423188
 20
2458.930341844173
 30
0.0
 11
436.0442498423188
 21
2692.561843429028
 31
0.0
  0
LINE
  5
47A
330
3A4
100
AcDbEntity
  8
Bemaßungen(DIN)
  6
Continuous
 62
     7
370
    25
100
AcDbLine
 10
1436.044249842319
 20
2458.930341844173
 30
0.0
 11
1436.044249842319
 21
2692.561843429028
 31
0.0
  0
LINE
  5
47B
330
3A4
100
AcDbEntity
  8
Bemaßungen(DIN)
  6
Continuous
 62
     7
370
    25
100
AcDbLine
 10
484.044249842319
 20
2668.561843429028
 30
0.0
 11
861.6458886030873
 21
2668.561843429028
 31
0.0
  0
LINE
  5
47C
330
3A4
100
AcDbEntity
  8
Bemaßungen(DIN)
  6
Continuous
 62
     7
370
    25
100
AcDbLine
 10
1388.044249842319
 20
2668.561843429028
 30
0.0
 11
1010.44261108155
 21
2668.561843429028
 31
0.0
  0
SOLID
  5
47D
330
3A4
100
AcDbEntity
  8
Bemaßungen(DIN)
  6
Continuous
 62
     7
100
AcDbTrace
 10
484.044249842319
 20
2676.561843429028
 30
0.0
 11
484.044249842319
 21
2660.561843429028
 31
0.0
 12
436.0442498423188
 22
2668.561843429028
 32
0.0
 13
436.0442498423188
 23
2668.561843429028
 33
0.0
  0
SOLID
  5
47E
330
3A4
100
AcDbEntity
  8
Bemaßungen(DIN)
  6
Continuous
 62
     7
100
AcDbTrace
 10
1388.044249842319
 20
2676.561843429028
 30
0.0
 11
1388.044249842319
 21
2660.561843429028
 31
0.0
 12
1436.044249842319
 22
2668.561843429028
 32
0.0
 13
1436.044249842319
 23
2668.561843429028
 33
0.0
  0
MTEXT
  5
47F
330
3A4
100
AcDbEntity
  8
Bemaßungen(DIN)
  6
Continuous
 62
     7
370
    30
100
AcDbMText
 10
873.6458886030872
 20
2668.561843429028
 30
0.0
 40
48.0
 41
0.0
 71
     4
 72
     1
  1
\A1;1000
  7
Text__4.0mm
 73
     1
 44
1.0
1001
ACAD
1000
MTEXTBEGIN
1070
    73
1070
     1
1070
    44
1040
1.0
1070
    74
1070
     0
1000
MTEXTEND
  0
POINT
  5
480
330
3A4
100
AcDbEntity
  8
Defpoints
  6
Continuous
 62
     0
100
AcDbPoint
 10
436.0442498423188
 20
2434.930341844173
 30
0.0
  0
POINT
  5
481
330
3A4
100
AcDbEntity
  8
Defpoints
  6
Continuous
 62
     0
100
AcDbPoint
 10
1436.044249842319
 20
2434.930341844173
 30
0.0
  0
POINT
  5
482
330
3A4
100
AcDbEntity
  8
Defpoints
  6
Continuous
 62
     0
100
AcDbPoint
 10
1436.044249842319
 20
2668.561843429028
 30
0.0
  0
ENDBLK
  5
3A6
330
3A4
100
AcDbEntity
  8
0
100
AcDbBlockEnd
  0
BLOCK
  5
489
330
488
100
AcDbEntity
  8
0
100
AcDbBlockBegin
  2
*D12
 70
     1
 10
0.0
 20
0.0
 30
0.0
  3
*D12
  1

  0
LINE
  5
55D
330
488
100
AcDbEntity
  8
Bemaßungen(DIN)
  6
Continuous
 62
     7
370
    25
100
AcDbLine
 10
1409.044249842319
 20
2473.930341844174
 30
0.0
 11
1409.044249842319
 21
2593.930341844173
 31
0.0
  0
LINE
  5
55E
330
488
100
AcDbEntity
  8
Bemaßungen(DIN)
  6
Continuous
 62
     7
370
    25
100
AcDbLine
 10
463.0442498423189
 20
2473.930341844174
 30
0.0
 11
463.0442498423189
 21
2593.930341844173
 31
0.0
  0
LINE
  5
55F
330
488
100
AcDbEntity
  8
Bemaßungen(DIN)
  6
Continuous
 62
     7
370
    25
100
AcDbLine
 10
1361.044249842319
 20
2569.930341844174
 30
0.0
 11
995.7528433942982
 21
2569.930341844174
 31
0.0
  0
LINE
  5
560
330
488
100
AcDbEntity
  8
Bemaßungen(DIN)
  6
Continuous
 62
     7
370
    25
100
AcDbLine
 10
511.0442498423188
 20
2569.930341844174
 30
0.0
 11
876.3356562903398
 21
2569.930341844174
 31
0.0
  0
SOLID
  5
561
330
488
100
AcDbEntity
  8
Bemaßungen(DIN)
  6
Continuous
 62
     7
100
AcDbTrace
 10
1361.044249842319
 20
2577.930341844173
 30
0.0
 11
1361.044249842319
 21
2561.930341844173
 31
0.0
 12
1409.044249842319
 22
2569.930341844174
 32
0.0
 13
1409.044249842319
 23
2569.930341844174
 33
0.0
  0
SOLID
  5
562
330
488
100
AcDbEntity
  8
Bemaßungen(DIN)
  6
Continuous
 62
     7
100
AcDbTrace
 10
511.0442498423188
 20
2577.930341844173
 30
0.0
 11
511.0442498423188
 21
2561.930341844173
 31
0.0
 12
463.0442498423189
 22
2569.930341844174
 32
0.0
 13
463.0442498423189
 23
2569.930341844174
 33
0.0
  0
MTEXT
  5
563
330
488
100
AcDbEntity
  8
Bemaßungen(DIN)
  6
Continuous
 62
     7
370
    30
100
AcDbMText
 10
888.3356562903397
 20
2569.930341844174
 30
0.0
 40
48.0
 41
0.0
 71
     4
 72
     1
  1
\A1;946
  7
Text__4.0mm
 73
     1
 44
1.0
1001
ACAD
1000
MTEXTBEGIN
1070
    73
1070
     1
1070
    44
1040
1.0
1070
    74
1070
     0
1000
MTEXTEND
  0
POINT
  5
564
330
488
100
AcDbEntity
  8
Defpoints
  6
Continuous
 62
     0
100
AcDbPoint
 10
1409.044249842319
 20
2449.930341844174
 30
0.0
  0
POINT
  5
565
330
488
100
AcDbEntity
  8
Defpoints
  6
Continuous
 62
     0
100
AcDbPoint
 10
463.0442498423189
 20
2449.930341844174
 30
0.0
  0
POINT
  5
566
330
488
100
AcDbEntity
  8
Defpoints
  6
Continuous
 62
     0
100
AcDbPoint
 10
463.0442498423189
 20
2569.930341844174
 30
0.0
  0
ENDBLK
  5
48A
330
488
100
AcDbEntity
  8
0
100
AcDbBlockEnd
  0
BLOCK
  5
569
330
568
100
AcDbEntity
  8
0
100
AcDbBlockBegin
  2
*D13
 70
     1
 10
0.0
 20
0.0
 30
0.0
  3
*D13
  1

  0
LINE
  5
63D
330
568
100
AcDbEntity
  8
Bemaßungen(DIN)
  6
Continuous
 62
     7
370
    25
100
AcDbLine
 10
437.544249842319
 20
2386.930341844173
 30
0.0
 11
437.544249842319
 21
2326.139206343706
 31
0.0
  0
LINE
  5
63E
330
568
100
AcDbEntity
  8
Bemaßungen(DIN)
  6
Continuous
 62
     7
370
    25
100
AcDbLine
 10
463.0442498423189
 20
2356.930341844173
 30
0.0
 11
463.0442498423189
 21
2326.139206343706
 31
0.0
  0
LINE
  5
63F
330
568
100
AcDbEntity
  8
Bemaßungen(DIN)
  6
Continuous
 62
     7
370
    25
100
AcDbLine
 10
511.0442498423188
 20
2350.139206343706
 30
0.0
 11
559.044249842319
 21
2350.139206343706
 31
0.0
  0
LINE
  5
640
330
568
100
AcDbEntity
  8
Bemaßungen(DIN)
  6
Continuous
 62
     7
370
    25
100
AcDbLine
 10
389.544249842319
 20
2350.139206343706
 30
0.0
 11
341.544249842319
 21
2350.139206343706
 31
0.0
  0
SOLID
  5
641
330
568
100
AcDbEntity
  8
Bemaßungen(DIN)
  6
Continuous
 62
     7
100
AcDbTrace
 10
511.0442498423188
 20
2358.139206343706
 30
0.0
 11
511.0442498423188
 21
2342.139206343706
 31
0.0
 12
463.0442498423189
 22
2350.139206343706
 32
0.0
 13
463.0442498423189
 23
2350.139206343706
 33
0.0
  0
SOLID
  5
642
330
568
100
AcDbEntity
  8
Bemaßungen(DIN)
  6
Continuous
 62
     7
100
AcDbTrace
 10
389.544249842319
 20
2358.139206343706
 30
0.0
 11
389.544249842319
 21
2342.139206343706
 31
0.0
 12
437.544249842319
 22
2350.139206343706
 32
0.0
 13
437.544249842319
 23
2350.139206343706
 33
0.0
  0
MTEXT
  5
643
330
568
100
AcDbEntity
  8
Bemaßungen(DIN)
  6
Continuous
 62
     7
370
    30
100
AcDbMText
 10
266.6007317280339
 20
2350.139206343706
 30
0.0
 40
48.0
 41
0.0
 71
     4
 72
     1
  1
\A1;25
  7
Text__4.0mm
 73
     1
 44
1.0
1001
ACAD
1000
MTEXTBEGIN
1070
    73
1070
     1
1070
    44
1040
1.0
1070
    74
1070
     0
1000
MTEXTEND
  0
POINT
  5
644
330
568
100
AcDbEntity
  8
Defpoints
  6
Continuous
 62
     0
100
AcDbPoint
 10
437.544249842319
 20
2410.930341844173
 30
0.0
  0
POINT
  5
645
330
568
100
AcDbEntity
  8
Defpoints
  6
Continuous
 62
     0
100
AcDbPoint
 10
463.0442498423189
 20
2380.930341844173
 30
0.0
  0
POINT
  5
646
330
568
100
AcDbEntity
  8
Defpoints
  6
Continuous
 62
     0
100
AcDbPoint
 10
463.0442498423189
 20
2350.139206343706
 30
0.0
  0
ENDBLK
  5
56A
330
568
100
AcDbEntity
  8
0
100
AcDbBlockEnd
  0
BLOCK
  5
649
330
648
100
AcDbEntity
  8
0
100
AcDbBlockBegin
  2
*D14
 70
     1
 10
0.0
 20
0.0
 30
0.0
  3
*D14
  1

  0
LINE
  5
11B8
330
648
100
AcDbEntity
  8
Bemaßungen(DIN)
  6
Continuous
 62
     7
370
    25
100
AcDbLine
 10
1460.044249842319
 20
2459.930341844173
 30
0.0
 11
1516.120481761207
 21
2459.930341844173
 31
0.0
  0
LINE
  5
11B9
330
648
100
AcDbEntity
  8
Bemaßungen(DIN)
  6
Continuous
 62
     7
370
    25
100
AcDbLine
 10
1460.044249842319
 20
2409.930341844173
 30
0.0
 11
1516.120481761207
 21
2409.930341844173
 31
0.0
  0
LINE
  5
11BA
330
648
100
AcDbEntity
  8
Bemaßungen(DIN)
  6
Continuous
 62
     7
370
    25
100
AcDbLine
 10
1492.120481761207
 20
2361.930341844173
 30
0.0
 11
1492.120481761207
 21
2313.930341844173
 31
0.0
  0
LINE
  5
11BB
330
648
100
AcDbEntity
  8
Bemaßungen(DIN)
  6
Continuous
 62
     7
370
    25
100
AcDbLine
 10
1492.120481761207
 20
2507.930341844173
 30
0.0
 11
1492.120481761207
 21
2583.262316286119
 31
0.0
  0
LINE
  5
11BC
330
648
100
AcDbEntity
  8
Bemaßungen(DIN)
  6
Continuous
 62
     7
370
    25
100
AcDbLine
 10
1492.120481761207
 20
2583.262316286119
 30
0.0
 11
1540.120481761207
 21
2583.262316286119
 31
0.0
  0
SOLID
  5
11BD
330
648
100
AcDbEntity
  8
Bemaßungen(DIN)
  6
Continuous
 62
     7
100
AcDbTrace
 10
1484.120481761207
 20
2361.930341844173
 30
0.0
 11
1500.120481761207
 21
2361.930341844173
 31
0.0
 12
1492.120481761207
 22
2409.930341844173
 32
0.0
 13
1492.120481761207
 23
2409.930341844173
 33
0.0
  0
SOLID
  5
11BE
330
648
100
AcDbEntity
  8
Bemaßungen(DIN)
  6
Continuous
 62
     7
100
AcDbTrace
 10
1484.120481761207
 20
2507.930341844173
 30
0.0
 11
1500.120481761207
 21
2507.930341844173
 31
0.0
 12
1492.120481761207
 22
2459.930341844173
 32
0.0
 13
1492.120481761207
 23
2459.930341844173
 33
0.0
  0
MTEXT
  5
11BF
330
648
100
AcDbEntity
  8
Bemaßungen(DIN)
  6
Continuous
 62
     7
370
    30
100
AcDbMText
 10
1552.120481761207
 20
2583.26231628612
 30
0.0
 40
48.0
 41
0.0
 71
     4
 72
     1
  1
\A1;50
  7
Text__4.0mm
 73
     1
 44
1.0
1001
ACAD
1000
MTEXTBEGIN
1070
    73
1070
     1
1070
    44
1040
1.0
1070
    74
1070
     0
1000
MTEXTEND
  0
POINT
  5
11C0
330
648
100
AcDbEntity
  8
Defpoints
  6
Continuous
 62
     0
100
AcDbPoint
 10
1436.044249842319
 20
2459.930341844173
 30
0.0
  0
POINT
  5
11C1
330
648
100
AcDbEntity
  8
Defpoints
  6
Continuous
 62
     0
100
AcDbPoint
 10
1436.044249842319
 20
2409.930341844173
 30
0.0
  0
POINT
  5
11C2
330
648
100
AcDbEntity
  8
Defpoints
  6
Continuous
 62
     0
100
AcDbPoint
 10
1492.120481761207
 20
2409.930341844173
 30
0.0
  0
ENDBLK
  5
64A
330
648
100
AcDbEntity
  8
0
100
AcDbBlockEnd
  0
BLOCK
  5
731
330
730
100
AcDbEntity
  8
0
100
AcDbBlockBegin
  2
*D15
 70
     1
 10
0.0
 20
0.0
 30
0.0
  3
*D15
  1

  0
LINE
  5
805
330
730
100
AcDbEntity
  8
Bemaßungen(DIN)
  6
Continuous
 62
     7
370
    25
100
AcDbLine
 10
1405.044249842319
 20
2385.930341844173
 30
0.0
 11
1405.044249842319
 21
2331.8616419399
 31
0.0
  0
LINE
  5
806
330
730
100
AcDbEntity
  8
Bemaßungen(DIN)
  6
Continuous
 62
     7
370
    25
100
AcDbLine
 10
1413.044249842319
 20
2385.930341844173
 30
0.0
 11
1413.044249842319
 21
2331.8616419399
 31
0.0
  0
LINE
  5
807
330
730
100
AcDbEntity
  8
Bemaßungen(DIN)
  6
Continuous
 62
     7
370
    25
100
AcDbLine
 10
1461.044249842319
 20
2355.861641939901
 30
0.0
 11
1509.044249842319
 21
2355.861641939901
 31
0.0
  0
LINE
  5
808
330
730
100
AcDbEntity
  8
Bemaßungen(DIN)
  6
Continuous
 62
     7
370
    25
100
AcDbLine
 10
1357.044249842319
 20
2355.861641939901
 30
0.0
 11
1308.533968764808
 21
2355.861641939901
 31
0.0
  0
SOLID
  5
809
330
730
100
AcDbEntity
  8
Bemaßungen(DIN)
  6
Continuous
 62
     7
100
AcDbTrace
 10
1461.044249842319
 20
2363.8616419399
 30
0.0
 11
1461.044249842319
 21
2347.8616419399
 31
0.0
 12
1413.044249842319
 22
2355.861641939901
 32
0.0
 13
1413.044249842319
 23
2355.861641939901
 33
0.0
  0
SOLID
  5
80A
330
730
100
AcDbEntity
  8
Bemaßungen(DIN)
  6
Continuous
 62
     7
100
AcDbTrace
 10
1357.044249842319
 20
2363.8616419399
 30
0.0
 11
1357.044249842319
 21
2347.8616419399
 31
0.0
 12
1405.044249842319
 22
2355.861641939901
 32
0.0
 13
1405.044249842319
 23
2355.861641939901
 33
0.0
  0
MTEXT
  5
80B
330
730
100
AcDbEntity
  8
Bemaßungen(DIN)
  6
Continuous
 62
     7
370
    30
100
AcDbMText
 10
1219.828923047821
 20
2355.861641939901
 30
0.0
 40
48.0
 41
0.0
 71
     4
 72
     1
  1
\A1;\fArial|b0|i0;\H48.0000;M8
  7
Text__4.0mm
 73
     1
 44
1.0
1001
ACAD
1000
MTEXTBEGIN
1070
    73
1070
     1
1070
    44
1040
1.0
1070
    74
1070
     0
1000
MTEXTEND
  0
POINT
  5
80C
330
730
100
AcDbEntity
  8
Defpoints
  6
Continuous
 62
     0
100
AcDbPoint
 10
1405.044249842319
 20
2409.930341844173
 30
0.0
  0
POINT
  5
80D
330
730
100
AcDbEntity
  8
Defpoints
  6
Continuous
 62
     0
100
AcDbPoint
 10
1413.044249842319
 20
2409.930341844173
 30
0.0
  0
POINT
  5
80E
330
730
100
AcDbEntity
  8
Defpoints
  6
Continuous
 62
     0
100
AcDbPoint
 10
1413.044249842319
 20
2355.861641939901
 30
0.0
  0
ENDBLK
  5
732
330
730
100
AcDbEntity
  8
0
100
AcDbBlockEnd
  0
BLOCK
  5
811
330
810
100
AcDbEntity
  8
0
100
AcDbBlockBegin
  2
*D16
 70
     1
 10
0.0
 20
0.0
 30
0.0
  3
*D16
  1

  0
LINE
  5
8E5
330
810
100
AcDbEntity
  8
Bemaßungen(DIN)
  6
Continuous
 62
     7
370
    25
100
AcDbLine
 10
606.0442498423189
 20
2041.930341844173
 30
0.0
 11
606.0442498423189
 21
1921.930341844173
 31
0.0
  0
LINE
  5
8E6
330
810
100
AcDbEntity
  8
Bemaßungen(DIN)
  6
Continuous
 62
     7
370
    25
100
AcDbLine
 10
906.044249842319
 20
2041.930341844173
 30
0.0
 11
906.044249842319
 21
1921.930341844173
 31
0.0
  0
LINE
  5
8E7
330
810
100
AcDbEntity
  8
Bemaßungen(DIN)
  6
Continuous
 62
     7
370
    25
100
AcDbLine
 10
654.0442498423189
 20
1945.930341844173
 30
0.0
 11
672.8939106630392
 21
1945.930341844173
 31
0.0
  0
LINE
  5
8E8
330
810
100
AcDbEntity
  8
Bemaßungen(DIN)
  6
Continuous
 62
     7
370
    25
100
AcDbLine
 10
858.044249842319
 20
1945.930341844173
 30
0.0
 11
839.1945890215989
 21
1945.930341844173
 31
0.0
  0
SOLID
  5
8E9
330
810
100
AcDbEntity
  8
Bemaßungen(DIN)
  6
Continuous
 62
     7
100
AcDbTrace
 10
654.0442498423189
 20
1953.930341844173
 30
0.0
 11
654.0442498423189
 21
1937.930341844173
 31
0.0
 12
606.0442498423189
 22
1945.930341844173
 32
0.0
 13
606.0442498423189
 23
1945.930341844173
 33
0.0
  0
SOLID
  5
8EA
330
810
100
AcDbEntity
  8
Bemaßungen(DIN)
  6
Continuous
 62
     7
100
AcDbTrace
 10
858.044249842319
 20
1953.930341844173
 30
0.0
 11
858.044249842319
 21
1937.930341844173
 31
0.0
 12
906.044249842319
 22
1945.930341844173
 32
0.0
 13
906.044249842319
 23
1945.930341844173
 33
0.0
  0
MTEXT
  5
8EB
330
810
100
AcDbEntity
  8
Bemaßungen(DIN)
  6
Continuous
 62
     7
370
    30
100
AcDbMText
 10
684.8939106630393
 20
1945.930341844173
 30
0.0
 40
48.0
 41
0.0
 71
     4
 72
     1
  1
\A1;\fArial|b0|i0;\H48.0000;Ø300
  7
Text__4.0mm
 73
     1
 44
1.0
1001
ACAD
1000
MTEXTBEGIN
1070
    73
1070
     1
1070
    44
1040
1.0
1070
    74
1070
     0
1000
MTEXTEND
  0
POINT
  5
8EC
330
810
100
AcDbEntity
  8
Defpoints
  6
Continuous
 62
     0
100
AcDbPoint
 10
606.0442498423189
 20
2065.930341844174
 30
0.0
  0
POINT
  5
8ED
330
810
100
AcDbEntity
  8
Defpoints
  6
Continuous
 62
     0
100
AcDbPoint
 10
906.044249842319
 20
2065.930341844174
 30
0.0
  0
POINT
  5
8EE
330
810
100
AcDbEntity
  8
Defpoints
  6
Continuous
 62
     0
100
AcDbPoint
 10
906.044249842319
 20
1945.930341844173
 30
0.0
  0
ENDBLK
  5
812
330
810
100
AcDbEntity
  8
0
100
AcDbBlockEnd
  0
BLOCK
  5
8F1
330
8F0
100
AcDbEntity
  8
0
100
AcDbBlockBegin
  2
*D17
 70
     1
 10
0.0
 20
0.0
 30
0.0
  3
*D17
  1

  0
LINE
  5
9C6
330
8F0
100
AcDbEntity
  8
Bemaßungen(DIN)
  6
Continuous
 62
     7
370
    25
100
AcDbLine
 10
506.0442498423189
 20
2241.930341844173
 30
0.0
 11
506.0442498423189
 21
1833.930341844173
 31
0.0
  0
LINE
  5
9C7
330
8F0
100
AcDbEntity
  8
Bemaßungen(DIN)
  6
Continuous
 62
     7
370
    25
100
AcDbLine
 10
1006.044249842319
 20
2241.930341844173
 30
0.0
 11
1006.044249842319
 21
1833.930341844173
 31
0.0
  0
LINE
  5
9C8
330
8F0
100
AcDbEntity
  8
Bemaßungen(DIN)
  6
Continuous
 62
     7
370
    25
100
AcDbLine
 10
554.044249842319
 20
1857.930341844173
 30
0.0
 11
671.2715089333812
 21
1857.930341844173
 31
0.0
  0
LINE
  5
9C9
330
8F0
100
AcDbEntity
  8
Bemaßungen(DIN)
  6
Continuous
 62
     7
370
    25
100
AcDbLine
 10
958.0442498423192
 20
1857.930341844173
 30
0.0
 11
840.8169907512567
 21
1857.930341844173
 31
0.0
  0
SOLID
  5
9CA
330
8F0
100
AcDbEntity
  8
Bemaßungen(DIN)
  6
Continuous
 62
     7
100
AcDbTrace
 10
554.044249842319
 20
1865.930341844173
 30
0.0
 11
554.044249842319
 21
1849.930341844173
 31
0.0
 12
506.0442498423189
 22
1857.930341844173
 32
0.0
 13
506.0442498423189
 23
1857.930341844173
 33
0.0
  0
SOLID
  5
9CB
330
8F0
100
AcDbEntity
  8
Bemaßungen(DIN)
  6
Continuous
 62
     7
100
AcDbTrace
 10
958.0442498423192
 20
1865.930341844173
 30
0.0
 11
958.0442498423192
 21
1849.930341844173
 31
0.0
 12
1006.044249842319
 22
1857.930341844173
 32
0.0
 13
1006.044249842319
 23
1857.930341844173
 33
0.0
  0
MTEXT
  5
9CC
330
8F0
100
AcDbEntity
  8
Bemaßungen(DIN)
  6
Continuous
 62
     7
370
    30
100
AcDbMText
 10
683.2715089333812
 20
1857.930341844173
 30
0.0
 40
48.0
 41
0.0
 71
     4
 72
     1
  1
\A1;\fAIGDT|b0|i0;\H48.0000;o\fArial|b0|i0;\H48.0000;500
  7
Text__4.0mm
 73
     1
 44
1.0
1001
ACAD
1000
MTEXTBEGIN
1070
    73
1070
     1
1070
    44
1040
1.0
1070
    74
1070
     0
1000
MTEXTEND
  0
POINT
  5
9CD
330
8F0
100
AcDbEntity
  8
Defpoints
  6
Continuous
 62
     0
100
AcDbPoint
 10
506.0442498423189
 20
2265.930341844173
 30
0.0
  0
POINT
  5
9CE
330
8F0
100
AcDbEntity
  8
Defpoints
  6
Continuous
 62
     0
100
AcDbPoint
 10
1006.044249842319
 20
2265.930341844173
 30
0.0
  0
POINT
  5
9CF
330
8F0
100
AcDbEntity
  8
Defpoints
  6
Continuous
 62
     0
100
AcDbPoint
 10
1006.044249842319
 20
1857.930341844173
 30
0.0
  0
ENDBLK
  5
8F2
330
8F0
100
AcDbEntity
  8
0
100
AcDbBlockEnd
  0
BLOCK
  5
9D4
330
9D3
100
AcDbEntity
  8
0
100
AcDbBlockBegin
  2
*D18
 70
     1
 10
0.0
 20
0.0
 30
0.0
  3
*D18
  1

  0
LINE
  5
AA8
330
9D3
100
AcDbEntity
  8
Bemaßungen(DIN)
  6
Continuous
 62
     7
370
    25
100
AcDbLine
 10
1975.764440720096
 20
2018.034138359804
 30
0.0
 11
1975.764440720096
 21
1897.284138359804
 31
0.0
  0
LINE
  5
AA9
330
9D3
100
AcDbEntity
  8
Bemaßungen(DIN)
  6
Continuous
 62
     7
370
    25
100
AcDbLine
 10
2013.864440720097
 20
2017.284138359805
 30
0.0
 11
2013.864440720097
 21
1897.284138359804
 31
0.0
  0
LINE
  5
AAA
330
9D3
100
AcDbEntity
  8
Bemaßungen(DIN)
  6
Continuous
 62
     7
370
    25
100
AcDbLine
 10
2061.864440720096
 20
1921.284138359804
 30
0.0
 11
2109.864440720096
 21
1921.284138359804
 31
0.0
  0
LINE
  5
AAB
330
9D3
100
AcDbEntity
  8
Bemaßungen(DIN)
  6
Continuous
 62
     7
370
    25
100
AcDbLine
 10
1927.764440720096
 20
1921.284138359804
 30
0.0
 11
1879.764440720096
 21
1921.284138359804
 31
0.0
  0
SOLID
  5
AAC
330
9D3
100
AcDbEntity
  8
Bemaßungen(DIN)
  6
Continuous
 62
     7
100
AcDbTrace
 10
2061.864440720096
 20
1929.284138359804
 30
0.0
 11
2061.864440720096
 21
1913.284138359804
 31
0.0
 12
2013.864440720097
 22
1921.284138359804
 32
0.0
 13
2013.864440720097
 23
1921.284138359804
 33
0.0
  0
SOLID
  5
AAD
330
9D3
100
AcDbEntity
  8
Bemaßungen(DIN)
  6
Continuous
 62
     7
100
AcDbTrace
 10
1927.764440720096
 20
1929.284138359804
 30
0.0
 11
1927.764440720096
 21
1913.284138359804
 31
0.0
 12
1975.764440720096
 22
1921.284138359804
 32
0.0
 13
1975.764440720096
 23
1921.284138359804
 33
0.0
  0
MTEXT
  5
AAE
330
9D3
100
AcDbEntity
  8
Bemaßungen(DIN)
  6
Continuous
 62
     7
370
    30
100
AcDbMText
 10
1805.822832538342
 20
1921.284138359804
 30
0.0
 40
48.0
 41
0.0
 71
     4
 72
     1
  1
\A1;38
  7
Text__4.0mm
 73
     1
 44
1.0
1001
ACAD
1000
MTEXTBEGIN
1070
    73
1070
     1
1070
    44
1040
1.0
1070
    74
1070
     0
1000
MTEXTEND
  0
POINT
  5
AAF
330
9D3
100
AcDbEntity
  8
Defpoints
  6
Continuous
 62
     0
100
AcDbPoint
 10
1975.764440720096
 20
2042.034138359804
 30
0.0
  0
POINT
  5
AB0
330
9D3
100
AcDbEntity
  8
Defpoints
  6
Continuous
 62
     0
100
AcDbPoint
 10
2013.864440720097
 20
2041.284138359804
 30
0.0
  0
POINT
  5
AB1
330
9D3
100
AcDbEntity
  8
Defpoints
  6
Continuous
 62
     0
100
AcDbPoint
 10
2013.864440720097
 20
1921.284138359804
 30
0.0
  0
ENDBLK
  5
9D5
330
9D3
100
AcDbEntity
  8
0
100
AcDbBlockEnd
  0
BLOCK
  5
AB4
330
AB3
100
AcDbEntity
  8
0
100
AcDbBlockBegin
  2
*D19
 70
     1
 10
0.0
 20
0.0
 30
0.0
  3
*D19
  1

  0
LINE
  5
B83
330
AB3
100
AcDbEntity
  8
Bemaßungen(DIN)
  6
Continuous
 62
     7
370
    25
100
AcDbLine
 10
460.04424984172
 20
1532.864777198592
 30
0.0
 11
1717.371471803685
 21
1532.864777198592
 31
0.0
  0
LINE
  5
B84
330
AB3
100
AcDbEntity
  8
Bemaßungen(DIN)
  6
Continuous
 62
     7
370
    25
100
AcDbLine
 10
460.04424984172
 20
932.8647771985922
 30
0.0
 11
1717.371471803685
 21
932.8647771985918
 31
0.0
  0
LINE
  5
B85
330
AB3
100
AcDbEntity
  8
Bemaßungen(DIN)
  6
Continuous
 62
     7
370
    25
100
AcDbLine
 10
1693.371471803686
 20
1484.864777198592
 30
0.0
 11
1693.371471803686
 21
1279.849017996613
 31
0.0
  0
LINE
  5
B86
330
AB3
100
AcDbEntity
  8
Bemaßungen(DIN)
  6
Continuous
 62
     7
370
    25
100
AcDbLine
 10
1693.371471803686
 20
980.8647771985921
 30
0.0
 11
1693.371471803686
 21
1206.834011175331
 31
0.0
  0
SOLID
  5
B87
330
AB3
100
AcDbEntity
  8
Bemaßungen(DIN)
  6
Continuous
 62
     7
100
AcDbTrace
 10
1685.371471803685
 20
1484.864777198592
 30
0.0
 11
1701.371471803685
 21
1484.864777198592
 31
0.0
 12
1693.371471803686
 22
1532.864777198592
 32
0.0
 13
1693.371471803686
 23
1532.864777198592
 33
0.0
  0
SOLID
  5
B88
330
AB3
100
AcDbEntity
  8
Bemaßungen(DIN)
  6
Continuous
 62
     7
100
AcDbTrace
 10
1685.371471803685
 20
980.8647771985921
 30
0.0
 11
1701.371471803685
 21
980.8647771985921
 31
0.0
 12
1693.371471803686
 22
932.8647771985918
 32
0.0
 13
1693.371471803686
 23
932.8647771985918
 33
0.0
  0
MTEXT
  5
B89
330
AB3
100
AcDbEntity
  8
Bemaßungen(DIN)
  6
Continuous
 62
     7
370
    30
100
AcDbMText
 10
1645.603942373322
 20
1243.341514585973
 30
0.0
 40
48.0
 41
0.0
 71
     4
 72
     1
  1
\A1;600
  7
Text__4.0mm
 73
     1
 44
1.0
1001
ACAD
1000
MTEXTBEGIN
1070
    73
1070
     1
1070
    44
1040
1.0
1070
    74
1070
     0
1000
MTEXTEND
  0
POINT
  5
B8A
330
AB3
100
AcDbEntity
  8
Defpoints
  6
Continuous
 62
     0
100
AcDbPoint
 10
436.0442498417202
 20
1532.864777198592
 30
0.0
  0
POINT
  5
B8B
330
AB3
100
AcDbEntity
  8
Defpoints
  6
Continuous
 62
     0
100
AcDbPoint
 10
436.0442498417202
 20
932.8647771985922
 30
0.0
  0
POINT
  5
B8C
330
AB3
100
AcDbEntity
  8
Defpoints
  6
Continuous
 62
     0
100
AcDbPoint
 10
1693.371471803686
 20
932.8647771985918
 30
0.0
  0
ENDBLK
  5
AB5
330
AB3
100
AcDbEntity
  8
0
100
AcDbBlockEnd
  0
BLOCK
  5
B8F
330
B8E
100
AcDbEntity
  8
0
100
AcDbBlockBegin
  2
*D20
 70
     1
 10
0.0
 20
0.0
 30
0.0
  3
*D20
  1

  0
LINE
  5
C63
330
B8E
100
AcDbEntity
  8
Bemaßungen(DIN)
  6
Continuous
 62
     7
370
    25
100
AcDbLine
 10
436.0442498417202
 20
1556.864777198592
 30
0.0
 11
436.0442498417202
 21
1750.297406258949
 31
0.0
  0
LINE
  5
C64
330
B8E
100
AcDbEntity
  8
Bemaßungen(DIN)
  6
Continuous
 62
     7
370
    25
100
AcDbLine
 10
1436.04424984172
 20
1556.864777198592
 30
0.0
 11
1436.04424984172
 21
1750.297406258949
 31
0.0
  0
LINE
  5
C65
330
B8E
100
AcDbEntity
  8
Bemaßungen(DIN)
  6
Continuous
 62
     7
370
    25
100
AcDbLine
 10
484.0442498417202
 20
1726.297406258949
 30
0.0
 11
861.6458886024885
 21
1726.297406258949
 31
0.0
  0
LINE
  5
C66
330
B8E
100
AcDbEntity
  8
Bemaßungen(DIN)
  6
Continuous
 62
     7
370
    25
100
AcDbLine
 10
1388.04424984172
 20
1726.297406258949
 30
0.0
 11
1010.442611080952
 21
1726.297406258949
 31
0.0
  0
SOLID
  5
C67
330
B8E
100
AcDbEntity
  8
Bemaßungen(DIN)
  6
Continuous
 62
     7
100
AcDbTrace
 10
484.0442498417202
 20
1734.297406258949
 30
0.0
 11
484.0442498417202
 21
1718.297406258949
 31
0.0
 12
436.0442498417202
 22
1726.297406258949
 32
0.0
 13
436.0442498417202
 23
1726.297406258949
 33
0.0
  0
SOLID
  5
C68
330
B8E
100
AcDbEntity
  8
Bemaßungen(DIN)
  6
Continuous
 62
     7
100
AcDbTrace
 10
1388.04424984172
 20
1734.297406258949
 30
0.0
 11
1388.04424984172
 21
1718.297406258949
 31
0.0
 12
1436.04424984172
 22
1726.297406258949
 32
0.0
 13
1436.04424984172
 23
1726.297406258949
 33
0.0
  0
MTEXT
  5
C69
330
B8E
100
AcDbEntity
  8
Bemaßungen(DIN)
  6
Continuous
 62
     7
370
    30
100
AcDbMText
 10
873.6458886024884
 20
1726.297406258949
 30
0.0
 40
48.0
 41
0.0
 71
     4
 72
     1
  1
\A1;1000
  7
Text__4.0mm
 73
     1
 44
1.0
1001
ACAD
1000
MTEXTBEGIN
1070
    73
1070
     1
1070
    44
1040
1.0
1070
    74
1070
     0
1000
MTEXTEND
  0
POINT
  5
C6A
330
B8E
100
AcDbEntity
  8
Defpoints
  6
Continuous
 62
     0
100
AcDbPoint
 10
436.0442498417202
 20
1532.864777198592
 30
0.0
  0
POINT
  5
C6B
330
B8E
100
AcDbEntity
  8
Defpoints
  6
Continuous
 62
     0
100
AcDbPoint
 10
1436.04424984172
 20
1532.864777198592
 30
0.0
  0
POINT
  5
C6C
330
B8E
100
AcDbEntity
  8
Defpoints
  6
Continuous
 62
     0
100
AcDbPoint
 10
1436.04424984172
 20
1726.297406258949
 30
0.0
  0
ENDBLK
  5
B90
330
B8E
100
AcDbEntity
  8
0
100
AcDbBlockEnd
  0
BLOCK
  5
C6F
330
C6E
100
AcDbEntity
  8
0
100
AcDbBlockBegin
  2
*D21
 70
     1
 10
0.0
 20
0.0
 30
0.0
  3
*D21
  1

  0
LINE
  5
D43
330
C6E
100
AcDbEntity
  8
Bemaßungen(DIN)
  6
Continuous
 62
     7
370
    25
100
AcDbLine
 10
507.5442498417202
 20
1416.864777198588
 30
0.0
 11
507.5442498417202
 21
1676.864777198592
 31
0.0
  0
LINE
  5
D44
330
C6E
100
AcDbEntity
  8
Bemaßungen(DIN)
  6
Continuous
 62
     7
370
    25
100
AcDbLine
 10
436.0442498417202
 20
1556.864777198592
 30
0.0
 11
436.0442498417202
 21
1676.864777198592
 31
0.0
  0
LINE
  5
D45
330
C6E
100
AcDbEntity
  8
Bemaßungen(DIN)
  6
Continuous
 62
     7
370
    25
100
AcDbLine
 10
388.0442498417202
 20
1652.864777198592
 30
0.0
 11
340.0442498417202
 21
1652.864777198592
 31
0.0
  0
LINE
  5
D46
330
C6E
100
AcDbEntity
  8
Bemaßungen(DIN)
  6
Continuous
 62
     7
370
    25
100
AcDbLine
 10
555.5442498417201
 20
1652.864777198592
 30
0.0
 11
603.5442498417203
 21
1652.864777198592
 31
0.0
  0
SOLID
  5
D47
330
C6E
100
AcDbEntity
  8
Bemaßungen(DIN)
  6
Continuous
 62
     7
100
AcDbTrace
 10
388.0442498417202
 20
1660.864777198592
 30
0.0
 11
388.0442498417202
 21
1644.864777198591
 31
0.0
 12
436.0442498417202
 22
1652.864777198592
 32
0.0
 13
436.0442498417202
 23
1652.864777198592
 33
0.0
  0
SOLID
  5
D48
330
C6E
100
AcDbEntity
  8
Bemaßungen(DIN)
  6
Continuous
 62
     7
100
AcDbTrace
 10
555.5442498417201
 20
1660.864777198592
 30
0.0
 11
555.5442498417201
 21
1644.864777198591
 31
0.0
 12
507.5442498417202
 22
1652.864777198592
 32
0.0
 13
507.5442498417202
 23
1652.864777198592
 33
0.0
  0
MTEXT
  5
D49
330
C6E
100
AcDbEntity
  8
Bemaßungen(DIN)
  6
Continuous
 62
     7
370
    30
100
AcDbMText
 10
615.5442498417203
 20
1652.864777198592
 30
0.0
 40
48.0
 41
0.0
 71
     4
 72
     1
  1
\A1;72
  7
Text__4.0mm
 73
     1
 44
1.0
1001
ACAD
1000
MTEXTBEGIN
1070
    73
1070
     1
1070
    44
1040
1.0
1070
    74
1070
     0
1000
MTEXTEND
  0
POINT
  5
D4A
330
C6E
100
AcDbEntity
  8
Defpoints
  6
Continuous
 62
     0
100
AcDbPoint
 10
507.5442498417202
 20
1392.864777198588
 30
0.0
  0
POINT
  5
D4B
330
C6E
100
AcDbEntity
  8
Defpoints
  6
Continuous
 62
     0
100
AcDbPoint
 10
436.0442498417202
 20
1532.864777198592
 30
0.0
  0
POINT
  5
D4C
330
C6E
100
AcDbEntity
  8
Defpoints
  6
Continuous
 62
     0
100
AcDbPoint
 10
436.0442498417202
 20
1652.864777198592
 30
0.0
  0
ENDBLK
  5
C70
330
C6E
100
AcDbEntity
  8
0
100
AcDbBlockEnd
  0
BLOCK
  5
D4F
330
D4E
100
AcDbEntity
  8
0
100
AcDbBlockBegin
  2
*D22
 70
     1
 10
0.0
 20
0.0
 30
0.0
  3
*D22
  1

  0
LINE
  5
E20
330
D4E
100
AcDbEntity
  8
Bemaßungen(DIN)
  6
Continuous
 62
     7
370
    25
100
AcDbLine
 10
1460.04424984172
 20
1532.864777198592
 30
0.0
 11
1578.54424984172
 21
1532.864777198591
 31
0.0
  0
LINE
  5
E21
330
D4E
100
AcDbEntity
  8
Bemaßungen(DIN)
  6
Continuous
 62
     7
370
    25
100
AcDbLine
 10
990.0442498417204
 20
1431.364777198588
 30
0.0
 11
1578.54424984172
 21
1431.364777198588
 31
0.0
  0
LINE
  5
E22
330
D4E
100
AcDbEntity
  8
Bemaßungen(DIN)
  6
Continuous
 62
     7
370
    25
100
AcDbLine
 10
1554.54424984172
 20
1580.864777198591
 30
0.0
 11
1554.54424984172
 21
1628.864777198591
 31
0.0
  0
LINE
  5
E23
330
D4E
100
AcDbEntity
  8
Bemaßungen(DIN)
  6
Continuous
 62
     7
370
    25
100
AcDbLine
 10
1554.54424984172
 20
1383.364777198587
 30
0.0
 11
1554.54424984172
 21
1335.364777198587
 31
0.0
  0
SOLID
  5
E24
330
D4E
100
AcDbEntity
  8
Bemaßungen(DIN)
  6
Continuous
 62
     7
100
AcDbTrace
 10
1546.54424984172
 20
1580.864777198591
 30
0.0
 11
1562.54424984172
 21
1580.864777198591
 31
0.0
 12
1554.54424984172
 22
1532.864777198591
 32
0.0
 13
1554.54424984172
 23
1532.864777198591
 33
0.0
  0
SOLID
  5
E25
330
D4E
100
AcDbEntity
  8
Bemaßungen(DIN)
  6
Continuous
 62
     7
100
AcDbTrace
 10
1546.54424984172
 20
1383.364777198587
 30
0.0
 11
1562.54424984172
 21
1383.364777198587
 31
0.0
 12
1554.54424984172
 22
1431.364777198588
 32
0.0
 13
1554.54424984172
 23
1431.364777198588
 33
0.0
  0
MTEXT
  5
E26
330
D4E
100
AcDbEntity
  8
Bemaßungen(DIN)
  6
Continuous
 62
     7
370
    30
100
AcDbMText
 10
1509.075219668338
 20
1482.11477719859
 30
0.0
 40
48.0
 41
0.0
 71
     4
 72
     1
  1
\A1;102
  7
Text__4.0mm
 73
     1
 44
1.0
1001
ACAD
1000
MTEXTBEGIN
1070
    73
1070
     1
1070
    44
1040
1.0
1070
    74
1070
     0
1000
MTEXTEND
  0
POINT
  5
E27
330
D4E
100
AcDbEntity
  8
Defpoints
  6
Continuous
 62
     0
100
AcDbPoint
 10
1436.04424984172
 20
1532.864777198592
 30
0.0
  0
POINT
  5
E28
330
D4E
100
AcDbEntity
  8
Defpoints
  6
Continuous
 62
     0
100
AcDbPoint
 10
966.0442498417204
 20
1431.364777198588
 30
0.0
  0
POINT
  5
E29
330
D4E
100
AcDbEntity
  8
Defpoints
  6
Continuous
 62
     0
100
AcDbPoint
 10
1554.54424984172
 20
1431.364777198588
 30
0.0
  0
ENDBLK
  5
D50
330
D4E
100
AcDbEntity
  8
0
100
AcDbBlockEnd
  0
BLOCK
  5
E2C
330
E2B
100
AcDbEntity
  8
0
100
AcDbBlockBegin
  2
*D23
 70
     1
 10
0.0
 20
0.0
 30
0.0
  3
*D23
  1

  0
LINE
  5
F00
330
E2B
100
AcDbEntity
  8
Bemaßungen(DIN)
  6
Continuous
 62
     7
370
    25
100
AcDbLine
 10
1699.814440720019
 20
2483.930341844173
 30
0.0
 11
1699.814440720019
 21
2695.588706872414
 31
0.0
  0
LINE
  5
F01
330
E2B
100
AcDbEntity
  8
Bemaßungen(DIN)
  6
Continuous
 62
     7
370
    25
100
AcDbLine
 10
2239.814440720019
 20
2483.930341844173
 30
0.0
 11
2239.814440720019
 21
2695.588706872414
 31
0.0
  0
LINE
  5
F02
330
E2B
100
AcDbEntity
  8
Bemaßungen(DIN)
  6
Continuous
 62
     7
370
    25
100
AcDbLine
 10
1747.814440720019
 20
2671.588706872413
 30
0.0
 11
1910.164783046424
 21
2671.588706872413
 31
0.0
  0
LINE
  5
F03
330
E2B
100
AcDbEntity
  8
Bemaßungen(DIN)
  6
Continuous
 62
     7
370
    25
100
AcDbLine
 10
2191.814440720019
 20
2671.588706872413
 30
0.0
 11
2029.464098393614
 21
2671.588706872413
 31
0.0
  0
SOLID
  5
F04
330
E2B
100
AcDbEntity
  8
Bemaßungen(DIN)
  6
Continuous
 62
     7
100
AcDbTrace
 10
1747.814440720019
 20
2679.588706872414
 30
0.0
 11
1747.814440720019
 21
2663.588706872414
 31
0.0
 12
1699.814440720019
 22
2671.588706872413
 32
0.0
 13
1699.814440720019
 23
2671.588706872413
 33
0.0
  0
SOLID
  5
F05
330
E2B
100
AcDbEntity
  8
Bemaßungen(DIN)
  6
Continuous
 62
     7
100
AcDbTrace
 10
2191.814440720019
 20
2679.588706872414
 30
0.0
 11
2191.814440720019
 21
2663.588706872414
 31
0.0
 12
2239.814440720019
 22
2671.588706872413
 32
0.0
 13
2239.814440720019
 23
2671.588706872413
 33
0.0
  0
MTEXT
  5
F06
330
E2B
100
AcDbEntity
  8
Bemaßungen(DIN)
  6
Continuous
 62
     7
370
    30
100
AcDbMText
 10
1922.164783046424
 20
2671.588706872413
 30
0.0
 40
48.0
 41
0.0
 71
     4
 72
     1
  1
\A1;540
  7
Text__4.0mm
 73
     1
 44
1.0
1001
ACAD
1000
MTEXTBEGIN
1070
    73
1070
     1
1070
    44
1040
1.0
1070
    74
1070
     0
1000
MTEXTEND
  0
POINT
  5
F07
330
E2B
100
AcDbEntity
  8
Defpoints
  6
Continuous
 62
     0
100
AcDbPoint
 10
1699.814440720019
 20
2459.930341844173
 30
0.0
  0
POINT
  5
F08
330
E2B
100
AcDbEntity
  8
Defpoints
  6
Continuous
 62
     0
100
AcDbPoint
 10
2239.814440720019
 20
2459.930341844173
 30
0.0
  0
POINT
  5
F09
330
E2B
100
AcDbEntity
  8
Defpoints
  6
Continuous
 62
     0
100
AcDbPoint
 10
2239.814440720019
 20
2671.588706872413
 30
0.0
  0
ENDBLK
  5
E2D
330
E2B
100
AcDbEntity
  8
0
100
AcDbBlockEnd
  0
BLOCK
  5
F0C
330
F0B
100
AcDbEntity
  8
0
100
AcDbBlockBegin
  2
*D24
 70
     1
 10
0.0
 20
0.0
 30
0.0
  3
*D24
  1

  0
LINE
  5
FE0
330
F0B
100
AcDbEntity
  8
Bemaßungen(DIN)
  6
Continuous
 62
     7
370
    25
100
AcDbLine
 10
1756.31444072001
 20
2473.930341844174
 30
0.0
 11
1756.31444072001
 21
2593.930341844173
 31
0.0
  0
LINE
  5
FE1
330
F0B
100
AcDbEntity
  8
Bemaßungen(DIN)
  6
Continuous
 62
     7
370
    25
100
AcDbLine
 10
2188.31444072001
 20
2473.930341844174
 30
0.0
 11
2188.31444072001
 21
2593.930341844173
 31
0.0
  0
LINE
  5
FE2
330
F0B
100
AcDbEntity
  8
Bemaßungen(DIN)
  6
Continuous
 62
     7
370
    25
100
AcDbLine
 10
1804.31444072001
 20
2569.930341844174
 30
0.0
 11
1911.942818536209
 21
2569.930341844174
 31
0.0
  0
LINE
  5
FE3
330
F0B
100
AcDbEntity
  8
Bemaßungen(DIN)
  6
Continuous
 62
     7
370
    25
100
AcDbLine
 10
2140.31444072001
 20
2569.930341844174
 30
0.0
 11
2032.686062903811
 21
2569.930341844174
 31
0.0
  0
SOLID
  5
FE4
330
F0B
100
AcDbEntity
  8
Bemaßungen(DIN)
  6
Continuous
 62
     7
100
AcDbTrace
 10
1804.31444072001
 20
2577.930341844173
 30
0.0
 11
1804.31444072001
 21
2561.930341844173
 31
0.0
 12
1756.31444072001
 22
2569.930341844174
 32
0.0
 13
1756.31444072001
 23
2569.930341844174
 33
0.0
  0
SOLID
  5
FE5
330
F0B
100
AcDbEntity
  8
Bemaßungen(DIN)
  6
Continuous
 62
     7
100
AcDbTrace
 10
2140.31444072001
 20
2577.930341844173
 30
0.0
 11
2140.31444072001
 21
2561.930341844173
 31
0.0
 12
2188.31444072001
 22
2569.930341844174
 32
0.0
 13
2188.31444072001
 23
2569.930341844174
 33
0.0
  0
MTEXT
  5
FE6
330
F0B
100
AcDbEntity
  8
Bemaßungen(DIN)
  6
Continuous
 62
     7
370
    30
100
AcDbMText
 10
1923.942818536209
 20
2569.930341844174
 30
0.0
 40
48.0
 41
0.0
 71
     4
 72
     1
  1
\A1;432
  7
Text__4.0mm
 73
     1
 44
1.0
1001
ACAD
1000
MTEXTBEGIN
1070
    73
1070
     1
1070
    44
1040
1.0
1070
    74
1070
     0
1000
MTEXTEND
  0
POINT
  5
FE7
330
F0B
100
AcDbEntity
  8
Defpoints
  6
Continuous
 62
     0
100
AcDbPoint
 10
1756.31444072001
 20
2449.930341844174
 30
0.0
  0
POINT
  5
FE8
330
F0B
100
AcDbEntity
  8
Defpoints
  6
Continuous
 62
     0
100
AcDbPoint
 10
2188.31444072001
 20
2449.930341844174
 30
0.0
  0
POINT
  5
FE9
330
F0B
100
AcDbEntity
  8
Defpoints
  6
Continuous
 62
     0
100
AcDbPoint
 10
2188.31444072001
 20
2569.930341844174
 30
0.0
  0
ENDBLK
  5
F0D
330
F0B
100
AcDbEntity
  8
0
100
AcDbBlockEnd
  0
BLOCK
  5
FEC
330
FEB
100
AcDbEntity
  8
0
100
AcDbBlockBegin
  2
*D25
 70
     1
 10
0.0
 20
0.0
 30
0.0
  3
*D25
  1

  0
LINE
  5
10BB
330
FEB
100
AcDbEntity
  8
Bemaßungen(DIN)
  6
Continuous
 62
     7
370
    25
100
AcDbLine
 10
1645.814440720001
 20
2459.930341844173
 30
0.0
 11
1576.814440720097
 21
2459.930341844173
 31
0.0
  0
LINE
  5
10BC
330
FEB
100
AcDbEntity
  8
Bemaßungen(DIN)
  6
Continuous
 62
     7
370
    25
100
AcDbLine
 10
1840.814440720096
 20
2045.930341844173
 30
0.0
 11
1576.814440720097
 21
2045.930341844173
 31
0.0
  0
LINE
  5
10BD
330
FEB
100
AcDbEntity
  8
Bemaßungen(DIN)
  6
Continuous
 62
     7
370
    25
100
AcDbLine
 10
1600.814440720097
 20
2411.930341844173
 30
0.0
 11
1600.814440720097
 21
2289.028568310749
 31
0.0
  0
LINE
  5
10BE
330
FEB
100
AcDbEntity
  8
Bemaßungen(DIN)
  6
Continuous
 62
     7
370
    25
100
AcDbLine
 10
1600.814440720097
 20
2093.930341844173
 30
0.0
 11
1600.814440720097
 21
2216.832115377597
 31
0.0
  0
SOLID
  5
10BF
330
FEB
100
AcDbEntity
  8
Bemaßungen(DIN)
  6
Continuous
 62
     7
100
AcDbTrace
 10
1592.814440720097
 20
2411.930341844173
 30
0.0
 11
1608.814440720097
 21
2411.930341844173
 31
0.0
 12
1600.814440720097
 22
2459.930341844173
 32
0.0
 13
1600.814440720097
 23
2459.930341844173
 33
0.0
  0
SOLID
  5
10C0
330
FEB
100
AcDbEntity
  8
Bemaßungen(DIN)
  6
Continuous
 62
     7
100
AcDbTrace
 10
1592.814440720097
 20
2093.930341844173
 30
0.0
 11
1608.814440720097
 21
2093.930341844173
 31
0.0
 12
1600.814440720097
 22
2045.930341844173
 32
0.0
 13
1600.814440720097
 23
2045.930341844173
 33
0.0
  0
MTEXT
  5
10C1
330
FEB
100
AcDbEntity
  8
Bemaßungen(DIN)
  6
Continuous
 62
     7
370
    30
100
AcDbMText
 10
1552.310212809931
 20
2252.930341844173
 30
0.0
 40
48.0
 41
0.0
 71
     4
 72
     1
  1
\A1;414
  7
Text__4.0mm
 73
     1
 44
1.0
1001
ACAD
1000
MTEXTBEGIN
1070
    73
1070
     1
1070
    44
1040
1.0
1070
    74
1070
     0
1000
MTEXTEND
  0
POINT
  5
10C2
330
FEB
100
AcDbEntity
  8
Defpoints
  6
Continuous
 62
     0
100
AcDbPoint
 10
1669.814440720002
 20
2459.930341844173
 30
0.0
  0
POINT
  5
10C3
330
FEB
100
AcDbEntity
  8
Defpoints
  6
Continuous
 62
     0
100
AcDbPoint
 10
1864.814440720097
 20
2045.930341844173
 30
0.0
  0
POINT
  5
10C4
330
FEB
100
AcDbEntity
  8
Defpoints
  6
Continuous
 62
     0
100
AcDbPoint
 10
1600.814440720097
 20
2045.930341844173
 30
0.0
  0
ENDBLK
  5
FED
330
FEB
100
AcDbEntity
  8
0
100
AcDbBlockEnd
  0
BLOCK
  5
10C7
330
10C6
100
AcDbEntity
  8
0
100
AcDbBlockBegin
  2
*D26
 70
     1
 10
0.0
 20
0.0
 30
0.0
  3
*D26
  1

  0
LINE
  5
1196
330
10C6
100
AcDbEntity
  8
Bemaßungen(DIN)
  6
Continuous
 62
     7
370
    25
100
AcDbLine
 10
1785.814440720028
 20
2245.930341844173
 30
0.0
 11
1720.814440720097
 21
2245.930341844173
 31
0.0
  0
LINE
  5
1197
330
10C6
100
AcDbEntity
  8
Bemaßungen(DIN)
  6
Continuous
 62
     7
370
    25
100
AcDbLine
 10
1840.814440720096
 20
2045.930341844173
 30
0.0
 11
1720.814440720097
 21
2045.930341844173
 31
0.0
  0
LINE
  5
1198
330
10C6
100
AcDbEntity
  8
Bemaßungen(DIN)
  6
Continuous
 62
     7
370
    25
100
AcDbLine
 10
1744.814440720097
 20
2197.930341844173
 30
0.0
 11
1744.814440720097
 21
2182.437845254813
 31
0.0
  0
LINE
  5
1199
330
10C6
100
AcDbEntity
  8
Bemaßungen(DIN)
  6
Continuous
 62
     7
370
    25
100
AcDbLine
 10
1744.814440720097
 20
2093.930341844173
 30
0.0
 11
1744.814440720097
 21
2109.422838433531
 31
0.0
  0
SOLID
  5
119A
330
10C6
100
AcDbEntity
  8
Bemaßungen(DIN)
  6
Continuous
 62
     7
100
AcDbTrace
 10
1736.814440720097
 20
2197.930341844173
 30
0.0
 11
1752.814440720097
 21
2197.930341844173
 31
0.0
 12
1744.814440720097
 22
2245.930341844173
 32
0.0
 13
1744.814440720097
 23
2245.930341844173
 33
0.0
  0
SOLID
  5
119B
330
10C6
100
AcDbEntity
  8
Bemaßungen(DIN)
  6
Continuous
 62
     7
100
AcDbTrace
 10
1736.814440720097
 20
2093.930341844173
 30
0.0
 11
1752.814440720097
 21
2093.930341844173
 31
0.0
 12
1744.814440720097
 22
2045.930341844173
 32
0.0
 13
1744.814440720097
 23
2045.930341844173
 33
0.0
  0
MTEXT
  5
119C
330
10C6
100
AcDbEntity
  8
Bemaßungen(DIN)
  6
Continuous
 62
     7
370
    30
100
AcDbMText
 10
1696.796433806601
 20
2145.930341844173
 30
0.0
 40
48.0
 41
0.0
 71
     4
 72
     1
  1
\A1;200
  7
Text__4.0mm
 73
     1
 44
1.0
1001
ACAD
1000
MTEXTBEGIN
1070
    73
1070
     1
1070
    44
1040
1.0
1070
    74
1070
     0
1000
MTEXTEND
  0
POINT
  5
119D
330
10C6
100
AcDbEntity
  8
Defpoints
  6
Continuous
 62
     0
100
AcDbPoint
 10
1809.814440720028
 20
2245.930341844173
 30
0.0
  0
POINT
  5
119E
330
10C6
100
AcDbEntity
  8
Defpoints
  6
Continuous
 62
     0
100
AcDbPoint
 10
1864.814440720097
 20
2045.930341844173
 30
0.0
  0
POINT
  5
119F
330
10C6
100
AcDbEntity
  8
Defpoints
  6
Continuous
 62
     0
100
AcDbPoint
 10
1744.814440720097
 20
2045.930341844173
 30
0.0
  0
ENDBLK
  5
10C8
330
10C6
100
AcDbEntity
  8
0
100
AcDbBlockEnd
  0
ENDSEC
  0
SECTION
  2
ENTITIES
  0
INSERT
  5
297
330
75
100
AcDbEntity
  8
0
100
AcDbBlockReference
 66
     1
  2
Title Blocks WS-Marketing-FUN
 10
-1015.2
 20
-1143.290310157149
 30
0.0
 41
12.0
 42
12.0
 43
12.0
  0
ATTRIB
  5
299
330
297
100
AcDbEntity
  8
Symbols(ISO)
 62
     7
100
AcDbText
 10
1464.0
 20
339.0000000000009
 30
0.0
 40
60.0
  1
Franke Plaster Sink RH
  7
Parts-List_2.0mm
 11
1464.0
 21
369.0000000000008
 31
0.0
100
AcDbAttribute
  2
Title
 70
     0
 74
     2
  0
ATTRIB
  5
29A
330
297
100
AcDbEntity
  8
Symbols(ISO)
 62
     7
100
AcDbText
 10
1464.000000000001
 20
270.0000003576286
 30
0.0
 40
41.99999928474425
  1

  7
Parts-List_2.0mm
 11
1464.000000000001
 21
291.0000000000007
 31
0.0
100
AcDbAttribute
  2
Auxiliary_Remark1
 70
     0
 74
     2
  0
ATTRIB
  5
29B
330
297
100
AcDbEntity
  8
Symbols(ISO)
 62
     7
100
AcDbText
 10
1464.0
 20
192.0000003576287
 30
0.0
 40
41.99999928474425
  1

  7
Parts-List_2.0mm
 11
1464.0
 21
213.0000000000009
 31
0.0
100
AcDbAttribute
  2
Auxiliary_Remark2
 70
     0
 74
     2
  0
ATTRIB
  5
29C
330
297
100
AcDbEntity
  8
Symbols(ISO)
 62
     7
100
AcDbText
 10
1962.0
 20
534.0000000000007
 30
0.0
 40
30.0
  1
SIRX836
  7
Parts-List_2.0mm
 11
1962.0
 21
549.0000000000008
 31
0.0
100
AcDbAttribute
  2
Part_number
 70
     0
 74
     2
  0
ATTRIB
  5
29D
330
297
100
AcDbEntity
  8
Symbols(ISO)
 62
     7
100
AcDbText
 10
1602.0
 20
78.0
 30
0.0
 40
60.0
  1
0093-122436
  7
Parts-List_2.0mm
 11
1602.0
 21
108.0
 31
0.0
100
AcDbAttribute
  2
Document_Number
 70
     0
 74
     2
  0
ATTRIB
  5
29E
330
297
100
AcDbEntity
  8
Symbols(ISO)
 62
     7
100
AcDbText
 10
851.9999999999999
 20
488.9999996423724
 30
0.0
 40
24.00000035762787
  1

  7
Parts-List_2.0mm
 11
851.9999999999999
 21
513.0000000000003
 31
0.0
100
AcDbAttribute
  2
Revision_Memo_1
 70
     0
 74
     3
  0
ATTRIB
  5
29F
330
297
100
AcDbEntity
  8
Symbols(ISO)
 62
     7
100
AcDbText
 10
2160.0
 20
77.9999999999994
 30
0.0
 40
60.0
  1
D
  7
Parts-List_2.0mm
 11
2160.0
 21
107.9999999999994
 31
0.0
100
AcDbAttribute
  2
Revision_Index_1
 70
     0
 74
     2
  0
ATTRIB
  5
2A0
330
297
100
AcDbEntity
  8
Symbols(ISO)
 62
     7
100
AcDbText
 10
1452.0
 20
78.0
 30
0.0
 40
60.0
  1
A4
  7
Parts-List_2.0mm
 11
1452.0
 21
108.0
 31
0.0
100
AcDbAttribute
  2
Sheet_Size
 70
     0
 74
     2
  0
ATTRIB
  5
2A1
330
297
100
AcDbEntity
  8
Symbols(ISO)
 62
     7
100
AcDbText
 10
71.99999999999973
 20
536.9999998211868
 30
0.0
 40
24.00000035762787
  1
HK034
  7
Parts-List_2.0mm
 11
71.99999999999973
 21
549.0000000000008
 31
0.0
100
AcDbAttribute
  2
Drawn_By
 70
     0
 74
     2
  0
ATTRIB
  5
2A2
330
297
100
AcDbEntity
  8
Symbols(ISO)
 62
     7
100
AcDbText
 10
71.99999999999973
 20
446.9999998211869
 30
0.0
 40
24.00000035762787
  1
HK034
  7
Parts-List_2.0mm
 11
71.99999999999973
 21
459.0000000000008
 31
0.0
100
AcDbAttribute
  2
Modified_By
 70
     0
 74
     2
  0
ATTRIB
  5
2A3
330
297
100
AcDbEntity
  8
Symbols(ISO)
 62
     7
100
AcDbText
 10
612.0
 20
536.9999998211868
 30
0.0
 40
24.00000035762787
  1
15/01/2010
  7
Parts-List_2.0mm
 11
612.0
 21
549.0000000000008
 31
0.0
100
AcDbAttribute
  2
Drawn_Date
 70
     0
 74
     2
  0
ATTRIB
  5
2A4
330
297
100
AcDbEntity
  8
Symbols(ISO)
 62
     7
100
AcDbText
 10
612.0
 20
446.9999998211869
 30
0.0
 40
24.00000035762787
  1
22/02/2010
  7
Parts-List_2.0mm
 11
612.0
 21
459.0000000000008
 31
0.0
100
AcDbAttribute
  2
Modified_Date
 70
     0
 74
     2
  0
ATTRIB
  5
2A5
330
297
100
AcDbEntity
  8
Symbols(ISO)
 62
     7
100
AcDbText
 10
851.9999999999999
 20
536.9999998211864
 30
0.0
 40
24.00000035762787
  1

  7
Parts-List_2.0mm
 11
851.9999999999999
 21
549.0000000000003
 31
0.0
100
AcDbAttribute
  2
Revision_Titel_1
 70
     0
 74
     2
  0
ATTRIB
  5
2A6
330
297
100
AcDbEntity
  8
Symbols(ISO)
 62
     7
100
AcDbText
 10
2293.542974912454
 20
77.9999999999994
 30
0.0
 40
60.0
  1
1 
 41
0.899999976158142
  7
Text__5.0mm
 72
     1
 11
2325.0
 21
107.9999999999994
 31
0.0
100
AcDbAttribute
  2
Sheet_number
 70
     0
 74
     2
  0
ATTRIB
  5
2A7
330
297
100
AcDbEntity
  8
Symbols(ISO)
 62
     7
100
AcDbText
 10
2383.542974912454
 20
77.9999999999994
 30
0.0
 40
60.0
  1
4 
 41
0.899999976158142
  7
Text__5.0mm
 72
     1
 11
2415.0
 21
107.9999999999994
 31
0.0
100
AcDbAttribute
  2
Number_of_sheets
 70
     0
 74
     2
  0
ATTRIB
  5
2A8
330
297
100
AcDbEntity
  8
Symbols(ISO)
 62
     7
100
AcDbText
 10
1452.0
 20
444.0000000000006
 30
0.0
 40
30.0
  1

  7
Parts-List_2.0mm
 11
1452.0
 21
459.0000000000006
 31
0.0
100
AcDbAttribute
  2
FUN
 70
     0
 74
     2
  0
ATTRIB
  5
2A9
330
297
100
AcDbEntity
  8
Symbols(ISO)
 62
     7
100
AcDbText
 10
1962.0
 20
444.0000000000006
 30
0.0
 40
30.0
  1
7612210017568
  7
Parts-List_2.0mm
 11
1962.0
 21
459.0000000000006
 31
0.0
100
AcDbAttribute
  2
EAN
 70
     0
 74
     2
  0
ATTRIB
  5
2AA
330
297
100
AcDbEntity
  8
Symbols(ISO)
 62
     7
100
AcDbText
 10
311.9999999999998
 20
446.9999998211869
 30
0.0
 40
24.00000035762787
  1
FSI-Marketing
  7
Parts-List_2.0mm
 11
311.9999999999998
 21
459.0000000000008
 31
0.0
100
AcDbAttribute
  2
Departement
 70
     0
 74
     2
  0
ATTRIB
  5
2AB
330
297
100
AcDbEntity
  8
Symbols(ISO)
 62
     7
100
AcDbText
 10
311.9999999999998
 20
536.9999998211868
 30
0.0
 40
24.00000035762787
  1
FSI-Marketing
  7
Parts-List_2.0mm
 11
311.9999999999998
 21
549.0000000000008
 31
0.0
100
AcDbAttribute
  2
Departement
 70
     0
 74
     2
  0
SEQEND
  5
298
330
297
100
AcDbEntity
  8
0
  0
INSERT
  5
2B7
330
75
100
AcDbEntity
  8
0
100
AcDbBlockReference
  2
Borders Verkauf Border_85x80
 10
0.0
 20
0.0
 30
0.0
 41
12.0
 42
12.0
 43
12.0
  0
LINE
  5
2B8
330
75
100
AcDbEntity
  8
MaHiddenEdge
100
AcDbLine
 10
1404.044249842319
 20
2419.930341844173
 30
0.0
 11
1414.044249842319
 21
2419.930341844173
 31
0.0
  0
LINE
  5
2B9
330
75
100
AcDbEntity
  8
MaHiddenEdge
100
AcDbLine
 10
458.0442498423191
 20
2419.930341844173
 30
0.0
 11
468.044249842319
 21
2419.930341844173
 31
0.0
  0
LINE
  5
2BA
330
75
100
AcDbEntity
  8
MaHiddenEdge
100
AcDbLine
 10
1404.044249842319
 20
2410.930341844173
 30
0.0
 11
1404.044249842319
 21
2419.930341844173
 31
0.0
  0
LINE
  5
2BB
330
75
100
AcDbEntity
  8
MaHiddenEdge
100
AcDbLine
 10
1414.044249842319
 20
2410.930341844173
 30
0.0
 11
1414.044249842319
 21
2419.930341844173
 31
0.0
  0
LINE
  5
2BC
330
75
100
AcDbEntity
  8
MaHiddenEdge
100
AcDbLine
 10
458.0442498423188
 20
2410.930341844173
 30
0.0
 11
458.0442498423188
 21
2419.930341844173
 31
0.0
  0
LINE
  5
2BD
330
75
100
AcDbEntity
  8
MaHiddenEdge
100
AcDbLine
 10
468.044249842319
 20
2410.930341844173
 30
0.0
 11
468.044249842319
 21
2419.930341844173
 31
0.0
  0
LINE
  5
2BE
330
75
100
AcDbEntity
  8
MaHiddenEdge
100
AcDbLine
 10
1434.544249842319
 20
2410.930341844173
 30
0.0
 11
1396.044249842319
 21
2410.930341844173
 31
0.0
  0
LINE
  5
2BF
330
75
100
AcDbEntity
  8
MaHiddenEdge
100
AcDbLine
 10
1396.044249842319
 20
2410.930341844173
 30
0.0
 11
1396.044249842319
 21
2409.930341844173
 31
0.0
  0
LINE
  5
2C0
330
75
100
AcDbEntity
  8
MaHiddenEdge
100
AcDbLine
 10
476.0442498423187
 20
2410.930341844173
 30
0.0
 11
437.544249842319
 21
2410.930341844173
 31
0.0
  0
LINE
  5
2C1
330
75
100
AcDbEntity
  8
MaHiddenEdge
100
AcDbLine
 10
476.0442498423187
 20
2409.930341844173
 30
0.0
 11
476.0442498423187
 21
2410.930341844173
 31
0.0
  0
LINE
  5
2C2
330
75
100
AcDbEntity
  8
MaVisibleEdge
100
AcDbLine
 10
1436.044249842319
 20
2459.930341844173
 30
0.0
 11
1436.044249842319
 21
2409.930341844173
 31
0.0
  0
LINE
  5
2C3
330
75
100
AcDbEntity
  8
MaVisibleEdge
100
AcDbLine
 10
436.0442498423187
 20
2459.930341844173
 30
0.0
 11
436.0442498423187
 21
2409.930341844173
 31
0.0
  0
LINE
  5
2C4
330
75
100
AcDbEntity
  8
MaVisibleEdge
100
AcDbLine
 10
436.0442498423187
 20
2409.930341844173
 30
0.0
 11
1436.044249842319
 21
2409.930341844173
 31
0.0
  0
LINE
  5
2C5
330
75
100
AcDbEntity
  8
MaVisibleEdge
100
AcDbLine
 10
436.0442498423187
 20
2459.930341844173
 30
0.0
 11
1436.044249842319
 21
2459.930341844173
 31
0.0
  0
LINE
  5
2C6
330
75
100
AcDbEntity
  8
MaHiddenEdge
100
AcDbLine
 10
437.544249842319
 20
2458.430341844173
 30
0.0
 11
437.544249842319
 21
2410.930341844173
 31
0.0
  0
LINE
  5
2C7
330
75
100
AcDbEntity
  8
MaHiddenEdge
100
AcDbLine
 10
437.544249842319
 20
2458.430341844173
 30
0.0
 11
1434.544249842319
 21
2458.430341844173
 31
0.0
  0
LINE
  5
2C8
330
75
100
AcDbEntity
  8
MaHiddenEdge
100
AcDbLine
 10
1434.544249842319
 20
2458.430341844173
 30
0.0
 11
1434.544249842319
 21
2410.930341844173
 31
0.0
  0
LINE
  5
2C9
330
75
100
AcDbEntity
  8
MaHiddenEdge
100
AcDbLine
 10
1004.544249842319
 20
2445.930341844173
 30
0.0
 11
1004.544249842319
 21
2267.430341844173
 31
0.0
  0
LINE
  5
2CA
330
75
100
AcDbEntity
  8
MaHiddenEdge
100
AcDbLine
 10
1417.544249842318
 20
2444.430341844173
 30
0.0
 11
1378.044249842319
 21
2444.430341844173
 31
0.0
  0
LINE
  5
2CB
330
75
100
AcDbEntity
  8
MaHiddenEdge
100
AcDbLine
 10
494.0442498423188
 20
2444.430341844173
 30
0.0
 11
1378.044249842319
 21
2444.430341844173
 31
0.0
  0
LINE
  5
2CC
330
75
100
AcDbEntity
  8
MaHiddenEdge
100
AcDbLine
 10
494.0442498423188
 20
2444.430341844173
 30
0.0
 11
454.5442498423189
 21
2444.430341844173
 31
0.0
  0
LINE
  5
2CD
330
75
100
AcDbEntity
  8
MaHiddenEdge
100
AcDbLine
 10
454.5442498423189
 20
2458.430341844173
 30
0.0
 11
454.5442498423189
 21
2444.430341844173
 31
0.0
  0
LINE
  5
2CE
330
75
100
AcDbEntity
  8
MaHiddenEdge
100
AcDbLine
 10
1417.544249842319
 20
2458.430341844173
 30
0.0
 11
1417.544249842319
 21
2444.430341844173
 31
0.0
  0
LINE
  5
2CF
330
75
100
AcDbEntity
  8
MaHiddenEdge
100
AcDbLine
 10
507.544249842319
 20
2445.930341844173
 30
0.0
 11
507.544249842319
 21
2267.430341844173
 31
0.0
  0
LINE
  5
2D0
330
75
100
AcDbEntity
  8
MaHiddenEdge
100
AcDbLine
 10
904.5442498423188
 20
2247.430341844173
 30
0.0
 11
904.5442498423188
 21
2067.430341844173
 31
0.0
  0
LINE
  5
2D1
330
75
100
AcDbEntity
  8
MaHiddenEdge
100
AcDbLine
 10
607.544249842319
 20
2247.430341844173
 30
0.0
 11
607.544249842319
 21
2067.430341844173
 31
0.0
  0
LINE
  5
2D2
330
75
100
AcDbEntity
  8
MaHiddenEdge
100
AcDbLine
 10
1434.544249842319
 20
2411.430341844174
 30
0.0
 11
437.544249842319
 21
2411.430341844174
 31
0.0
  0
LINE
  5
2D3
330
75
100
AcDbEntity
  8
MaHiddenEdge
100
AcDbLine
 10
736.0442498423187
 20
2042.784138359804
 30
0.0
 11
776.044249842319
 21
2042.784138359804
 31
0.0
  0
ARC
  5
2D4
330
75
100
AcDbEntity
  8
MaHiddenEdge
100
AcDbCircle
 10
736.0442498423187
 20
2048.284138359804
 30
0.0
 40
5.500000000000013
100
AcDbArc
 50
214.6807461734179
 51
270.0
  0
ARC
  5
2D5
330
75
100
AcDbEntity
  8
MaHiddenEdge
100
AcDbCircle
 10
776.044249842319
 20
2048.284138359804
 30
0.0
 40
5.500000000000013
100
AcDbArc
 50
269.9999999999978
 51
325.3192538265815
  0
ARC
  5
2D6
330
75
100
AcDbEntity
  8
MaHiddenEdge
100
AcDbCircle
 10
721.2422144996208
 20
2038.042080475106
 30
0.0
 40
12.49999999999999
100
AcDbArc
 50
34.68074617341558
 51
39.12843795977106
  0
ARC
  5
2D7
330
75
100
AcDbEntity
  8
MaHiddenEdge
100
AcDbCircle
 10
790.8462851850172
 20
2038.042080475106
 30
0.0
 40
12.49999999999998
100
AcDbArc
 50
140.8715620402307
 51
145.3192538265847
  0
LINE
  5
2D8
330
75
100
AcDbEntity
  8
MaVisibleEdge
100
AcDbLine
 10
736.0442498423187
 20
2041.284138359804
 30
0.0
 11
776.044249842319
 21
2041.284138359804
 31
0.0
  0
ARC
  5
2D9
330
75
100
AcDbEntity
  8
MaVisibleEdge
100
AcDbCircle
 10
736.0442498423187
 20
2048.284138359804
 30
0.0
 40
7.0
100
AcDbArc
 50
214.6807461734166
 51
270.0
  0
ARC
  5
2DA
330
75
100
AcDbEntity
  8
MaVisibleEdge
100
AcDbCircle
 10
776.044249842319
 20
2048.284138359804
 30
0.0
 40
7.0
100
AcDbArc
 50
269.9999999999992
 51
325.3192538265829
  0
ARC
  5
2DB
330
75
100
AcDbEntity
  8
MaVisibleEdge
100
AcDbCircle
 10
721.2422144996208
 20
2038.042080475106
 30
0.0
 40
11.0
100
AcDbArc
 50
34.68074617341604
 51
45.81677316716704
  0
ARC
  5
2DC
330
75
100
AcDbEntity
  8
MaVisibleEdge
100
AcDbCircle
 10
790.8462851850172
 20
2038.042080475106
 30
0.0
 40
11.0
100
AcDbArc
 50
134.1832268328333
 51
145.3192538265841
  0
LINE
  5
2DD
330
75
100
AcDbEntity
  8
MaVisibleEdge
100
AcDbLine
 10
1006.044249842319
 20
2265.930341844173
 30
0.0
 11
1006.044249842319
 21
2409.930341844173
 31
0.0
  0
LINE
  5
2DE
330
75
100
AcDbEntity
  8
MaVisibleEdge
100
AcDbLine
 10
506.0442498423189
 20
2265.930341844173
 30
0.0
 11
506.0442498423189
 21
2409.930341844173
 31
0.0
  0
LINE
  5
2DF
330
75
100
AcDbEntity
  8
MaHiddenEdge
100
AcDbLine
 10
1006.044249842319
 20
2409.930341844173
 30
0.0
 11
1006.044249842319
 21
2444.430341844173
 31
0.0
  0
LINE
  5
2E0
330
75
100
AcDbEntity
  8
MaHiddenEdge
100
AcDbLine
 10
506.0442498423189
 20
2409.930341844173
 30
0.0
 11
506.0442498423189
 21
2444.430341844173
 31
0.0
  0
LINE
  5
2E1
330
75
100
AcDbEntity
  8
MaHiddenEdge
100
AcDbLine
 10
475.1230338706577
 20
2445.930341844173
 30
0.0
 11
494.0442498423188
 21
2445.930341844173
 31
0.0
  0
LINE
  5
2E2
330
75
100
AcDbEntity
  8
MaHiddenEdge
100
AcDbLine
 10
1378.044249842319
 20
2445.930341844173
 30
0.0
 11
494.0442498423188
 21
2445.930341844173
 31
0.0
  0
LINE
  5
2E3
330
75
100
AcDbEntity
  8
MaHiddenEdge
100
AcDbLine
 10
1378.044249842319
 20
2445.930341844173
 30
0.0
 11
1396.96546581398
 21
2445.930341844173
 31
0.0
  0
ARC
  5
2E4
330
75
100
AcDbEntity
  8
MaHiddenEdge
100
AcDbCircle
 10
1396.96546581398
 20
2465.930341844174
 30
0.0
 40
20.0
100
AcDbArc
 50
269.9999999999994
 51
342.5423968762778
  0
ARC
  5
2E5
330
75
100
AcDbEntity
  8
MaHiddenEdge
100
AcDbCircle
 10
475.1230338706577
 20
2465.930341844174
 30
0.0
 40
20.00000000000003
100
AcDbArc
 50
197.4576031237223
 51
270.0
  0
LINE
  5
2E6
330
75
100
AcDbEntity
  8
MaHiddenEdge
100
AcDbLine
 10
527.5442498423188
 20
2247.430341844173
 30
0.0
 11
546.0442498423189
 21
2247.430341844173
 31
0.0
  0
LINE
  5
2E7
330
75
100
AcDbEntity
  8
MaHiddenEdge
100
AcDbLine
 10
966.044249842319
 20
2247.430341844173
 30
0.0
 11
546.0442498423189
 21
2247.430341844173
 31
0.0
  0
LINE
  5
2E8
330
75
100
AcDbEntity
  8
MaHiddenEdge
100
AcDbLine
 10
966.0442498423188
 20
2247.430341844173
 30
0.0
 11
984.5442498423187
 21
2247.430341844173
 31
0.0
  0
ARC
  5
2E9
330
75
100
AcDbEntity
  8
MaHiddenEdge
100
AcDbCircle
 10
984.5442498423187
 20
2267.430341844173
 30
0.0
 40
20.00000000000014
100
AcDbArc
 50
270.0000000000006
 51
0.0
  0
ARC
  5
2EA
330
75
100
AcDbEntity
  8
MaHiddenEdge
100
AcDbCircle
 10
527.5442498423191
 20
2267.430341844173
 30
0.0
 40
20.00000000000014
100
AcDbArc
 50
180.0
 51
269.9999999999997
  0
LINE
  5
2EB
330
75
100
AcDbEntity
  8
MaHiddenEdge
100
AcDbLine
 10
627.5442498423188
 20
2047.430341844173
 30
0.0
 11
884.544249842319
 21
2047.430341844173
 31
0.0
  0
ARC
  5
2EC
330
75
100
AcDbEntity
  8
MaHiddenEdge
100
AcDbCircle
 10
884.544249842319
 20
2067.430341844173
 30
0.0
 40
20.0
100
AcDbArc
 50
270.0
 51
0.0
  0
ARC
  5
2ED
330
75
100
AcDbEntity
  8
MaHiddenEdge
100
AcDbCircle
 10
627.5442498423188
 20
2067.430341844173
 30
0.0
 40
20.0
100
AcDbArc
 50
180.0
 51
270.0
  0
LINE
  5
2EE
330
75
100
AcDbEntity
  8
MaVisibleEdge
100
AcDbLine
 10
546.0442498423189
 20
2245.930341844173
 30
0.0
 11
966.044249842319
 21
2245.930341844173
 31
0.0
  0
LINE
  5
2EF
330
75
100
AcDbEntity
  8
MaVisibleEdge
100
AcDbLine
 10
546.044249842319
 20
2245.930341844173
 30
0.0
 11
526.044249842319
 21
2245.930341844173
 31
0.0
  0
LINE
  5
2F0
330
75
100
AcDbEntity
  8
MaVisibleEdge
100
AcDbLine
 10
986.0442498423187
 20
2245.930341844173
 30
0.0
 11
966.044249842319
 21
2245.930341844173
 31
0.0
  0
ARC
  5
2F1
330
75
100
AcDbEntity
  8
MaVisibleEdge
100
AcDbCircle
 10
986.0442498423187
 20
2265.930341844173
 30
0.0
 40
20.0
100
AcDbArc
 50
270.0
 51
0.0
  0
ARC
  5
2F2
330
75
100
AcDbEntity
  8
MaVisibleEdge
100
AcDbCircle
 10
526.0442498423191
 20
2265.930341844173
 30
0.0
 40
20.00000000000014
100
AcDbArc
 50
180.0
 51
269.9999999999997
  0
LINE
  5
2F3
330
75
100
AcDbEntity
  8
MaVisibleEdge
100
AcDbLine
 10
886.0442498423189
 20
2045.930341844173
 30
0.0
 11
626.044249842319
 21
2045.930341844173
 31
0.0
  0
ARC
  5
2F4
330
75
100
AcDbEntity
  8
MaVisibleEdge
100
AcDbCircle
 10
886.0442498423189
 20
2065.930341844174
 30
0.0
 40
20.0
100
AcDbArc
 50
270.0
 51
0.0
  0
ARC
  5
2F5
330
75
100
AcDbEntity
  8
MaVisibleEdge
100
AcDbCircle
 10
626.044249842319
 20
2065.930341844174
 30
0.0
 40
20.0
100
AcDbArc
 50
180.0
 51
270.0
  0
LINE
  5
2F6
330
75
100
AcDbEntity
  8
MaHiddenEdge
100
AcDbLine
 10
1405.720749842319
 20
2409.930341844173
 30
0.0
 11
1405.720749842319
 21
2419.930341844173
 31
0.0
  0
LINE
  5
2F7
330
75
100
AcDbEntity
  8
MaHiddenEdge
100
AcDbLine
 10
1412.367749842319
 20
2409.930341844173
 30
0.0
 11
1412.367749842319
 21
2419.930341844173
 31
0.0
  0
LINE
  5
2F8
330
75
100
AcDbEntity
  8
MaHiddenEdge
100
AcDbLine
 10
459.7207498423188
 20
2409.930341844173
 30
0.0
 11
459.7207498423188
 21
2419.930341844173
 31
0.0
  0
LINE
  5
2F9
330
75
100
AcDbEntity
  8
MaHiddenEdge
100
AcDbLine
 10
466.3677498423188
 20
2409.930341844173
 30
0.0
 11
466.3677498423188
 21
2419.930341844173
 31
0.0
  0
LINE
  5
2FA
330
75
100
AcDbEntity
  8
MaHiddenEdge
100
AcDbLine
 10
1405.044249842319
 20
2419.930341844173
 30
0.0
 11
1405.044249842319
 21
2409.930341844173
 31
0.0
  0
LINE
  5
2FB
330
75
100
AcDbEntity
  8
MaHiddenEdge
100
AcDbLine
 10
1413.044249842319
 20
2409.930341844173
 30
0.0
 11
1413.044249842319
 21
2419.930341844173
 31
0.0
  0
LINE
  5
2FC
330
75
100
AcDbEntity
  8
MaHiddenEdge
100
AcDbLine
 10
459.0442498423189
 20
2419.930341844173
 30
0.0
 11
459.0442498423189
 21
2409.930341844173
 31
0.0
  0
LINE
  5
2FD
330
75
100
AcDbEntity
  8
MaHiddenEdge
100
AcDbLine
 10
467.0442498423191
 20
2409.930341844173
 30
0.0
 11
467.0442498423191
 21
2419.930341844173
 31
0.0
  0
LINE
  5
2FE
330
75
100
AcDbEntity
  8
MaHiddenEdge
100
AcDbLine
 10
736.9942498423188
 20
2045.930341844173
 30
0.0
 11
736.9942498423188
 21
2047.430341844173
 31
0.0
  0
LINE
  5
2FF
330
75
100
AcDbEntity
  8
MaHiddenEdge
100
AcDbLine
 10
775.094249842319
 20
2045.930341844173
 30
0.0
 11
775.094249842319
 21
2047.430341844173
 31
0.0
  0
LINE
  5
300
330
75
100
AcDbEntity
  8
MaHiddenEdge
100
AcDbLine
 10
736.9942498423188
 20
2041.284138359804
 30
0.0
 11
736.9942498423188
 21
2042.784138359804
 31
0.0
  0
LINE
  5
301
330
75
100
AcDbEntity
  8
MaHiddenEdge
100
AcDbLine
 10
775.094249842319
 20
2041.284138359804
 30
0.0
 11
775.094249842319
 21
2042.784138359804
 31
0.0
  0
LINE
  5
302
330
75
100
AcDbEntity
  8
MaVisibleEdge
100
AcDbLine
 10
906.0442498423187
 20
2245.930341844173
 30
0.0
 11
906.0442498423187
 21
2065.930341844174
 31
0.0
  0
LINE
  5
303
330
75
100
AcDbEntity
  8
MaVisibleEdge
100
AcDbLine
 10
606.0442498423189
 20
2245.930341844173
 30
0.0
 11
606.0442498423189
 21
2065.930341844174
 31
0.0
  0
LINE
  5
304
330
75
100
AcDbEntity
  8
MaHiddenEdge
100
AcDbLine
 10
688.7146619455536
 20
2247.430341844173
 30
0.0
 11
688.7146619455536
 21
2245.930341844173
 31
0.0
  0
LINE
  5
305
330
75
100
AcDbEntity
  8
MaHiddenEdge
100
AcDbLine
 10
823.3738377390844
 20
2247.430341844173
 30
0.0
 11
823.3738377390844
 21
2245.930341844173
 31
0.0
  0
LINE
  5
306
330
75
100
AcDbEntity
  8
MaHiddenEdge
100
AcDbLine
 10
903.0442498423187
 20
2247.430341844173
 30
0.0
 11
903.0442498423187
 21
2245.930341844173
 31
0.0
  0
LINE
  5
307
330
75
100
AcDbEntity
  8
MaHiddenEdge
100
AcDbLine
 10
609.0442498423189
 20
2247.430341844173
 30
0.0
 11
609.0442498423189
 21
2245.930341844173
 31
0.0
  0
CIRCLE
  5
308
330
75
100
AcDbEntity
  8
MaHiddenEdge
100
AcDbCircle
 10
463.0442498417203
 20
1446.36477719858
 30
0.0
 40
3.3235
  0
CIRCLE
  5
309
330
75
100
AcDbEntity
  8
MaHiddenEdge
100
AcDbCircle
 10
1409.04424984172
 20
1446.36477719858
 30
0.0
 40
3.3235
  0
CIRCLE
  5
30A
330
75
100
AcDbEntity
  8
MaHiddenEdge
100
AcDbCircle
 10
1409.04424984172
 20
1014.36477719858
 30
0.0
 40
3.3235
  0
CIRCLE
  5
30B
330
75
100
AcDbEntity
  8
MaHiddenEdge
100
AcDbCircle
 10
463.0442498417203
 20
1014.36477719858
 30
0.0
 40
3.3235
  0
ARC
  5
30C
330
75
100
AcDbEntity
  8
MaHiddenEdge
100
AcDbCircle
 10
463.0442498417203
 20
1446.36477719858
 30
0.0
 40
3.999999999999948
100
AcDbArc
 50
350.0000000000023
 51
259.999999999952
  0
ARC
  5
30D
330
75
100
AcDbEntity
  8
MaHiddenEdge
100
AcDbCircle
 10
1409.04424984172
 20
1446.36477719858
 30
0.0
 40
3.999999999999965
100
AcDbArc
 50
349.9999999999994
 51
259.9999999999497
  0
ARC
  5
30E
330
75
100
AcDbEntity
  8
MaHiddenEdge
100
AcDbCircle
 10
1409.04424984172
 20
1014.36477719858
 30
0.0
 40
3.999999999999951
100
AcDbArc
 50
349.9999999999994
 51
259.9999999999497
  0
ARC
  5
30F
330
75
100
AcDbEntity
  8
MaHiddenEdge
100
AcDbCircle
 10
463.0442498417203
 20
1014.36477719858
 30
0.0
 40
3.999999999999957
100
AcDbArc
 50
350.0000000000023
 51
259.999999999952
  0
CIRCLE
  5
310
330
75
100
AcDbEntity
  8
MaHiddenEdge
100
AcDbCircle
 10
1409.04424984172
 20
1446.36477719858
 30
0.0
 40
5.0
  0
CIRCLE
  5
311
330
75
100
AcDbEntity
  8
MaHiddenEdge
100
AcDbCircle
 10
1409.04424984172
 20
1014.36477719858
 30
0.0
 40
5.0
  0
CIRCLE
  5
312
330
75
100
AcDbEntity
  8
MaHiddenEdge
100
AcDbCircle
 10
463.0442498417203
 20
1014.36477719858
 30
0.0
 40
5.0
  0
CIRCLE
  5
313
330
75
100
AcDbEntity
  8
MaHiddenEdge
100
AcDbCircle
 10
463.0442498417203
 20
1446.36477719858
 30
0.0
 40
5.0
  0
LINE
  5
314
330
75
100
AcDbEntity
  8
MaHiddenEdge
100
AcDbLine
 10
1396.04424984172
 20
934.3647771985775
 30
0.0
 11
1396.04424984172
 21
1517.864777198577
 31
0.0
  0
LINE
  5
315
330
75
100
AcDbEntity
  8
MaHiddenEdge
100
AcDbLine
 10
476.04424984172
 20
1517.864777198577
 30
0.0
 11
476.04424984172
 21
934.3647771985775
 31
0.0
  0
LINE
  5
316
330
75
100
AcDbEntity
  8
MaVisibleEdge
100
AcDbLine
 10
1436.04424984172
 20
932.864777198592
 30
0.0
 11
1436.04424984172
 21
1532.864777198592
 31
0.0
  0
LINE
  5
317
330
75
100
AcDbEntity
  8
MaVisibleEdge
100
AcDbLine
 10
436.04424984172
 20
1532.864777198592
 30
0.0
 11
436.04424984172
 21
932.8647771985922
 31
0.0
  0
LINE
  5
318
330
75
100
AcDbEntity
  8
MaVisibleEdge
100
AcDbLine
 10
436.04424984172
 20
932.8647771985922
 30
0.0
 11
1436.04424984172
 21
932.864777198592
 31
0.0
  0
LINE
  5
319
330
75
100
AcDbEntity
  8
MaVisibleEdge
100
AcDbLine
 10
1436.04424984172
 20
1532.864777198592
 30
0.0
 11
436.04424984172
 21
1532.864777198592
 31
0.0
  0
LINE
  5
31A
330
75
100
AcDbEntity
  8
MaHiddenEdge
100
AcDbLine
 10
437.5442498417203
 20
934.3647771985915
 30
0.0
 11
1434.54424984172
 21
934.3647771985915
 31
0.0
  0
LINE
  5
31B
330
75
100
AcDbEntity
  8
MaHiddenEdge
100
AcDbLine
 10
1434.54424984172
 20
934.3647771985915
 30
0.0
 11
1434.54424984172
 21
1531.364777198591
 31
0.0
  0
LINE
  5
31C
330
75
100
AcDbEntity
  8
MaHiddenEdge
100
AcDbLine
 10
546.0442498417202
 20
982.8647771985874
 30
0.0
 11
966.0442498417204
 21
982.8647771985874
 31
0.0
  0
ARC
  5
31D
330
75
100
AcDbEntity
  8
MaHiddenEdge
100
AcDbCircle
 10
966.0442498417204
 20
1022.864777198587
 30
0.0
 40
39.99999999999992
100
AcDbArc
 50
270.0
 51
0.0
  0
LINE
  5
31E
330
75
100
AcDbEntity
  8
MaHiddenEdge
100
AcDbLine
 10
1006.04424984172
 20
1022.864777198587
 30
0.0
 11
1006.04424984172
 21
1392.864777198587
 31
0.0
  0
ARC
  5
31F
330
75
100
AcDbEntity
  8
MaHiddenEdge
100
AcDbCircle
 10
966.0442498417204
 20
1392.864777198587
 30
0.0
 40
39.99999999999992
100
AcDbArc
 50
0.0
 51
90.0
  0
LINE
  5
320
330
75
100
AcDbEntity
  8
MaHiddenEdge
100
AcDbLine
 10
966.0442498417204
 20
1432.864777198587
 30
0.0
 11
546.0442498417202
 21
1432.864777198588
 31
0.0
  0
ARC
  5
321
330
75
100
AcDbEntity
  8
MaHiddenEdge
100
AcDbCircle
 10
546.0442498417203
 20
1392.864777198587
 30
0.0
 40
40.00000000000007
100
AcDbArc
 50
90.00000000000017
 51
180.0
  0
LINE
  5
322
330
75
100
AcDbEntity
  8
MaHiddenEdge
100
AcDbLine
 10
506.04424984172
 20
1392.864777198587
 30
0.0
 11
506.04424984172
 21
1022.864777198587
 31
0.0
  0
ARC
  5
323
330
75
100
AcDbEntity
  8
MaHiddenEdge
100
AcDbCircle
 10
546.0442498417203
 20
1022.864777198587
 30
0.0
 40
40.00000000000028
100
AcDbArc
 50
180.0
 51
269.9999999999997
  0
LINE
  5
324
330
75
100
AcDbEntity
  8
MaHiddenEdge
100
AcDbLine
 10
437.5442498417203
 20
1531.364777198591
 30
0.0
 11
437.5442498417203
 21
934.3647771985915
 31
0.0
  0
LINE
  5
325
330
75
100
AcDbEntity
  8
MaHiddenEdge
100
AcDbLine
 10
1434.54424984172
 20
1531.364777198591
 30
0.0
 11
437.5442498417203
 21
1531.364777198591
 31
0.0
  0
ARC
  5
326
330
75
100
AcDbEntity
  8
MaHiddenEdge
100
AcDbCircle
 10
1378.04424984172
 20
1464.864777198591
 30
0.0
 40
39.50000000000006
100
AcDbArc
 50
0.0
 51
90.0
  0
LINE
  5
327
330
75
100
AcDbEntity
  8
MaHiddenEdge
100
AcDbLine
 10
494.0442498417202
 20
1504.364777198591
 30
0.0
 11
1378.04424984172
 21
1504.364777198591
 31
0.0
  0
ARC
  5
328
330
75
100
AcDbEntity
  8
MaHiddenEdge
100
AcDbCircle
 10
494.0442498417202
 20
1464.864777198591
 30
0.0
 40
39.5000000000001
100
AcDbArc
 50
90.0
 51
180.0
  0
LINE
  5
329
330
75
100
AcDbEntity
  8
MaHiddenEdge
100
AcDbLine
 10
454.5442498417201
 20
1000.864777198592
 30
0.0
 11
454.5442498417201
 21
1464.864777198592
 31
0.0
  0
ARC
  5
32A
330
75
100
AcDbEntity
  8
MaHiddenEdge
100
AcDbCircle
 10
494.04424984172
 20
1000.864777198592
 30
0.0
 40
39.50000000000002
100
AcDbArc
 50
180.0
 51
270.0
  0
LINE
  5
32B
330
75
100
AcDbEntity
  8
MaHiddenEdge
100
AcDbLine
 10
1378.04424984172
 20
961.3647771985915
 30
0.0
 11
494.04424984172
 21
961.3647771985915
 31
0.0
  0
ARC
  5
32C
330
75
100
AcDbEntity
  8
MaHiddenEdge
100
AcDbCircle
 10
1378.04424984172
 20
1000.864777198591
 30
0.0
 40
39.49999999999999
100
AcDbArc
 50
270.0
 51
0.0
  0
LINE
  5
32D
330
75
100
AcDbEntity
  8
MaHiddenEdge
100
AcDbLine
 10
1417.54424984172
 20
1464.864777198591
 30
0.0
 11
1417.54424984172
 21
1000.864777198591
 31
0.0
  0
LINE
  5
32E
330
75
100
AcDbEntity
  8
MaVisibleEdge
100
AcDbLine
 10
1004.54424984172
 20
1392.864777198588
 30
0.0
 11
1004.54424984172
 21
1022.864777198588
 31
0.0
  0
ARC
  5
32F
330
75
100
AcDbEntity
  8
MaVisibleEdge
100
AcDbCircle
 10
546.0442498417202
 20
1392.864777198588
 30
0.0
 40
38.49999999999994
100
AcDbArc
 50
90.0
 51
180.0
  0
LINE
  5
330
330
75
100
AcDbEntity
  8
MaVisibleEdge
100
AcDbLine
 10
546.0442498417202
 20
1431.364777198588
 30
0.0
 11
966.0442498417204
 21
1431.364777198588
 31
0.0
  0
ARC
  5
331
330
75
100
AcDbEntity
  8
MaVisibleEdge
100
AcDbCircle
 10
966.0442498417204
 20
1392.864777198588
 30
0.0
 40
38.49999999999994
100
AcDbArc
 50
0.0
 51
90.0
  0
LINE
  5
332
330
75
100
AcDbEntity
  8
MaVisibleEdge
100
AcDbLine
 10
507.5442498417202
 20
1022.864777198588
 30
0.0
 11
507.5442498417202
 21
1392.864777198588
 31
0.0
  0
ARC
  5
333
330
75
100
AcDbEntity
  8
MaVisibleEdge
100
AcDbCircle
 10
966.0442498417204
 20
1022.864777198588
 30
0.0
 40
38.49999999999994
100
AcDbArc
 50
270.0
 51
0.0
  0
LINE
  5
334
330
75
100
AcDbEntity
  8
MaVisibleEdge
100
AcDbLine
 10
966.0442498417204
 20
984.364777198588
 30
0.0
 11
546.0442498417202
 21
984.364777198588
 31
0.0
  0
ARC
  5
335
330
75
100
AcDbEntity
  8
MaVisibleEdge
100
AcDbCircle
 10
546.0442498417202
 20
1022.864777198588
 30
0.0
 40
38.50000000000004
100
AcDbArc
 50
180.0
 51
270.0
  0
CIRCLE
  5
336
330
75
100
AcDbEntity
  8
MaVisibleEdge
100
AcDbCircle
 10
756.0442498417203
 20
1207.864777198529
 30
0.0
 40
148.4999999999999
  0
LINE
  5
337
330
75
100
AcDbEntity
  8
MaHiddenEdge
100
AcDbLine
 10
1434.54424984172
 20
1517.864777198577
 30
0.0
 11
437.5442498417203
 21
1517.864777198577
 31
0.0
  0
ARC
  5
338
330
75
100
AcDbEntity
  8
MaVisibleEdge
100
AcDbCircle
 10
756.0442498417203
 20
1207.864777198469
 30
0.0
 40
19.04999999999997
100
AcDbArc
 50
211.6638260682965
 51
328.3361739317034
  0
ARC
  5
339
330
75
100
AcDbEntity
  8
MaVisibleEdge
100
AcDbCircle
 10
756.0442498417203
 20
1207.86477719847
 30
0.0
 40
19.04999999999999
100
AcDbArc
 50
31.66382606829655
 51
148.3361739317034
  0
ARC
  5
33A
330
75
100
AcDbEntity
  8
MaHiddenEdge
100
AcDbCircle
 10
756.0442498417203
 20
1207.86477719847
 30
0.0
 40
19.05000000000004
100
AcDbArc
 50
148.3361739317029
 51
211.6638260682965
  0
ARC
  5
33B
330
75
100
AcDbEntity
  8
MaHiddenEdge
100
AcDbCircle
 10
756.0442498417203
 20
1207.86477719847
 30
0.0
 40
19.05000000000017
100
AcDbArc
 50
328.336173931703
 51
31.66382606829625
  0
CIRCLE
  5
33C
330
75
100
AcDbEntity
  8
MaHiddenEdge
100
AcDbCircle
 10
756.0442498417203
 20
1207.864777198469
 30
0.0
 40
25.10536928815723
  0
CIRCLE
  5
33D
330
75
100
AcDbEntity
  8
MaHiddenEdge
100
AcDbCircle
 10
756.0442498417203
 20
1207.864777198469
 30
0.0
 40
27.13552814754818
  0
ARC
  5
33E
330
75
100
AcDbEntity
  8
MaVisibleEdge
100
AcDbCircle
 10
1378.04424984172
 20
1464.864777198592
 30
0.0
 40
37.9999999999999
100
AcDbArc
 50
0.0
 51
90.0
  0
LINE
  5
33F
330
75
100
AcDbEntity
  8
MaVisibleEdge
100
AcDbLine
 10
1416.04424984172
 20
1464.864777198592
 30
0.0
 11
1416.04424984172
 21
1000.864777198592
 31
0.0
  0
ARC
  5
340
330
75
100
AcDbEntity
  8
MaVisibleEdge
100
AcDbCircle
 10
1378.04424984172
 20
1000.864777198592
 30
0.0
 40
38.0
100
AcDbArc
 50
270.0
 51
0.0
  0
LINE
  5
341
330
75
100
AcDbEntity
  8
MaVisibleEdge
100
AcDbLine
 10
1378.04424984172
 20
962.8647771985921
 30
0.0
 11
494.04424984172
 21
962.8647771985923
 31
0.0
  0
ARC
  5
342
330
75
100
AcDbEntity
  8
MaVisibleEdge
100
AcDbCircle
 10
494.04424984172
 20
1000.864777198592
 30
0.0
 40
37.99999999999995
100
AcDbArc
 50
180.0
 51
270.0
  0
LINE
  5
343
330
75
100
AcDbEntity
  8
MaVisibleEdge
100
AcDbLine
 10
456.0442498417201
 20
1000.864777198592
 30
0.0
 11
456.0442498417201
 21
1464.864777198592
 31
0.0
  0
ARC
  5
344
330
75
100
AcDbEntity
  8
MaVisibleEdge
100
AcDbCircle
 10
494.04424984172
 20
1464.864777198592
 30
0.0
 40
37.99999999999968
100
AcDbArc
 50
89.99999999999969
 51
180.0
  0
LINE
  5
345
330
75
100
AcDbEntity
  8
MaVisibleEdge
100
AcDbLine
 10
494.0442498417202
 20
1502.864777198592
 30
0.0
 11
1378.04424984172
 21
1502.864777198592
 31
0.0
  0
CIRCLE
  5
346
330
75
100
AcDbEntity
  8
MaHiddenEdge
100
AcDbCircle
 10
756.0442498417203
 20
1207.864777198529
 30
0.0
 40
150.0
  0
ARC
  5
347
330
75
100
AcDbEntity
  8
MaVisibleEdge
100
AcDbCircle
 10
756.0442498417203
 20
1207.864777198529
 30
0.0
 40
69.99999999999997
100
AcDbArc
 50
16.87726943862909
 51
163.1227305613709
  0
ARC
  5
348
330
75
100
AcDbEntity
  8
MaVisibleEdge
100
AcDbCircle
 10
696.7146619449549
 20
1225.864777198529
 30
0.0
 40
7.999999999999971
100
AcDbArc
 50
163.1227305613706
 51
270.0
  0
LINE
  5
349
330
75
100
AcDbEntity
  8
MaVisibleEdge
100
AcDbLine
 10
815.3738377384854
 20
1217.864777198529
 30
0.0
 11
696.7146619449549
 21
1217.864777198529
 31
0.0
  0
ARC
  5
34A
330
75
100
AcDbEntity
  8
MaVisibleEdge
100
AcDbCircle
 10
815.3738377384854
 20
1225.864777198529
 30
0.0
 40
8.000000000000008
100
AcDbArc
 50
270.0
 51
16.87726943862942
  0
LINE
  5
34B
330
75
100
AcDbEntity
  8
MaVisibleEdge
100
AcDbLine
 10
696.7146619449549
 20
1197.864777198529
 30
0.0
 11
815.3738377384854
 21
1197.864777198529
 31
0.0
  0
ARC
  5
34C
330
75
100
AcDbEntity
  8
MaVisibleEdge
100
AcDbCircle
 10
696.7146619449549
 20
1189.864777198529
 30
0.0
 40
8.000000000000008
100
AcDbArc
 50
90.0
 51
196.8772694386294
  0
ARC
  5
34D
330
75
100
AcDbEntity
  8
MaVisibleEdge
100
AcDbCircle
 10
756.0442498417203
 20
1207.864777198529
 30
0.0
 40
70.00000000000003
100
AcDbArc
 50
196.8772694386292
 51
343.1227305613709
  0
ARC
  5
34E
330
75
100
AcDbEntity
  8
MaVisibleEdge
100
AcDbCircle
 10
815.3738377384856
 20
1189.864777198529
 30
0.0
 40
7.999999999999971
100
AcDbArc
 50
343.1227305613707
 51
90.00000000000078
  0
CIRCLE
  5
34F
330
75
100
AcDbEntity
  8
MaVisibleEdge
100
AcDbCircle
 10
756.0442498417203
 20
1207.864777198529
 30
0.0
 40
146.9999999999999
  0
LINE
  5
350
330
75
100
AcDbEntity
  8
MaHiddenEdge
100
AcDbLine
 10
2183.31444072001
 20
2419.930341844173
 30
0.0
 11
2193.31444072001
 21
2419.930341844173
 31
0.0
  0
LINE
  5
351
330
75
100
AcDbEntity
  8
MaHiddenEdge
100
AcDbLine
 10
1751.31444072001
 20
2419.930341844173
 30
0.0
 11
1761.31444072001
 21
2419.930341844173
 31
0.0
  0
LINE
  5
352
330
75
100
AcDbEntity
  8
MaHiddenEdge
100
AcDbLine
 10
2183.31444072001
 20
2410.930341844173
 30
0.0
 11
2183.31444072001
 21
2419.930341844173
 31
0.0
  0
LINE
  5
353
330
75
100
AcDbEntity
  8
MaHiddenEdge
100
AcDbLine
 10
2193.31444072001
 20
2410.930341844173
 30
0.0
 11
2193.31444072001
 21
2419.930341844173
 31
0.0
  0
LINE
  5
354
330
75
100
AcDbEntity
  8
MaHiddenEdge
100
AcDbLine
 10
1751.31444072001
 20
2410.930341844173
 30
0.0
 11
1751.31444072001
 21
2419.930341844173
 31
0.0
  0
LINE
  5
355
330
75
100
AcDbEntity
  8
MaHiddenEdge
100
AcDbLine
 10
1761.31444072001
 20
2410.930341844173
 30
0.0
 11
1761.31444072001
 21
2419.930341844173
 31
0.0
  0
LINE
  5
356
330
75
100
AcDbEntity
  8
MaHiddenEdge
100
AcDbLine
 10
2268.314440720002
 20
2410.930341844173
 30
0.0
 11
1684.814440720003
 21
2410.930341844173
 31
0.0
  0
LINE
  5
357
330
75
100
AcDbEntity
  8
MaHiddenEdge
100
AcDbLine
 10
1684.814440720014
 20
2410.930341844173
 30
0.0
 11
1684.814440720014
 21
2409.930341844173
 31
0.0
  0
LINE
  5
358
330
75
100
AcDbEntity
  8
MaHiddenEdge
100
AcDbLine
 10
2268.314440720014
 20
2409.930341844173
 30
0.0
 11
2268.314440720014
 21
2410.930341844173
 31
0.0
  0
LINE
  5
359
330
75
100
AcDbEntity
  8
MaVisibleEdge
100
AcDbLine
 10
2269.814440720002
 20
2459.930341844173
 30
0.0
 11
2269.814440720002
 21
2409.930341844173
 31
0.0
  0
LINE
  5
35A
330
75
100
AcDbEntity
  8
MaVisibleEdge
100
AcDbLine
 10
1669.814440720002
 20
2459.930341844173
 30
0.0
 11
2269.814440720002
 21
2459.930341844173
 31
0.0
  0
LINE
  5
35B
330
75
100
AcDbEntity
  8
MaVisibleEdge
100
AcDbLine
 10
1669.814440720002
 20
2459.930341844173
 30
0.0
 11
1669.814440720002
 21
2409.930341844173
 31
0.0
  0
LINE
  5
35C
330
75
100
AcDbEntity
  8
MaVisibleEdge
100
AcDbLine
 10
1669.814440720002
 20
2409.930341844173
 30
0.0
 11
2269.814440720002
 21
2409.930341844173
 31
0.0
  0
LINE
  5
35D
330
75
100
AcDbEntity
  8
MaHiddenEdge
100
AcDbLine
 10
2268.314440720002
 20
2458.430341844173
 30
0.0
 11
2268.314440720002
 21
2410.930341844173
 31
0.0
  0
LINE
  5
35E
330
75
100
AcDbEntity
  8
MaHiddenEdge
100
AcDbLine
 10
1771.314440720034
 20
2445.930341844173
 30
0.0
 11
1771.314440720034
 21
2267.430341844173
 31
0.0
  0
LINE
  5
35F
330
75
100
AcDbEntity
  8
MaHiddenEdge
100
AcDbLine
 10
2241.314440720019
 20
2444.430341844173
 30
0.0
 11
2201.814440720008
 21
2444.430341844173
 31
0.0
  0
LINE
  5
360
330
75
100
AcDbEntity
  8
MaHiddenEdge
100
AcDbLine
 10
1737.814440720007
 20
2444.430341844173
 30
0.0
 11
2201.814440720008
 21
2444.430341844173
 31
0.0
  0
LINE
  5
361
330
75
100
AcDbEntity
  8
MaHiddenEdge
100
AcDbLine
 10
1737.814440720007
 20
2444.430341844173
 30
0.0
 11
1698.314440720019
 21
2444.430341844173
 31
0.0
  0
LINE
  5
362
330
75
100
AcDbEntity
  8
MaHiddenEdge
100
AcDbLine
 10
1671.314440720002
 20
2458.430341844173
 30
0.0
 11
1671.314440720002
 21
2411.430341844174
 31
0.0
  0
LINE
  5
363
330
75
100
AcDbEntity
  8
MaHiddenEdge
100
AcDbLine
 10
1671.314440720002
 20
2458.430341844173
 30
0.0
 11
2268.314440720002
 21
2458.430341844173
 31
0.0
  0
LINE
  5
364
330
75
100
AcDbEntity
  8
MaHiddenEdge
100
AcDbLine
 10
1698.314440720019
 20
2458.430341844173
 30
0.0
 11
1698.314440720019
 21
2444.430341844173
 31
0.0
  0
LINE
  5
365
330
75
100
AcDbEntity
  8
MaHiddenEdge
100
AcDbLine
 10
2241.314440720019
 20
2458.430341844173
 30
0.0
 11
2241.314440720019
 21
2444.430341844173
 31
0.0
  0
LINE
  5
366
330
75
100
AcDbEntity
  8
MaHiddenEdge
100
AcDbLine
 10
2218.314440720035
 20
2445.930341844173
 30
0.0
 11
2218.314440720035
 21
2267.430341844173
 31
0.0
  0
LINE
  5
367
330
75
100
AcDbEntity
  8
MaHiddenEdge
100
AcDbLine
 10
2143.314440720097
 20
2247.430341844173
 30
0.0
 11
2143.314440720097
 21
2067.430341844173
 31
0.0
  0
LINE
  5
368
330
75
100
AcDbEntity
  8
MaHiddenEdge
100
AcDbLine
 10
1846.314440720097
 20
2247.430341844173
 30
0.0
 11
1846.314440720097
 21
2067.430341844173
 31
0.0
  0
LINE
  5
369
330
75
100
AcDbEntity
  8
MaHiddenEdge
100
AcDbLine
 10
1684.814440720003
 20
2411.430341844174
 30
0.0
 11
1671.314440720002
 21
2411.430341844174
 31
0.0
  0
LINE
  5
36A
330
75
100
AcDbEntity
  8
MaHiddenEdge
100
AcDbLine
 10
1684.814440720003
 20
2410.930341844173
 30
0.0
 11
1684.814440720003
 21
2411.430341844174
 31
0.0
  0
LINE
  5
36B
330
75
100
AcDbEntity
  8
MaHiddenEdge
100
AcDbLine
 10
1974.814440720097
 20
2042.784138359804
 30
0.0
 11
2014.814440720097
 21
2042.784138359804
 31
0.0
  0
ARC
  5
36C
330
75
100
AcDbEntity
  8
MaHiddenEdge
100
AcDbCircle
 10
1974.814440720097
 20
2048.284138359804
 30
0.0
 40
5.500000000000013
100
AcDbArc
 50
214.6807461734166
 51
270.0
  0
ARC
  5
36D
330
75
100
AcDbEntity
  8
MaHiddenEdge
100
AcDbCircle
 10
2014.814440720097
 20
2048.284138359804
 30
0.0
 40
5.500000000000013
100
AcDbArc
 50
270.0
 51
325.3192538265833
  0
ARC
  5
36E
330
75
100
AcDbEntity
  8
MaHiddenEdge
100
AcDbCircle
 10
1960.012405377398
 20
2038.042080475106
 30
0.0
 40
12.49999999999998
100
AcDbArc
 50
34.68074617341341
 51
39.1284379597686
  0
ARC
  5
36F
330
75
100
AcDbEntity
  8
MaHiddenEdge
100
AcDbCircle
 10
2029.616476062795
 20
2038.042080475106
 30
0.0
 40
12.49999999999998
100
AcDbArc
 50
140.8715620402314
 51
145.319253826585
  0
LINE
  5
370
330
75
100
AcDbEntity
  8
MaVisibleEdge
100
AcDbLine
 10
1974.814440720097
 20
2041.284138359804
 30
0.0
 11
2014.814440720097
 21
2041.284138359804
 31
0.0
  0
ARC
  5
371
330
75
100
AcDbEntity
  8
MaVisibleEdge
100
AcDbCircle
 10
1974.814440720097
 20
2048.284138359804
 30
0.0
 40
7.0
100
AcDbArc
 50
214.6807461734166
 51
270.0
  0
ARC
  5
372
330
75
100
AcDbEntity
  8
MaVisibleEdge
100
AcDbCircle
 10
2014.814440720097
 20
2048.284138359804
 30
0.0
 40
7.0
100
AcDbArc
 50
270.0
 51
325.3192538265833
  0
ARC
  5
373
330
75
100
AcDbEntity
  8
MaVisibleEdge
100
AcDbCircle
 10
1960.012405377398
 20
2038.042080475106
 30
0.0
 40
11.0
100
AcDbArc
 50
34.68074617341479
 51
45.81677316716429
  0
ARC
  5
374
330
75
100
AcDbEntity
  8
MaVisibleEdge
100
AcDbCircle
 10
2029.616476062795
 20
2038.042080475106
 30
0.0
 40
11.0
100
AcDbArc
 50
134.1832268328342
 51
145.3192538265839
  0
LINE
  5
375
330
75
100
AcDbEntity
  8
MaVisibleEdge
100
AcDbLine
 10
1769.814440720034
 20
2265.930341844173
 30
0.0
 11
1769.814440720034
 21
2409.930341844173
 31
0.0
  0
LINE
  5
376
330
75
100
AcDbEntity
  8
MaVisibleEdge
100
AcDbLine
 10
2219.814440720034
 20
2265.930341844173
 30
0.0
 11
2219.814440720034
 21
2409.930341844173
 31
0.0
  0
LINE
  5
377
330
75
100
AcDbEntity
  8
MaHiddenEdge
100
AcDbLine
 10
1769.814440720034
 20
2409.930341844173
 30
0.0
 11
1769.814440720034
 21
2444.430341844173
 31
0.0
  0
LINE
  5
378
330
75
100
AcDbEntity
  8
MaHiddenEdge
100
AcDbLine
 10
2219.814440720034
 20
2409.930341844173
 30
0.0
 11
2219.814440720034
 21
2444.430341844173
 31
0.0
  0
LINE
  5
379
330
75
100
AcDbEntity
  8
MaHiddenEdge
100
AcDbLine
 10
2201.814440720014
 20
2445.930341844173
 30
0.0
 11
2220.735656691681
 21
2445.930341844173
 31
0.0
  0
LINE
  5
37A
330
75
100
AcDbEntity
  8
MaHiddenEdge
100
AcDbLine
 10
1718.893224748358
 20
2445.930341844173
 30
0.0
 11
1737.814440720014
 21
2445.930341844173
 31
0.0
  0
LINE
  5
37B
330
75
100
AcDbEntity
  8
MaHiddenEdge
100
AcDbLine
 10
2201.814440720013
 20
2445.930341844173
 30
0.0
 11
1737.814440720013
 21
2445.930341844173
 31
0.0
  0
ARC
  5
37C
330
75
100
AcDbEntity
  8
MaHiddenEdge
100
AcDbCircle
 10
1718.893224748358
 20
2465.930341844174
 30
0.0
 40
20.0
100
AcDbArc
 50
197.457603123721
 51
270.0
  0
ARC
  5
37D
330
75
100
AcDbEntity
  8
MaHiddenEdge
100
AcDbCircle
 10
2220.735656691681
 20
2465.930341844174
 30
0.0
 40
20.0
100
AcDbArc
 50
270.0
 51
342.5423968762778
  0
LINE
  5
37E
330
75
100
AcDbEntity
  8
MaHiddenEdge
100
AcDbLine
 10
2179.814440720029
 20
2247.430341844173
 30
0.0
 11
1809.814440720029
 21
2247.430341844173
 31
0.0
  0
LINE
  5
37F
330
75
100
AcDbEntity
  8
MaHiddenEdge
100
AcDbLine
 10
2179.814440720029
 20
2247.430341844173
 30
0.0
 11
2198.314440720034
 21
2247.430341844173
 31
0.0
  0
LINE
  5
380
330
75
100
AcDbEntity
  8
MaHiddenEdge
100
AcDbLine
 10
1791.314440720034
 20
2247.430341844173
 30
0.0
 11
1809.814440720029
 21
2247.430341844173
 31
0.0
  0
ARC
  5
381
330
75
100
AcDbEntity
  8
MaHiddenEdge
100
AcDbCircle
 10
2198.314440720034
 20
2267.430341844173
 30
0.0
 40
19.99999999999989
100
AcDbArc
 50
270.0
 51
0.0
  0
ARC
  5
382
330
75
100
AcDbEntity
  8
MaHiddenEdge
100
AcDbCircle
 10
1791.314440720034
 20
2267.430341844173
 30
0.0
 40
20.0
100
AcDbArc
 50
180.0
 51
270.0
  0
LINE
  5
383
330
75
100
AcDbEntity
  8
MaHiddenEdge
100
AcDbLine
 10
1866.314440720097
 20
2047.430341844173
 30
0.0
 11
2123.314440720097
 21
2047.430341844173
 31
0.0
  0
ARC
  5
384
330
75
100
AcDbEntity
  8
MaHiddenEdge
100
AcDbCircle
 10
2123.314440720097
 20
2067.430341844173
 30
0.0
 40
20.0
100
AcDbArc
 50
270.0
 51
0.0
  0
ARC
  5
385
330
75
100
AcDbEntity
  8
MaHiddenEdge
100
AcDbCircle
 10
1866.314440720097
 20
2067.430341844173
 30
0.0
 40
20.0
100
AcDbArc
 50
180.0
 51
270.0
  0
LINE
  5
386
330
75
100
AcDbEntity
  8
MaVisibleEdge
100
AcDbLine
 10
2199.814440720034
 20
2245.930341844173
 30
0.0
 11
2179.814440720029
 21
2245.930341844173
 31
0.0
  0
LINE
  5
387
330
75
100
AcDbEntity
  8
MaVisibleEdge
100
AcDbLine
 10
1809.814440720028
 20
2245.930341844173
 30
0.0
 11
2179.814440720029
 21
2245.930341844173
 31
0.0
  0
LINE
  5
388
330
75
100
AcDbEntity
  8
MaVisibleEdge
100
AcDbLine
 10
1809.814440720028
 20
2245.930341844173
 30
0.0
 11
1789.814440720034
 21
2245.930341844173
 31
0.0
  0
ARC
  5
389
330
75
100
AcDbEntity
  8
MaVisibleEdge
100
AcDbCircle
 10
1789.814440720034
 20
2265.930341844173
 30
0.0
 40
20.00000000000007
100
AcDbArc
 50
180.0
 51
270.0000000000006
  0
ARC
  5
38A
330
75
100
AcDbEntity
  8
MaVisibleEdge
100
AcDbCircle
 10
2199.814440720035
 20
2265.930341844173
 30
0.0
 40
19.99999999999998
100
AcDbArc
 50
270.0
 51
0.0
  0
LINE
  5
38B
330
75
100
AcDbEntity
  8
MaVisibleEdge
100
AcDbLine
 10
2124.814440720097
 20
2045.930341844173
 30
0.0
 11
1864.814440720097
 21
2045.930341844173
 31
0.0
  0
ARC
  5
38C
330
75
100
AcDbEntity
  8
MaVisibleEdge
100
AcDbCircle
 10
2124.814440720097
 20
2065.930341844174
 30
0.0
 40
20.0
100
AcDbArc
 50
270.0
 51
0.0
  0
ARC
  5
38D
330
75
100
AcDbEntity
  8
MaVisibleEdge
100
AcDbCircle
 10
1864.814440720097
 20
2065.930341844174
 30
0.0
 40
20.0
100
AcDbArc
 50
180.0
 51
270.0
  0
LINE
  5
38E
330
75
100
AcDbEntity
  8
MaHiddenEdge
100
AcDbLine
 10
1984.814440720079
 20
2247.430341844173
 30
0.0
 11
1984.814440720079
 21
2245.930341844173
 31
0.0
  0
LINE
  5
38F
330
75
100
AcDbEntity
  8
MaHiddenEdge
100
AcDbLine
 10
2004.814440720079
 20
2247.430341844173
 30
0.0
 11
2004.814440720079
 21
2245.930341844173
 31
0.0
  0
LINE
  5
390
330
75
100
AcDbEntity
  8
MaHiddenEdge
100
AcDbLine
 10
1924.814440720097
 20
2247.430341844173
 30
0.0
 11
1924.814440720097
 21
2245.930341844173
 31
0.0
  0
LINE
  5
391
330
75
100
AcDbEntity
  8
MaHiddenEdge
100
AcDbLine
 10
2064.814440720097
 20
2247.430341844173
 30
0.0
 11
2064.814440720097
 21
2245.930341844173
 31
0.0
  0
LINE
  5
392
330
75
100
AcDbEntity
  8
MaHiddenEdge
100
AcDbLine
 10
2141.814440720097
 20
2247.430341844173
 30
0.0
 11
2141.814440720097
 21
2245.930341844173
 31
0.0
  0
LINE
  5
393
330
75
100
AcDbEntity
  8
MaHiddenEdge
100
AcDbLine
 10
1847.814440720097
 20
2247.430341844173
 30
0.0
 11
1847.814440720097
 21
2245.930341844173
 31
0.0
  0
LINE
  5
394
330
75
100
AcDbEntity
  8
MaHiddenEdge
100
AcDbLine
 10
1752.99094072001
 20
2409.930341844173
 30
0.0
 11
1752.99094072001
 21
2419.930341844173
 31
0.0
  0
LINE
  5
395
330
75
100
AcDbEntity
  8
MaHiddenEdge
100
AcDbLine
 10
1759.63794072001
 20
2409.930341844173
 30
0.0
 11
1759.63794072001
 21
2419.930341844173
 31
0.0
  0
LINE
  5
396
330
75
100
AcDbEntity
  8
MaHiddenEdge
100
AcDbLine
 10
2184.99094072001
 20
2409.930341844173
 30
0.0
 11
2184.99094072001
 21
2419.930341844173
 31
0.0
  0
LINE
  5
397
330
75
100
AcDbEntity
  8
MaHiddenEdge
100
AcDbLine
 10
2191.63794072001
 20
2409.930341844173
 30
0.0
 11
2191.63794072001
 21
2419.930341844173
 31
0.0
  0
LINE
  5
398
330
75
100
AcDbEntity
  8
MaHiddenEdge
100
AcDbLine
 10
1752.31444072001
 20
2419.930341844173
 30
0.0
 11
1752.31444072001
 21
2409.930341844173
 31
0.0
  0
LINE
  5
399
330
75
100
AcDbEntity
  8
MaHiddenEdge
100
AcDbLine
 10
1760.31444072001
 20
2409.930341844173
 30
0.0
 11
1760.31444072001
 21
2419.930341844173
 31
0.0
  0
LINE
  5
39A
330
75
100
AcDbEntity
  8
MaHiddenEdge
100
AcDbLine
 10
2184.31444072001
 20
2419.930341844173
 30
0.0
 11
2184.31444072001
 21
2409.930341844173
 31
0.0
  0
LINE
  5
39B
330
75
100
AcDbEntity
  8
MaHiddenEdge
100
AcDbLine
 10
2192.31444072001
 20
2409.930341844173
 30
0.0
 11
2192.31444072001
 21
2419.930341844173
 31
0.0
  0
LINE
  5
39C
330
75
100
AcDbEntity
  8
MaHiddenEdge
100
AcDbLine
 10
1975.764440720097
 20
2045.930341844173
 30
0.0
 11
1975.764440720097
 21
2047.430341844173
 31
0.0
  0
LINE
  5
39D
330
75
100
AcDbEntity
  8
MaHiddenEdge
100
AcDbLine
 10
2013.864440720097
 20
2045.930341844173
 30
0.0
 11
2013.864440720097
 21
2047.430341844173
 31
0.0
  0
LINE
  5
39E
330
75
100
AcDbEntity
  8
MaHiddenEdge
100
AcDbLine
 10
1975.764440720097
 20
2041.284138359804
 30
0.0
 11
1975.764440720097
 21
2042.784138359804
 31
0.0
  0
LINE
  5
39F
330
75
100
AcDbEntity
  8
MaHiddenEdge
100
AcDbLine
 10
2013.864440720097
 20
2041.284138359804
 30
0.0
 11
2013.864440720097
 21
2042.784138359804
 31
0.0
  0
LINE
  5
3A0
330
75
100
AcDbEntity
  8
MaVisibleEdge
100
AcDbLine
 10
2144.814440720097
 20
2245.930341844173
 30
0.0
 11
2144.814440720097
 21
2065.930341844174
 31
0.0
  0
LINE
  5
3A1
330
75
100
AcDbEntity
  8
MaVisibleEdge
100
AcDbLine
 10
1844.814440720097
 20
2245.930341844173
 30
0.0
 11
1844.814440720097
 21
2065.930341844174
 31
0.0
  0
DIMENSION
  5
3A2
330
75
100
AcDbEntity
  8
Bemaßungen(DIN)
  6
Continuous
 62
     7
370
    30
100
AcDbDimension
  2
*D11
 10
1436.044249842319
 20
2668.561843429028
 30
0.0
 11
936.0442498423187
 21
2668.561843429028
 31
0.0
 70
   160
  1
<>
 71
     4
 42
1000.0
  3
MarketingDrawing
100
AcDbAlignedDimension
 13
436.0442498423188
 23
2434.930341844173
 33
0.0
 14
1436.044249842319
 24
2434.930341844173
 34
0.0
 50
180.0
100
AcDbRotatedDimension
1001
ACAD
1000
DSTYLE
1002
{
1070
   289
1070
     2
1070
    73
1070
     0
1070
    74
1070
     0
1070
   271
1070
     0
1070
   272
1070
     4
1070
    48
1040
0.0
1070
    47
1040
0.0
1002
}
  0
LINE
  5
483
330
75
100
AcDbEntity
  8
MaCenterline
  6
CHAIN
 48
6.38934278488159
100
AcDbLine
 10
463.0442498423189
 20
2380.930341844173
 30
0.0
 11
463.0442498423189
 21
2449.930341844174
 31
0.0
  0
LINE
  5
484
330
75
100
AcDbEntity
  8
MaCenterline
  6
CHAIN
 48
6.38934278488159
100
AcDbLine
 10
1409.044249842319
 20
2380.930341844173
 30
0.0
 11
1409.044249842319
 21
2449.930341844174
 31
0.0
  0
LINE
  5
485
330
75
100
AcDbEntity
  8
MaCenterline
  6
CHAIN
 48
6.38934278488159
100
AcDbLine
 10
1756.31444072001
 20
2380.930341844173
 30
0.0
 11
1756.31444072001
 21
2449.930341844174
 31
0.0
  0
LINE
  5
486
330
75
100
AcDbEntity
  8
MaCenterline
  6
CHAIN
 48
6.38934278488159
100
AcDbLine
 10
2188.31444072001
 20
2380.930341844173
 30
0.0
 11
2188.31444072001
 21
2449.930341844174
 31
0.0
  0
DIMENSION
  5
487
330
75
100
AcDbEntity
  8
Bemaßungen(DIN)
  6
Continuous
 62
     7
370
    30
100
AcDbDimension
  2
*D12
 10
463.0442498423189
 20
2569.930341844174
 30
0.0
 11
936.0442498423187
 21
2569.930341844174
 31
0.0
 70
   160
  1
<>
 71
     4
 42
946.0
  3
MarketingDrawing
100
AcDbAlignedDimension
 13
1409.044249842319
 23
2449.930341844174
 33
0.0
 14
463.0442498423189
 24
2449.930341844174
 34
0.0
100
AcDbRotatedDimension
1001
ACAD
1000
DSTYLE
1002
{
1070
   289
1070
     2
1070
    73
1070
     0
1070
    74
1070
     0
1070
   271
1070
     0
1070
   272
1070
     4
1070
    48
1040
0.0
1070
    47
1040
0.0
1002
}
  0
DIMENSION
  5
567
330
75
100
AcDbEntity
  8
Bemaßungen(DIN)
  6
Continuous
 62
     7
370
    30
100
AcDbDimension
  2
*D13
 10
463.0442498423189
 20
2350.139206343706
 30
0.0
 11
298.0724907851765
 21
2350.139206343706
 31
0.0
 70
   160
  1
<>
 71
     4
 42
25.49999999999994
  3
MarketingDrawing
100
AcDbAlignedDimension
 13
437.544249842319
 23
2410.930341844173
 33
0.0
 14
463.0442498423189
 24
2380.930341844173
 34
0.0
 50
180.0
100
AcDbRotatedDimension
1001
ACAD
1000
DSTYLE
1002
{
1070
   289
1070
     2
1070
    73
1070
     0
1070
    74
1070
     0
1070
   271
1070
     0
1070
   272
1070
     4
1070
    48
1040
0.0
1070
    47
1040
0.0
1002
}
  0
DIMENSION
  5
647
330
75
100
AcDbEntity
  8
Bemaßungen(DIN)
  6
Continuous
 62
     7
370
    30
100
AcDbDimension
  2
*D14
 10
1492.120481761207
 20
2409.930341844173
 30
0.0
 11
1582.988148064912
 21
2583.26231628612
 31
0.0
 70
   160
  1
<>
 71
     4
 42
50.0
  3
MarketingDrawing
100
AcDbAlignedDimension
 13
1436.044249842319
 23
2459.930341844173
 33
0.0
 14
1436.044249842319
 24
2409.930341844173
 34
0.0
 50
270.0
100
AcDbRotatedDimension
1001
ACAD
1000
DSTYLE
1002
{
1070
   289
1070
     2
1070
   271
1070
     0
1070
   272
1070
     4
1070
    48
1040
0.0
1070
    47
1040
0.0
1002
}
  0
DIMENSION
  5
72F
330
75
100
AcDbEntity
  8
Bemaßungen(DIN)
  6
Continuous
 62
     7
370
    30
100
AcDbDimension
  2
*D15
 10
1413.044249842319
 20
2355.861641939901
 30
0.0
 11
1258.181445906314
 21
2355.861641939901
 31
0.0
 70
   160
  1
\fArial|b0|i0;\H48.0000;M<>
 71
     4
 42
8.0
  3
MarketingDrawing
100
AcDbAlignedDimension
 13
1405.044249842319
 23
2409.930341844173
 33
0.0
 14
1413.044249842319
 24
2409.930341844173
 34
0.0
 50
180.0
100
AcDbRotatedDimension
1001
ACAD
1000
DSTYLE
1002
{
1070
   289
1070
     2
1070
    73
1070
     0
1070
    74
1070
     0
1070
   271
1070
     0
1070
   272
1070
     4
1070
    48
1040
0.0
1070
    47
1040
0.0
1002
}
  0
DIMENSION
  5
80F
330
75
100
AcDbEntity
  8
Bemaßungen(DIN)
  6
Continuous
 62
     7
370
    30
100
AcDbDimension
  2
*D16
 10
906.044249842319
 20
1945.930341844173
 30
0.0
 11
756.0442498423189
 21
1945.930341844173
 31
0.0
 70
   160
  1
\fArial|b0|i0;\H48.0000;Ø<>
 71
     4
 42
300.0000000000001
  3
MarketingDrawing
100
AcDbAlignedDimension
 13
606.0442498423189
 23
2065.930341844174
 33
0.0
 14
906.044249842319
 24
2065.930341844174
 34
0.0
 50
180.0
100
AcDbRotatedDimension
1001
ACAD
1000
DSTYLE
1002
{
1070
   289
1070
     2
1070
    73
1070
     0
1070
    74
1070
     0
1070
   271
1070
     0
1070
   272
1070
     4
1070
    48
1040
0.0
1070
    47
1040
0.0
1002
}
  0
DIMENSION
  5
8EF
330
75
100
AcDbEntity
  8
Bemaßungen(DIN)
  6
Continuous
 62
     7
370
    30
100
AcDbDimension
  2
*D17
 10
1006.044249842319
 20
1857.930341844173
 30
0.0
 11
756.0442498423189
 21
1857.930341844173
 31
0.0
 70
   160
  1
\fAIGDT|b0|i0;\H48.0000;o\fArial|b0|i0;\H48.0000;<>
 71
     4
 42
500.0
  3
MarketingDrawing
100
AcDbAlignedDimension
 13
506.0442498423189
 23
2265.930341844173
 33
0.0
 14
1006.044249842319
 24
2265.930341844173
 34
0.0
100
AcDbRotatedDimension
1001
ACAD
1000
DSTYLE
1002
{
1070
   289
1070
     2
1070
    73
1070
     0
1070
    74
1070
     0
1070
   271
1070
     0
1070
   272
1070
     4
1070
    48
1040
0.0
1070
    47
1040
0.0
1002
}
  0
LINE
  5
9D0
330
75
100
AcDbEntity
  8
MaCenterline
  6
CHAIN
 48
5.694838047027587
100
AcDbLine
 10
1994.814440720096
 20
2011.284138359804
 30
0.0
 11
1994.814440720096
 21
2072.784138359804
 31
0.0
  0
LINE
  5
9D1
330
75
100
AcDbEntity
  8
MaCenterline
  6
CHAIN
 48
5.694838047027587
100
AcDbLine
 10
756.0442498423189
 20
2011.284138359804
 30
0.0
 11
756.0442498423189
 21
2072.784138359804
 31
0.0
  0
DIMENSION
  5
9D2
330
75
100
AcDbEntity
  8
Bemaßungen(DIN)
  6
Continuous
 62
     7
370
    30
100
AcDbDimension
  2
*D18
 10
2013.864440720097
 20
1921.284138359804
 30
0.0
 11
1836.793636629219
 21
1921.284138359804
 31
0.0
 70
   160
  1
<>
 71
     4
 42
38.0999999999999
  3
MarketingDrawing
100
AcDbAlignedDimension
 13
1975.764440720096
 23
2042.034138359804
 33
0.0
 14
2013.864440720097
 24
2041.284138359804
 34
0.0
 50
180.0
100
AcDbRotatedDimension
1001
ACAD
1000
DSTYLE
1002
{
1070
   289
1070
     2
1070
    73
1070
     0
1070
    74
1070
     0
1070
   271
1070
     0
1070
   272
1070
     4
1070
    48
1040
0.0
1070
    47
1040
0.0
1002
}
  0
DIMENSION
  5
AB2
330
75
100
AcDbEntity
  8
Bemaßungen(DIN)
  6
Continuous
 62
     7
370
    30
100
AcDbDimension
  2
*D19
 10
1693.371471803686
 20
932.8647771985918
 30
0.0
 11
1693.371471803685
 21
1243.341514585973
 31
0.0
 70
   160
  1
<>
 71
     4
 42
599.9999999999999
  3
MarketingDrawing
100
AcDbAlignedDimension
 13
436.0442498417202
 23
1532.864777198592
 33
0.0
 14
436.0442498417202
 24
932.8647771985922
 34
0.0
 50
90.0
100
AcDbRotatedDimension
1001
ACAD
1000
DSTYLE
1002
{
1070
   289
1070
     2
1070
   271
1070
     0
1070
   272
1070
     4
1070
    48
1040
0.0
1070
    47
1040
0.0
1002
}
  0
DIMENSION
  5
B8D
330
75
100
AcDbEntity
  8
Bemaßungen(DIN)
  6
Continuous
 62
     7
370
    30
100
AcDbDimension
  2
*D20
 10
1436.04424984172
 20
1726.297406258949
 30
0.0
 11
936.0442498417199
 21
1726.297406258949
 31
0.0
 70
   160
  1
<>
 71
     4
 42
999.9999999999996
  3
MarketingDrawing
100
AcDbAlignedDimension
 13
436.0442498417202
 23
1532.864777198592
 33
0.0
 14
1436.04424984172
 24
1532.864777198592
 34
0.0
 50
180.0
100
AcDbRotatedDimension
1001
ACAD
1000
DSTYLE
1002
{
1070
   289
1070
     2
1070
    73
1070
     0
1070
    74
1070
     0
1070
   271
1070
     0
1070
   272
1070
     4
1070
    48
1040
0.0
1070
    47
1040
0.0
1002
}
  0
DIMENSION
  5
C6D
330
75
100
AcDbEntity
  8
Bemaßungen(DIN)
  6
Continuous
 62
     7
370
    30
100
AcDbDimension
  2
*D21
 10
436.0442498417202
 20
1652.864777198592
 30
0.0
 11
646.0877688143122
 21
1652.864777198592
 31
0.0
 70
   160
  1
<>
 71
     4
 42
71.5
  3
MarketingDrawing
100
AcDbAlignedDimension
 13
507.5442498417202
 23
1392.864777198588
 33
0.0
 14
436.0442498417202
 24
1532.864777198592
 34
0.0
100
AcDbRotatedDimension
1001
ACAD
1000
DSTYLE
1002
{
1070
   289
1070
     2
1070
    73
1070
     0
1070
    74
1070
     0
1070
   271
1070
     0
1070
   272
1070
     4
1070
    48
1040
0.0
1070
    47
1040
0.0
1002
}
  0
DIMENSION
  5
D4D
330
75
100
AcDbEntity
  8
Bemaßungen(DIN)
  6
Continuous
 62
     7
370
    30
100
AcDbDimension
  2
*D22
 10
1554.54424984172
 20
1431.364777198588
 30
0.0
 11
1554.54424984172
 21
1482.11477719859
 31
0.0
 70
   160
  1
<>
 71
     4
 42
101.5000000000038
  3
MarketingDrawing
100
AcDbAlignedDimension
 13
1436.04424984172
 23
1532.864777198592
 33
0.0
 14
966.0442498417204
 24
1431.364777198588
 34
0.0
 50
90.0
100
AcDbRotatedDimension
1001
ACAD
1000
DSTYLE
1002
{
1070
   289
1070
     2
1070
   271
1070
     0
1070
   272
1070
     4
1070
    48
1040
0.0
1070
    47
1040
0.0
1002
}
  0
DIMENSION
  5
E2A
330
75
100
AcDbEntity
  8
Bemaßungen(DIN)
  6
Continuous
 62
     7
370
    30
100
AcDbDimension
  2
*D23
 10
2239.814440720019
 20
2671.588706872413
 30
0.0
 11
1969.814440720019
 21
2671.588706872413
 31
0.0
 70
   160
  1
<>
 71
     4
 42
540.0000000000003
  3
MarketingDrawing
100
AcDbAlignedDimension
 13
1699.814440720019
 23
2459.930341844173
 33
0.0
 14
2239.814440720019
 24
2459.930341844173
 34
0.0
 50
180.0
100
AcDbRotatedDimension
1001
ACAD
1000
DSTYLE
1002
{
1070
   289
1070
     2
1070
    73
1070
     0
1070
    74
1070
     0
1070
   271
1070
     0
1070
   272
1070
     4
1070
    48
1040
0.0
1070
    47
1040
0.0
1002
}
  0
DIMENSION
  5
F0A
330
75
100
AcDbEntity
  8
Bemaßungen(DIN)
  6
Continuous
 62
     7
370
    30
100
AcDbDimension
  2
*D24
 10
2188.31444072001
 20
2569.930341844174
 30
0.0
 11
1972.31444072001
 21
2569.930341844174
 31
0.0
 70
   160
  1
<>
 71
     4
 42
432.0
  3
MarketingDrawing
100
AcDbAlignedDimension
 13
1756.31444072001
 23
2449.930341844174
 33
0.0
 14
2188.31444072001
 24
2449.930341844174
 34
0.0
100
AcDbRotatedDimension
1001
ACAD
1000
DSTYLE
1002
{
1070
   289
1070
     2
1070
    73
1070
     0
1070
    74
1070
     0
1070
   271
1070
     0
1070
   272
1070
     4
1070
    48
1040
0.0
1070
    47
1040
0.0
1002
}
  0
DIMENSION
  5
FEA
330
75
100
AcDbEntity
  8
Bemaßungen(DIN)
  6
Continuous
 62
     7
370
    30
100
AcDbDimension
  2
*D25
 10
1600.814440720097
 20
2045.930341844173
 30
0.0
 11
1600.814440720097
 21
2252.930341844173
 31
0.0
 70
   160
  1
<>
 71
     4
 42
413.9999999999997
  3
MarketingDrawing
100
AcDbAlignedDimension
 13
1669.814440720002
 23
2459.930341844173
 33
0.0
 14
1864.814440720097
 24
2045.930341844173
 34
0.0
 50
270.0
100
AcDbRotatedDimension
1001
ACAD
1000
DSTYLE
1002
{
1070
   289
1070
     2
1070
   271
1070
     0
1070
   272
1070
     4
1070
    48
1040
0.0
1070
    47
1040
0.0
1002
}
  0
DIMENSION
  5
10C5
330
75
100
AcDbEntity
  8
Bemaßungen(DIN)
  6
Continuous
 62
     7
370
    30
100
AcDbDimension
  2
*D26
 10
1744.814440720097
 20
2045.930341844173
 30
0.0
 11
1744.814440720096
 21
2145.930341844173
 31
0.0
 70
   160
  1
<>
 71
     4
 42
199.9999999999998
  3
MarketingDrawing
100
AcDbAlignedDimension
 13
1809.814440720028
 23
2245.930341844173
 33
0.0
 14
1864.814440720097
 24
2045.930341844173
 34
0.0
 50
270.0
100
AcDbRotatedDimension
1001
ACAD
1000
DSTYLE
1002
{
1070
   289
1070
     2
1070
   271
1070
     0
1070
   272
1070
     4
1070
    48
1040
0.0
1070
    47
1040
0.0
1002
}
  0
ENDSEC
  0
SECTION
  2
OBJECTS
  0
DICTIONARY
  5
C
330
0
100
AcDbDictionary
281
     1
  3
ACAD_COLOR
350
6B
  3
ACAD_GROUP
350
D
  3
ACAD_LAYOUT
350
6A
  3
ACAD_MATERIAL
350
10
  3
ACAD_MLEADERSTYLE
350
6E
  3
ACAD_MLINESTYLE
350
67
  3
ACAD_PLOTSETTINGS
350
69
  3
ACAD_PLOTSTYLENAME
350
E
  3
ACAD_SCALELIST
350
3A
  3
ACAD_TABLESTYLE
350
6C
  3
ACAD_VISUALSTYLE
350
29
  3
ACDB_RECOMPOSE_DATA
350
11A9
  3
AcDbVariableDictionary
350
11A0
  3
DWGPROPS
350
11EE
  0
DICTIONARY
  5
11D2
330
5C
100
AcDbDictionary
280
     1
281
     1
  3
ADSK_XREC_LAYER_RECONCILED
360
11D3
  0
DICTIONARY
  5
11D4
330
C9
100
AcDbDictionary
280
     1
281
     1
  3
ADSK_XREC_LAYER_RECONCILED
360
11D5
  0
DICTIONARY
  5
11D6
330
CF
100
AcDbDictionary
280
     1
281
     1
  3
ADSK_XREC_LAYER_RECONCILED
360
11D7
  0
DICTIONARY
  5
11D8
330
D5
100
AcDbDictionary
280
     1
281
     1
  3
ADSK_XREC_LAYER_RECONCILED
360
11D9
  0
DICTIONARY
  5
11DA
330
DC
100
AcDbDictionary
280
     1
281
     1
  3
ADSK_XREC_LAYER_RECONCILED
360
11DB
  0
DICTIONARY
  5
11DC
330
DD
100
AcDbDictionary
280
     1
281
     1
  3
ADSK_XREC_LAYER_RECONCILED
360
11DD
  0
DICTIONARY
  5
11DE
330
DF
100
AcDbDictionary
280
     1
281
     1
  3
ADSK_XREC_LAYER_RECONCILED
360
11DF
  0
DICTIONARY
  5
11E0
330
E0
100
AcDbDictionary
280
     1
281
     1
  3
ADSK_XREC_LAYER_RECONCILED
360
11E1
  0
DICTIONARY
  5
11E2
330
E8
100
AcDbDictionary
280
     1
281
     1
  3
ADSK_XREC_LAYER_RECONCILED
360
11E3
  0
DICTIONARY
  5
11E4
330
EF
100
AcDbDictionary
280
     1
281
     1
  3
ADSK_XREC_LAYER_RECONCILED
360
11E5
  0
DICTIONARY
  5
11E6
330
F0
100
AcDbDictionary
280
     1
281
     1
  3
ADSK_XREC_LAYER_RECONCILED
360
11E7
  0
DICTIONARY
  5
11E8
330
FA
100
AcDbDictionary
280
     1
281
     1
  3
ADSK_XREC_LAYER_RECONCILED
360
11E9
  0
DICTIONARY
  5
11EA
330
102
100
AcDbDictionary
280
     1
281
     1
  3
ADSK_XREC_LAYER_RECONCILED
360
11EB
  0
DICTIONARY
  5
6B
102
{ACAD_REACTORS
330
C
102
}
330
C
100
AcDbDictionary
281
     1
  0
DICTIONARY
  5
D
102
{ACAD_REACTORS
330
C
102
}
330
C
100
AcDbDictionary
281
     1
  0
DICTIONARY
  5
6A
102
{ACAD_REACTORS
330
C
102
}
330
C
100
AcDbDictionary
281
     1
  3
Layout1
350
74
  3
Layout2
350
7C
  3
Model
350
78
  0
DICTIONARY
  5
10
102
{ACAD_REACTORS
330
C
102
}
330
C
100
AcDbDictionary
281
     1
  3
ByBlock
350
19
  3
ByLayer
350
11
  3
Global
350
21
  0
DICTIONARY
  5
6E
102
{ACAD_REACTORS
330
C
102
}
330
C
100
AcDbDictionary
281
     1
  3
Standard
350
6F
  0
DICTIONARY
  5
67
102
{ACAD_REACTORS
330
C
102
}
330
C
100
AcDbDictionary
281
     1
  3
Standard
350
68
  0
DICTIONARY
  5
69
102
{ACAD_REACTORS
330
C
102
}
330
C
100
AcDbDictionary
281
     1
  0
ACDBDICTIONARYWDFLT
  5
E
102
{ACAD_REACTORS
330
C
102
}
330
C
100
AcDbDictionary
281
     1
  3
Normal
350
F
100
AcDbDictionaryWithDefault
340
F
  0
DICTIONARY
  5
3A
102
{ACAD_REACTORS
330
C
102
}
330
C
100
AcDbDictionary
281
     1
  3
A0
350
3B
  3
A1
350
3C
  3
A2
350
3D
  3
A3
350
3E
  3
A4
350
3F
  3
A5
350
40
  3
A6
350
41
  3
A7
350
42
  3
A8
350
43
  3
A9
350
44
  3
B0
350
45
  3
B1
350
46
  3
B2
350
47
  3
B3
350
48
  3
B4
350
49
  3
B5
350
4A
  3
B6
350
4B
  3
B7
350
4C
  3
B8
350
4D
  3
B9
350
4E
  3
C0
350
4F
  3
C1
350
50
  3
C2
350
51
  3
C3
350
52
  3
C4
350
53
  3
C5
350
54
  3
C6
350
55
  3
C7
350
56
  3
C8
350
57
  3
C9
350
58
  3
D0
350
59
  3
D1
350
5A
  3
D2
350
5B
  0
DICTIONARY
  5
6C
102
{ACAD_REACTORS
330
C
102
}
330
C
100
AcDbDictionary
281
     1
  3
Standard
350
6D
  0
DICTIONARY
  5
29
102
{ACAD_REACTORS
330
C
102
}
330
C
100
AcDbDictionary
281
     1
  3
2dWireframe
350
2F
  3
3D Hidden
350
31
  3
3dWireframe
350
30
  3
Basic
350
2E
  3
Brighten
350
35
  3
ColorChange
350
39
  3
Conceptual
350
32
  3
Dim
350
34
  3
Facepattern
350
38
  3
Flat
350
2A
  3
FlatWithEdges
350
2B
  3
Gouraud
350
2C
  3
GouraudWithEdges
350
2D
  3
Linepattern
350
37
  3
Realistic
350
33
  3
Thicken
350
36
  0
XRECORD
  5
11A9
102
{ACAD_REACTORS
330
C
102
}
330
C
100
AcDbXrecord
280
     1
 90
        1
330
6D
  0
DICTIONARY
  5
11A0
102
{ACAD_REACTORS
330
C
102
}
330
C
100
AcDbDictionary
281
     1
  3
CANNOSCALE
350
11A4
  3
CMLEADERSTYLE
350
11A2
  3
CTABLESTYLE
350
11A1
  3
DIMASSOC
350
11C7
  3
HIDETEXT
350
11C6
  3
INDEXCTL
350
11C5
  3
LIGHTINGUNITS
350
11A5
  3
MSLTSCALE
350
11A3
  3
SORTENTS
350
11C4
  0
XRECORD
  5
11EE
102
{ACAD_REACTORS
330
C
102
}
330
C
100
AcDbXrecord
280
     1
  1
DWGPROPS COOKIE
  2

  3

  4

  6

  7

  8
CJ036
  9

300
Manager=
301
Company=
302
Category=
303
Part Number=0093-122436
304
Description=Franke Plaster Sink RH
305
Project=
306
Designer=
307
Engineer=
308
Authority=
309
Cost Center=
 40
0.0012511921296296
 41
2455252.66421618
 42
2455267.394568611
  1

 90
       42
300
Vendor=
300
User Status=
300
Design Status=WorkInProgress
300
Checked by=
300
Engr Approved by=
300
Mfg Approved by=
300
Departement=FSI-Marketing
300
Project=Sirius
300
Collection=SIRX836
300
Category=CAD-Drawings
300
Document_Number=0093-122436
300
Unit=mm
300
Scale=NTS
300
Tolerance=ISO 2768 m
300
Drawn_By=HK034
300
Drawn_Date=01/15/2010
300
Modified_By=HK034
300
Modified_Date=02/22/2010
300
Revision_Index_1=D
300
Revision_By_1=CJ036
300
Revision_Memo_1=
300
Revision_Titel_1=
300
Status=
300
ECN=
300
Quantity=
300
EAN=7612210017568
300
FUN=
300
Part_number=SIRX836
300
Title=Franke Plaster Sink RH
300
Material=ST ST 304
300
Weight=19.065 kg
300
Revision_Date_1=02/24/2010
  0
XRECORD
  5
11D3
102
{ACAD_REACTORS
330
11D2
102
}
330
11D2
100
AcDbXrecord
280
     1
290
     1
  0
XRECORD
  5
11D5
102
{ACAD_REACTORS
330
11D4
102
}
330
11D4
100
AcDbXrecord
280
     1
290
     1
  0
XRECORD
  5
11D7
102
{ACAD_REACTORS
330
11D6
102
}
330
11D6
100
AcDbXrecord
280
     1
290
     1
  0
XRECORD
  5
11D9
102
{ACAD_REACTORS
330
11D8
102
}
330
11D8
100
AcDbXrecord
280
     1
290
     1
  0
XRECORD
  5
11DB
102
{ACAD_REACTORS
330
11DA
102
}
330
11DA
100
AcDbXrecord
280
     1
290
     1
  0
XRECORD
  5
11DD
102
{ACAD_REACTORS
330
11DC
102
}
330
11DC
100
AcDbXrecord
280
     1
290
     1
  0
XRECORD
  5
11DF
102
{ACAD_REACTORS
330
11DE
102
}
330
11DE
100
AcDbXrecord
280
     1
290
     1
  0
XRECORD
  5
11E1
102
{ACAD_REACTORS
330
11E0
102
}
330
11E0
100
AcDbXrecord
280
     1
290
     1
  0
XRECORD
  5
11E3
102
{ACAD_REACTORS
330
11E2
102
}
330
11E2
100
AcDbXrecord
280
     1
290
     1
  0
XRECORD
  5
11E5
102
{ACAD_REACTORS
330
11E4
102
}
330
11E4
100
AcDbXrecord
280
     1
290
     1
  0
XRECORD
  5
11E7
102
{ACAD_REACTORS
330
11E6
102
}
330
11E6
100
AcDbXrecord
280
     1
290
     1
  0
XRECORD
  5
11E9
102
{ACAD_REACTORS
330
11E8
102
}
330
11E8
100
AcDbXrecord
280
     1
290
     1
  0
XRECORD
  5
11EB
102
{ACAD_REACTORS
330
11EA
102
}
330
11EA
100
AcDbXrecord
280
     1
290
     1
  0
LAYOUT
  5
74
102
{ACAD_XDICTIONARY
360
11F0
102
}
102
{ACAD_REACTORS
330
6A
102
}
330
6A
100
AcDbPlotSettings
  1

  2

  4

  6

 40
0.0
 41
0.0
 42
0.0
 43
0.0
 44
0.0
 45
0.0
 46
0.0
 47
0.0
 48
0.0
 49
0.0
140
0.0
141
0.0
142
1.0
143
1.0
 70
   688
 72
     0
 73
     0
 74
     5
  7

 75
    16
147
1.0
148
0.0
149
0.0
100
AcDbLayout
  1
Layout1
 70
     1
 71
     1
 10
0.0
 20
0.0
 11
2520.0
 21
3564.0
 12
0.0
 22
0.0
 32
0.0
 14
0.0
 24
0.0
 34
0.0
 15
2520.0
 25
3564.0
 35
0.0
146
0.0
 13
0.0
 23
0.0
 33
0.0
 16
1.0
 26
0.0
 36
0.0
 17
0.0
 27
1.0
 37
0.0
 76
     0
330
71
  0
LAYOUT
  5
7C
102
{ACAD_XDICTIONARY
360
11F4
102
}
102
{ACAD_REACTORS
330
6A
102
}
330
6A
100
AcDbPlotSettings
  1

  2

  4

  6

 40
0.0
 41
0.0
 42
0.0
 43
0.0
 44
0.0
 45
0.0
 46
0.0
 47
0.0
 48
0.0
 49
0.0
140
0.0
141
0.0
142
1.0
143
1.0
 70
   688
 72
     0
 73
     0
 74
     5
  7

 75
    16
147
1.0
148
0.0
149
0.0
100
AcDbLayout
  1
Layout2
 70
     1
 71
     2
 10
0.0
 20
0.0
 11
12.0
 21
9.0
 12
0.0
 22
0.0
 32
0.0
 14
0.0
 24
0.0
 34
0.0
 15
0.0
 25
0.0
 35
0.0
146
0.0
 13
0.0
 23
0.0
 33
0.0
 16
1.0
 26
0.0
 36
0.0
 17
0.0
 27
1.0
 37
0.0
 76
     0
330
79
  0
LAYOUT
  5
78
102
{ACAD_XDICTIONARY
360
11F2
102
}
102
{ACAD_REACTORS
330
6A
102
}
330
6A
100
AcDbPlotSettings
  1

  2

  4

  6

 40
0.0
 41
0.0
 42
0.0
 43
0.0
 44
0.0
 45
0.0
 46
0.0
 47
0.0
 48
0.0
 49
0.0
140
0.0
141
0.0
142
1.0
143
1.0
 70
  1712
 72
     0
 73
     0
 74
     0
  7

 75
     0
147
1.0
148
0.0
149
0.0
100
AcDbLayout
  1
Model
 70
     1
 71
     0
 10
0.0
 20
0.0
 11
12.0
 21
9.0
 12
0.0
 22
0.0
 32
0.0
 14
0.0
 24
0.0
 34
0.0
 15
0.0
 25
0.0
 35
0.0
146
0.0
 13
0.0
 23
0.0
 33
0.0
 16
1.0
 26
0.0
 36
0.0
 17
0.0
 27
1.0
 37
0.0
 76
     0
330
75
331
5F
  0
MATERIAL
  5
19
102
{ACAD_XDICTIONARY
360
1A
102
}
102
{ACAD_REACTORS
330
10
102
}
330
10
100
AcDbMaterial
  1
ByBlock
 72
     0
 43
0.0208333333333333
 43
0.0
 43
0.0
 43
0.0
 43
0.0
 43
0.0208333333333333
 43
0.0
 43
0.0
 43
0.0
 43
0.0
 43
1.0
 43
0.0
 43
0.0
 43
0.0
 43
0.0
 43
1.0
 77
     0
 47
0.0208333333333333
 47
0.0
 47
0.0
 47
0.0
 47
0.0
 47
0.0208333333333333
 47
0.0
 47
0.0
 47
0.0
 47
0.0
 47
1.0
 47
0.0
 47
0.0
 47
0.0
 47
0.0
 47
1.0
171
     0
 49
0.0208333333333333
 49
0.0
 49
0.0
 49
0.0
 49
0.0
 49
0.0208333333333333
 49
0.0
 49
0.0
 49
0.0
 49
0.0
 49
1.0
 49
0.0
 49
0.0
 49
0.0
 49
0.0
 49
1.0
175
     0
142
0.0208333333333333
142
0.0
142
0.0
142
0.0
142
0.0
142
0.0208333333333333
142
0.0
142
0.0
142
0.0
142
0.0
142
1.0
142
0.0
142
0.0
142
0.0
142
0.0
142
1.0
179
     0
144
0.0208333333333333
144
0.0
144
0.0
144
0.0
144
0.0
144
0.0208333333333333
144
0.0
144
0.0
144
0.0
144
0.0
144
1.0
144
0.0
144
0.0
144
0.0
144
0.0
144
1.0
147
0.0208333333333333
147
0.0
147
0.0
147
0.0
147
0.0
147
0.0208333333333333
147
0.0
147
0.0
147
0.0
147
0.0
147
1.0
147
0.0
147
0.0
147
0.0
147
0.0
147
1.0
  0
MATERIAL
  5
11
102
{ACAD_XDICTIONARY
360
12
102
}
102
{ACAD_REACTORS
330
10
102
}
330
10
100
AcDbMaterial
  1
ByLayer
 72
     0
 43
0.0208333333333333
 43
0.0
 43
0.0
 43
0.0
 43
0.0
 43
0.0208333333333333
 43
0.0
 43
0.0
 43
0.0
 43
0.0
 43
1.0
 43
0.0
 43
0.0
 43
0.0
 43
0.0
 43
1.0
 77
     0
 47
0.0208333333333333
 47
0.0
 47
0.0
 47
0.0
 47
0.0
 47
0.0208333333333333
 47
0.0
 47
0.0
 47
0.0
 47
0.0
 47
1.0
 47
0.0
 47
0.0
 47
0.0
 47
0.0
 47
1.0
171
     0
 49
0.0208333333333333
 49
0.0
 49
0.0
 49
0.0
 49
0.0
 49
0.0208333333333333
 49
0.0
 49
0.0
 49
0.0
 49
0.0
 49
1.0
 49
0.0
 49
0.0
 49
0.0
 49
0.0
 49
1.0
175
     0
142
0.0208333333333333
142
0.0
142
0.0
142
0.0
142
0.0
142
0.0208333333333333
142
0.0
142
0.0
142
0.0
142
0.0
142
1.0
142
0.0
142
0.0
142
0.0
142
0.0
142
1.0
179
     0
144
0.0208333333333333
144
0.0
144
0.0
144
0.0
144
0.0
144
0.0208333333333333
144
0.0
144
0.0
144
0.0
144
0.0
144
1.0
144
0.0
144
0.0
144
0.0
144
0.0
144
1.0
147
0.0208333333333333
147
0.0
147
0.0
147
0.0
147
0.0
147
0.0208333333333333
147
0.0
147
0.0
147
0.0
147
0.0
147
1.0
147
0.0
147
0.0
147
0.0
147
0.0
147
1.0
  0
MATERIAL
  5
21
102
{ACAD_XDICTIONARY
360
22
102
}
102
{ACAD_REACTORS
330
10
102
}
330
10
100
AcDbMaterial
  1
Global
 72
     0
 43
0.0208333333333333
 43
0.0
 43
0.0
 43
0.0
 43
0.0
 43
0.0208333333333333
 43
0.0
 43
0.0
 43
0.0
 43
0.0
 43
1.0
 43
0.0
 43
0.0
 43
0.0
 43
0.0
 43
1.0
 77
     0
 47
0.0208333333333333
 47
0.0
 47
0.0
 47
0.0
 47
0.0
 47
0.0208333333333333
 47
0.0
 47
0.0
 47
0.0
 47
0.0
 47
1.0
 47
0.0
 47
0.0
 47
0.0
 47
0.0
 47
1.0
171
     0
 49
0.0208333333333333
 49
0.0
 49
0.0
 49
0.0
 49
0.0
 49
0.0208333333333333
 49
0.0
 49
0.0
 49
0.0
 49
0.0
 49
1.0
 49
0.0
 49
0.0
 49
0.0
 49
0.0
 49
1.0
175
     0
142
0.0208333333333333
142
0.0
142
0.0
142
0.0
142
0.0
142
0.0208333333333333
142
0.0
142
0.0
142
0.0
142
0.0
142
1.0
142
0.0
142
0.0
142
0.0
142
0.0
142
1.0
179
     0
144
0.0208333333333333
144
0.0
144
0.0
144
0.0
144
0.0
144
0.0208333333333333
144
0.0
144
0.0
144
0.0
144
0.0
144
1.0
144
0.0
144
0.0
144
0.0
144
0.0
144
1.0
147
0.0208333333333333
147
0.0
147
0.0
147
0.0
147
0.0
147
0.0208333333333333
147
0.0
147
0.0
147
0.0
147
0.0
147
1.0
147
0.0
147
0.0
147
0.0
147
0.0
147
1.0
  0
MLEADERSTYLE
  5
6F
102
{ACAD_REACTORS
330
6E
102
}
330
6E
100
AcDbMLeaderStyle
170
     2
171
     1
172
     0
 90
        2
 40
0.0
 41
0.0
173
     1
 91
-1056964608
340
63
 92
       -2
290
     1
 42
0.09
291
     1
 43
0.36
  3
Standard
 44
0.18
300

342
5D
174
     1
178
     6
175
     1
176
     0
 93
-1056964608
 45
0.18
292
     0
297
     0
 46
0.18
 94
-1056964608
 47
1.0
 49
1.0
140
1.0
293
     1
141
0.0
294
     1
177
     0
142
1.0
295
     0
296
     0
143
0.125
1001
ACAD_MLEADERVER
1070
     2
  0
MLINESTYLE
  5
68
102
{ACAD_REACTORS
330
67
102
}
330
67
100
AcDbMlineStyle
  2
STANDARD
 70
     0
  3

 62
   256
 51
90.0
 52
90.0
 71
     2
 49
0.5
 62
   256
  6
BYLAYER
 49
-0.5
 62
   256
  6
BYLAYER
  0
ACDBPLACEHOLDER
  5
F
102
{ACAD_REACTORS
330
E
102
}
330
E
  0
SCALE
  5
3B
102
{ACAD_REACTORS
330
3A
102
}
330
3A
100
AcDbScale
 70
     0
300
1:1
140
1.0
141
1.0
290
     1
  0
SCALE
  5
3C
102
{ACAD_REACTORS
330
3A
102
}
330
3A
100
AcDbScale
 70
     0
300
1:2
140
1.0
141
2.0
290
     0
  0
SCALE
  5
3D
102
{ACAD_REACTORS
330
3A
102
}
330
3A
100
AcDbScale
 70
     0
300
1:4
140
1.0
141
4.0
290
     0
  0
SCALE
  5
3E
102
{ACAD_REACTORS
330
3A
102
}
330
3A
100
AcDbScale
 70
     0
300
1:5
140
1.0
141
5.0
290
     0
  0
SCALE
  5
3F
102
{ACAD_REACTORS
330
3A
102
}
330
3A
100
AcDbScale
 70
     0
300
1:8
140
1.0
141
8.0
290
     0
  0
SCALE
  5
40
102
{ACAD_REACTORS
330
3A
102
}
330
3A
100
AcDbScale
 70
     0
300
1:10
140
1.0
141
10.0
290
     0
  0
SCALE
  5
41
102
{ACAD_REACTORS
330
3A
102
}
330
3A
100
AcDbScale
 70
     0
300
1:16
140
1.0
141
16.0
290
     0
  0
SCALE
  5
42
102
{ACAD_REACTORS
330
3A
102
}
330
3A
100
AcDbScale
 70
     0
300
1:20
140
1.0
141
20.0
290
     0
  0
SCALE
  5
43
102
{ACAD_REACTORS
330
3A
102
}
330
3A
100
AcDbScale
 70
     0
300
1:30
140
1.0
141
30.0
290
     0
  0
SCALE
  5
44
102
{ACAD_REACTORS
330
3A
102
}
330
3A
100
AcDbScale
 70
     0
300
1:40
140
1.0
141
40.0
290
     0
  0
SCALE
  5
45
102
{ACAD_REACTORS
330
3A
102
}
330
3A
100
AcDbScale
 70
     0
300
1:50
140
1.0
141
50.0
290
     0
  0
SCALE
  5
46
102
{ACAD_REACTORS
330
3A
102
}
330
3A
100
AcDbScale
 70
     0
300
1:100
140
1.0
141
100.0
290
     0
  0
SCALE
  5
47
102
{ACAD_REACTORS
330
3A
102
}
330
3A
100
AcDbScale
 70
     0
300
2:1
140
2.0
141
1.0
290
     0
  0
SCALE
  5
48
102
{ACAD_REACTORS
330
3A
102
}
330
3A
100
AcDbScale
 70
     0
300
4:1
140
4.0
141
1.0
290
     0
  0
SCALE
  5
49
102
{ACAD_REACTORS
330
3A
102
}
330
3A
100
AcDbScale
 70
     0
300
8:1
140
8.0
141
1.0
290
     0
  0
SCALE
  5
4A
102
{ACAD_REACTORS
330
3A
102
}
330
3A
100
AcDbScale
 70
     0
300
10:1
140
10.0
141
1.0
290
     0
  0
SCALE
  5
4B
102
{ACAD_REACTORS
330
3A
102
}
330
3A
100
AcDbScale
 70
     0
300
100:1
140
100.0
141
1.0
290
     0
  0
SCALE
  5
4C
102
{ACAD_REACTORS
330
3A
102
}
330
3A
100
AcDbScale
 70
     0
300
1/128" = 1'-0"
140
0.0078125
141
12.0
290
     0
  0
SCALE
  5
4D
102
{ACAD_REACTORS
330
3A
102
}
330
3A
100
AcDbScale
 70
     0
300
1/64" = 1'-0"
140
0.015625
141
12.0
290
     0
  0
SCALE
  5
4E
102
{ACAD_REACTORS
330
3A
102
}
330
3A
100
AcDbScale
 70
     0
300
1/32" = 1'-0"
140
0.03125
141
12.0
290
     0
  0
SCALE
  5
4F
102
{ACAD_REACTORS
330
3A
102
}
330
3A
100
AcDbScale
 70
     0
300
1/16" = 1'-0"
140
0.0625
141
12.0
290
     0
  0
SCALE
  5
50
102
{ACAD_REACTORS
330
3A
102
}
330
3A
100
AcDbScale
 70
     0
300
3/32" = 1'-0"
140
0.09375
141
12.0
290
     0
  0
SCALE
  5
51
102
{ACAD_REACTORS
330
3A
102
}
330
3A
100
AcDbScale
 70
     0
300
1/8" = 1'-0"
140
0.125
141
12.0
290
     0
  0
SCALE
  5
52
102
{ACAD_REACTORS
330
3A
102
}
330
3A
100
AcDbScale
 70
     0
300
3/16" = 1'-0"
140
0.1875
141
12.0
290
     0
  0
SCALE
  5
53
102
{ACAD_REACTORS
330
3A
102
}
330
3A
100
AcDbScale
 70
     0
300
1/4" = 1'-0"
140
0.25
141
12.0
290
     0
  0
SCALE
  5
54
102
{ACAD_REACTORS
330
3A
102
}
330
3A
100
AcDbScale
 70
     0
300
3/8" = 1'-0"
140
0.375
141
12.0
290
     0
  0
SCALE
  5
55
102
{ACAD_REACTORS
330
3A
102
}
330
3A
100
AcDbScale
 70
     0
300
1/2" = 1'-0"
140
0.5
141
12.0
290
     0
  0
SCALE
  5
56
102
{ACAD_REACTORS
330
3A
102
}
330
3A
100
AcDbScale
 70
     0
300
3/4" = 1'-0"
140
0.75
141
12.0
290
     0
  0
SCALE
  5
57
102
{ACAD_REACTORS
330
3A
102
}
330
3A
100
AcDbScale
 70
     0
300
1" = 1'-0"
140
1.0
141
12.0
290
     0
  0
SCALE
  5
58
102
{ACAD_REACTORS
330
3A
102
}
330
3A
100
AcDbScale
 70
     0
300
1-1/2" = 1'-0"
140
1.5
141
12.0
290
     0
  0
SCALE
  5
59
102
{ACAD_REACTORS
330
3A
102
}
330
3A
100
AcDbScale
 70
     0
300
3" = 1'-0"
140
3.0
141
12.0
290
     0
  0
SCALE
  5
5A
102
{ACAD_REACTORS
330
3A
102
}
330
3A
100
AcDbScale
 70
     0
300
6" = 1'-0"
140
6.0
141
12.0
290
     0
  0
SCALE
  5
5B
102
{ACAD_REACTORS
330
3A
102
}
330
3A
100
AcDbScale
 70
     0
300
1'-0" = 1'-0"
140
12.0
141
12.0
290
     0
  0
TABLESTYLE
  5
6D
102
{ACAD_XDICTIONARY
360
11A6
102
}
102
{ACAD_REACTORS
330
6C
102
}
330
6C
100
AcDbTableStyle
  3
Standard
 70
     0
 71
     0
 40
0.06
 41
0.06
280
     0
281
     0
  7
Standard
140
0.18
170
     2
 62
     0
 63
     7
283
     0
274
    -2
284
     1
 64
     0
275
    -2
285
     1
 65
     0
276
    -2
286
     1
 66
     0
277
    -2
287
     1
 67
     0
278
    -2
288
     1
 68
     0
279
    -2
289
     1
 69
     0
  7
Standard
140
0.25
170
     5
 62
     0
 63
     7
283
     0
274
    -2
284
     1
 64
     0
275
    -2
285
     1
 65
     0
276
    -2
286
     1
 66
     0
277
    -2
287
     1
 67
     0
278
    -2
288
     1
 68
     0
279
    -2
289
     1
 69
     0
  7
Standard
140
0.18
170
     5
 62
     0
 63
     7
283
     0
274
    -2
284
     1
 64
     0
275
    -2
285
     1
 65
     0
276
    -2
286
     1
 66
     0
277
    -2
287
     1
 67
     0
278
    -2
288
     1
 68
     0
279
    -2
289
     1
 69
     0
  0
VISUALSTYLE
  5
2F
102
{ACAD_REACTORS
330
29
102
}
330
29
100
AcDbVisualStyle
  2
2dWireframe
 70
     4
 71
     0
 72
     2
 73
     0
 90
        0
 40
-0.6
 41
-30.0
 62
     5
 63
     7
 74
     1
 91
        4
 64
     7
 65
   257
 75
     1
175
     1
 42
1.0
 92
        0
 66
   257
 43
1.0
 76
     1
 77
     6
 78
     2
 67
     7
 79
     5
170
     0
171
     0
290
     0
174
     0
 93
        1
 44
0.0
173
     0
291
     0
 45
0.0
1001
ACAD
1000
AcDbSavedByObjectVersion
1070
     0
1000
AcDbSavedByObjectVersion
1070
     0
  0
VISUALSTYLE
  5
31
102
{ACAD_REACTORS
330
29
102
}
330
29
100
AcDbVisualStyle
  2
3D Hidden
 70
     6
 71
     1
 72
     2
 73
     2
 90
        0
 40
-0.6
 41
-30.0
 62
     5
 63
     7
 74
     2
 91
        2
 64
     7
 65
   257
 75
     2
175
     1
 42
40.0
 92
        0
 66
   257
 43
1.0
 76
     1
 77
     6
 78
     2
 67
     7
 79
     3
170
     0
171
     0
290
     0
174
     0
 93
        1
 44
0.0
173
     0
291
     0
 45
0.0
1001
ACAD
1000
AcDbSavedByObjectVersion
1070
     0
1000
AcDbSavedByObjectVersion
1070
     0
  0
VISUALSTYLE
  5
30
102
{ACAD_REACTORS
330
29
102
}
330
29
100
AcDbVisualStyle
  2
3dWireframe
 70
     5
 71
     0
 72
     2
 73
     0
 90
        0
 40
-0.6
 41
-30.0
 62
     5
 63
     7
 74
     1
 91
        4
 64
     7
 65
   257
 75
     1
175
     1
 42
1.0
 92
        0
 66
   257
 43
1.0
 76
     1
 77
     6
 78
     2
 67
     7
 79
     5
170
     0
171
     0
290
     0
174
     0
 93
        1
 44
0.0
173
     0
291
     0
 45
0.0
1001
ACAD
1000
AcDbSavedByObjectVersion
1070
     0
1000
AcDbSavedByObjectVersion
1070
     0
  0
VISUALSTYLE
  5
2E
102
{ACAD_REACTORS
330
29
102
}
330
29
100
AcDbVisualStyle
  2
Basic
 70
     7
 71
     1
 72
     0
 73
     1
 90
        0
 40
-0.6
 41
-30.0
 62
     5
 63
     7
 74
     0
 91
        4
 64
     7
 65
   257
 75
     1
175
     1
 42
1.0
 92
        8
 66
     7
 43
1.0
 76
     1
 77
     6
 78
     2
 67
     7
 79
     5
170
     0
171
     0
290
     0
174
     0
 93
        1
 44
0.0
173
     0
291
     1
 45
0.0
1001
ACAD
1000
AcDbSavedByObjectVersion
1070
     0
1000
AcDbSavedByObjectVersion
1070
     0
  0
VISUALSTYLE
  5
35
102
{ACAD_REACTORS
330
29
102
}
330
29
100
AcDbVisualStyle
  2
Brighten
 70
    12
 71
     2
 72
     2
 73
     0
 90
        0
 40
-0.6
 41
-30.0
 62
     5
 63
     7
 74
     1
 91
        4
 64
     7
 65
   257
 75
     1
175
     1
 42
1.0
 92
        8
 66
     7
 43
1.0
 76
     1
 77
     6
 78
     2
 67
     7
 79
     5
170
     0
171
     0
290
     0
174
     0
 93
        1
 44
50.0
173
     0
291
     1
 45
0.0
1001
ACAD
1000
AcDbSavedByObjectVersion
1070
     0
1000
AcDbSavedByObjectVersion
1070
     0
  0
VISUALSTYLE
  5
39
102
{ACAD_REACTORS
330
29
102
}
330
29
100
AcDbVisualStyle
  2
ColorChange
 70
    16
 71
     2
 72
     2
 73
     3
 90
        0
 40
-0.6
 41
-30.0
 62
     5
 63
     8
 74
     1
 91
        4
 64
     7
 65
   257
 75
     1
175
     1
 42
1.0
 92
        8
 66
     8
 43
1.0
 76
     1
 77
     6
 78
     2
 67
     7
 79
     5
170
     0
171
     0
290
     0
174
     0
 93
        1
 44
0.0
173
     0
291
     1
 45
0.0
1001
ACAD
1000
AcDbSavedByObjectVersion
1070
     0
1000
AcDbSavedByObjectVersion
1070
     0
  0
VISUALSTYLE
  5
32
102
{ACAD_REACTORS
330
29
102
}
330
29
100
AcDbVisualStyle
  2
Conceptual
 70
     9
 71
     3
 72
     2
 73
     0
 90
        0
 40
-0.6
 41
-30.0
 62
     5
 63
     7
 74
     2
 91
        2
 64
     7
 65
   257
 75
     1
175
     1
 42
40.0
 92
        8
 66
     7
 43
1.0
 76
     1
 77
     6
 78
     2
 67
     7
 79
     3
170
     0
171
     0
290
     0
174
     0
 93
        1
 44
0.0
173
     0
291
     0
 45
0.0
1001
ACAD
1000
AcDbSavedByObjectVersion
1070
     0
1000
AcDbSavedByObjectVersion
1070
     0
  0
VISUALSTYLE
  5
34
102
{ACAD_REACTORS
330
29
102
}
330
29
100
AcDbVisualStyle
  2
Dim
 70
    11
 71
     2
 72
     2
 73
     0
 90
        0
 40
-0.6
 41
-30.0
 62
     5
 63
     7
 74
     1
 91
        4
 64
     7
 65
   257
 75
     1
175
     1
 42
1.0
 92
        8
 66
     7
 43
1.0
 76
     1
 77
     6
 78
     2
 67
     7
 79
     5
170
     0
171
     0
290
     0
174
     0
 93
        1
 44
-50.0
173
     0
291
     1
 45
0.0
1001
ACAD
1000
AcDbSavedByObjectVersion
1070
     0
1000
AcDbSavedByObjectVersion
1070
     0
  0
VISUALSTYLE
  5
38
102
{ACAD_REACTORS
330
29
102
}
330
29
100
AcDbVisualStyle
  2
Facepattern
 70
    15
 71
     2
 72
     2
 73
     0
 90
        0
 40
-0.6
 41
-30.0
 62
     5
 63
     7
 74
     1
 91
        4
 64
     7
 65
   257
 75
     1
175
     1
 42
1.0
 92
        8
 66
     7
 43
1.0
 76
     1
 77
     6
 78
     2
 67
     7
 79
     5
170
     0
171
     0
290
     0
174
     0
 93
        1
 44
0.0
173
     0
291
     1
 45
0.0
1001
ACAD
1000
AcDbSavedByObjectVersion
1070
     0
1000
AcDbSavedByObjectVersion
1070
     0
  0
VISUALSTYLE
  5
2A
102
{ACAD_REACTORS
330
29
102
}
330
29
100
AcDbVisualStyle
  2
Flat
 70
     0
 71
     2
 72
     1
 73
     1
 90
        2
 40
-0.6
 41
30.0
 62
     5
 63
     7
 74
     0
 91
        4
 64
     7
 65
   257
 75
     1
175
     1
 42
1.0
 92
        8
 66
     7
 43
1.0
 76
     1
 77
     6
 78
     2
 67
     7
 79
     5
170
     0
171
     0
290
     0
174
     0
 93
       13
 44
0.0
173
     0
291
     1
 45
0.0
1001
ACAD
1000
AcDbSavedByObjectVersion
1070
     0
1000
AcDbSavedByObjectVersion
1070
     0
  0
VISUALSTYLE
  5
2B
102
{ACAD_REACTORS
330
29
102
}
330
29
100
AcDbVisualStyle
  2
FlatWithEdges
 70
     1
 71
     2
 72
     1
 73
     1
 90
        2
 40
-0.6
 41
30.0
 62
     5
 63
     7
 74
     1
 91
        4
 64
     7
 65
   257
 75
     1
175
     1
 42
1.0
 92
        0
 66
   257
 43
1.0
 76
     1
 77
     6
 78
     2
 67
     7
 79
     5
170
     0
171
     0
290
     0
174
     0
 93
       13
 44
0.0
173
     0
291
     1
 45
0.0
1001
ACAD
1000
AcDbSavedByObjectVersion
1070
     0
1000
AcDbSavedByObjectVersion
1070
     0
  0
VISUALSTYLE
  5
2C
102
{ACAD_REACTORS
330
29
102
}
330
29
100
AcDbVisualStyle
  2
Gouraud
 70
     2
 71
     2
 72
     2
 73
     1
 90
        2
 40
-0.6
 41
30.0
 62
     5
 63
     7
 74
     0
 91
        4
 64
     7
 65
   257
 75
     1
175
     1
 42
1.0
 92
        0
 66
     7
 43
1.0
 76
     1
 77
     6
 78
     2
 67
     7
 79
     5
170
     0
171
     0
290
     0
174
     0
 93
       13
 44
0.0
173
     0
291
     1
 45
0.0
1001
ACAD
1000
AcDbSavedByObjectVersion
1070
     0
1000
AcDbSavedByObjectVersion
1070
     0
  0
VISUALSTYLE
  5
2D
102
{ACAD_REACTORS
330
29
102
}
330
29
100
AcDbVisualStyle
  2
GouraudWithEdges
 70
     3
 71
     2
 72
     2
 73
     1
 90
        2
 40
-0.6
 41
30.0
 62
     5
 63
     7
 74
     1
 91
        4
 64
     7
 65
   257
 75
     1
175
     1
 42
1.0
 92
        0
 66
   257
 43
1.0
 76
     1
 77
     6
 78
     2
 67
     7
 79
     5
170
     0
171
     0
290
     0
174
     0
 93
       13
 44
0.0
173
     0
291
     1
 45
0.0
1001
ACAD
1000
AcDbSavedByObjectVersion
1070
     0
1000
AcDbSavedByObjectVersion
1070
     0
  0
VISUALSTYLE
  5
37
102
{ACAD_REACTORS
330
29
102
}
330
29
100
AcDbVisualStyle
  2
Linepattern
 70
    14
 71
     2
 72
     2
 73
     0
 90
        0
 40
-0.6
 41
-30.0
 62
     5
 63
     7
 74
     1
 91
        4
 64
     7
 65
   257
 75
     7
175
     7
 42
1.0
 92
        8
 66
     7
 43
1.0
 76
     1
 77
     6
 78
     2
 67
     7
 79
     5
170
     0
171
     0
290
     0
174
     0
 93
        1
 44
0.0
173
     0
291
     1
 45
0.0
1001
ACAD
1000
AcDbSavedByObjectVersion
1070
     0
1000
AcDbSavedByObjectVersion
1070
     0
  0
VISUALSTYLE
  5
33
102
{ACAD_REACTORS
330
29
102
}
330
29
100
AcDbVisualStyle
  2
Realistic
 70
     8
 71
     2
 72
     2
 73
     0
 90
        0
 40
-0.6
 41
-30.0
 62
     5
 63
     7
 74
     1
 91
        0
 64
     7
 65
   257
 75
     1
175
     1
 42
1.0
 92
        8
 66
     8
 43
1.0
 76
     1
 77
     6
 78
     2
 67
     7
 79
     5
170
     0
171
     0
290
     0
174
     0
 93
       13
 44
0.0
173
     0
291
     0
 45
0.0
1001
ACAD
1000
AcDbSavedByObjectVersion
1070
     0
1000
AcDbSavedByObjectVersion
1070
     0
  0
VISUALSTYLE
  5
36
102
{ACAD_REACTORS
330
29
102
}
330
29
100
AcDbVisualStyle
  2
Thicken
 70
    13
 71
     2
 72
     2
 73
     0
 90
        0
 40
-0.6
 41
-30.0
 62
     5
 63
     7
 74
     1
 91
        4
 64
     7
 65
   257
 75
     1
175
     1
 42
1.0
 92
       12
 66
     7
 43
1.0
 76
     1
 77
     6
 78
     2
 67
     7
 79
     5
170
     0
171
     0
290
     0
174
     0
 93
        1
 44
0.0
173
     0
291
     1
 45
0.0
1001
ACAD
1000
AcDbSavedByObjectVersion
1070
     0
1000
AcDbSavedByObjectVersion
1070
     0
  0
DICTIONARYVAR
  5
11A4
102
{ACAD_REACTORS
330
11A0
102
}
330
11A0
100
DictionaryVariables
280
     0
  1
1:1
  0
DICTIONARYVAR
  5
11A2
102
{ACAD_REACTORS
330
11A0
102
}
330
11A0
100
DictionaryVariables
280
     0
  1
STANDARD
  0
DICTIONARYVAR
  5
11A1
102
{ACAD_REACTORS
330
11A0
102
}
330
11A0
100
DictionaryVariables
280
     0
  1
STANDARD
  0
DICTIONARYVAR
  5
11C7
102
{ACAD_REACTORS
330
11A0
102
}
330
11A0
100
DictionaryVariables
280
     0
  1
1
  0
DICTIONARYVAR
  5
11C6
102
{ACAD_REACTORS
330
11A0
102
}
330
11A0
100
DictionaryVariables
280
     0
  1
1
  0
DICTIONARYVAR
  5
11C5
102
{ACAD_REACTORS
330
11A0
102
}
330
11A0
100
DictionaryVariables
280
     0
  1
0
  0
DICTIONARYVAR
  5
11A5
102
{ACAD_REACTORS
330
11A0
102
}
330
11A0
100
DictionaryVariables
280
     0
  1
2
  0
DICTIONARYVAR
  5
11A3
102
{ACAD_REACTORS
330
11A0
102
}
330
11A0
100
DictionaryVariables
280
     0
  1
1
  0
DICTIONARYVAR
  5
11C4
102
{ACAD_REACTORS
330
11A0
102
}
330
11A0
100
DictionaryVariables
280
     0
  1
127
  0
DICTIONARY
  5
11F0
330
74
100
AcDbDictionary
280
     1
281
     1
  3
ACAD_XREC_ROUNDTRIP
360
11F1
  0
DICTIONARY
  5
11F4
330
7C
100
AcDbDictionary
280
     1
281
     1
  3
ACAD_XREC_ROUNDTRIP
360
11F5
  0
DICTIONARY
  5
11F2
330
78
100
AcDbDictionary
280
     1
281
     1
  3
ACAD_XREC_ROUNDTRIP
360
11F3
  0
DICTIONARY
  5
1A
330
19
100
AcDbDictionary
280
     1
281
     1
  3
ACAD_XREC_ROUNDTRIP
360
11AB
  3
BUMPTILE
360
1C
  3
DIFFUSETILE
360
1B
  3
OPACITYTILE
360
1F
  3
REFLECTIONTILE
360
1E
  3
REFRACTIONTILE
360
20
  3
SPECULARTILE
360
1D
  0
DICTIONARY
  5
12
330
11
100
AcDbDictionary
280
     1
281
     1
  3
ACAD_XREC_ROUNDTRIP
360
11AA
  3
BUMPTILE
360
14
  3
DIFFUSETILE
360
13
  3
OPACITYTILE
360
17
  3
REFLECTIONTILE
360
16
  3
REFRACTIONTILE
360
18
  3
SPECULARTILE
360
15
  0
DICTIONARY
  5
22
330
21
100
AcDbDictionary
280
     1
281
     1
  3
ACAD_XREC_ROUNDTRIP
360
11AC
  3
BUMPTILE
360
24
  3
DIFFUSETILE
360
23
  3
OPACITYTILE
360
27
  3
REFLECTIONTILE
360
26
  3
REFRACTIONTILE
360
28
  3
SPECULARTILE
360
25
  0
DICTIONARY
  5
11A6
330
6D
100
AcDbDictionary
280
     1
281
     1
  3
ACAD_ROUNDTRIP_2008_TABLESTYLE_CELLSTYLEMAP
360
11EC
  3
ACAD_XREC_ROUNDTRIP
360
11EF
  0
XRECORD
  5
11F1
102
{ACAD_REACTORS
330
11F0
102
}
330
11F0
100
AcDbXrecord
280
     1
102
SHADEPLOT
 70
     0
102
SHADEPLOTRESLEVEL
 70
     2
102
SHADEPLOTCUSTOMDPI
 70
   300
  0
XRECORD
  5
11F5
102
{ACAD_REACTORS
330
11F4
102
}
330
11F4
100
AcDbXrecord
280
     1
102
SHADEPLOT
 70
     0
102
SHADEPLOTRESLEVEL
 70
     2
102
SHADEPLOTCUSTOMDPI
 70
   300
  0
XRECORD
  5
11F3
102
{ACAD_REACTORS
330
11F2
102
}
330
11F2
100
AcDbXrecord
280
     1
102
SHADEPLOT
 70
     0
102
SHADEPLOTRESLEVEL
 70
     2
102
SHADEPLOTCUSTOMDPI
 70
   300
  0
XRECORD
  5
11AB
102
{ACAD_REACTORS
330
1A
102
}
330
1A
100
AcDbXrecord
280
     1
102
MATERIAL
148
0.0
149
0.0
149
0.0
 93
        0
 94
      127
282
     0
 72
     0
 77
     0
171
     0
175
     0
179
     0
273
     0
  0
XRECORD
  5
1C
102
{ACAD_REACTORS
330
1A
102
}
330
1A
100
AcDbXrecord
280
     1
270
     1
271
     1
  0
XRECORD
  5
1B
102
{ACAD_REACTORS
330
1A
102
}
330
1A
100
AcDbXrecord
280
     1
270
     1
271
     1
  0
XRECORD
  5
1F
102
{ACAD_REACTORS
330
1A
102
}
330
1A
100
AcDbXrecord
280
     1
270
     1
271
     1
  0
XRECORD
  5
1E
102
{ACAD_REACTORS
330
1A
102
}
330
1A
100
AcDbXrecord
280
     1
270
     1
271
     1
  0
XRECORD
  5
20
102
{ACAD_REACTORS
330
1A
102
}
330
1A
100
AcDbXrecord
280
     1
270
     1
271
     1
  0
XRECORD
  5
1D
102
{ACAD_REACTORS
330
1A
102
}
330
1A
100
AcDbXrecord
280
     1
270
     1
271
     1
  0
XRECORD
  5
11AA
102
{ACAD_REACTORS
330
12
102
}
330
12
100
AcDbXrecord
280
     1
102
MATERIAL
148
0.0
149
0.0
149
0.0
 93
        0
 94
      127
282
     0
 72
     0
 77
     0
171
     0
175
     0
179
     0
273
     0
  0
XRECORD
  5
14
102
{ACAD_REACTORS
330
12
102
}
330
12
100
AcDbXrecord
280
     1
270
     1
271
     1
  0
XRECORD
  5
13
102
{ACAD_REACTORS
330
12
102
}
330
12
100
AcDbXrecord
280
     1
270
     1
271
     1
  0
XRECORD
  5
17
102
{ACAD_REACTORS
330
12
102
}
330
12
100
AcDbXrecord
280
     1
270
     1
271
     1
  0
XRECORD
  5
16
102
{ACAD_REACTORS
330
12
102
}
330
12
100
AcDbXrecord
280
     1
270
     1
271
     1
  0
XRECORD
  5
18
102
{ACAD_REACTORS
330
12
102
}
330
12
100
AcDbXrecord
280
     1
270
     1
271
     1
  0
XRECORD
  5
15
102
{ACAD_REACTORS
330
12
102
}
330
12
100
AcDbXrecord
280
     1
270
     1
271
     1
  0
XRECORD
  5
11AC
102
{ACAD_REACTORS
330
22
102
}
330
22
100
AcDbXrecord
280
     1
102
MATERIAL
148
0.0
149
0.0
149
0.0
 93
        0
 94
      127
282
     0
 72
     0
 77
     0
171
     0
175
     0
179
     0
273
     0
  0
XRECORD
  5
24
102
{ACAD_REACTORS
330
22
102
}
330
22
100
AcDbXrecord
280
     1
270
     1
271
     1
  0
XRECORD
  5
23
102
{ACAD_REACTORS
330
22
102
}
330
22
100
AcDbXrecord
280
     1
270
     1
271
     1
  0
XRECORD
  5
27
102
{ACAD_REACTORS
330
22
102
}
330
22
100
AcDbXrecord
280
     1
270
     1
271
     1
  0
XRECORD
  5
26
102
{ACAD_REACTORS
330
22
102
}
330
22
100
AcDbXrecord
280
     1
270
     1
271
     1
  0
XRECORD
  5
28
102
{ACAD_REACTORS
330
22
102
}
330
22
100
AcDbXrecord
280
     1
270
     1
271
     1
  0
XRECORD
  5
25
102
{ACAD_REACTORS
330
22
102
}
330
22
100
AcDbXrecord
280
     1
270
     1
271
     1
  0
CELLSTYLEMAP
  5
11EC
102
{ACAD_REACTORS
330
11A6
102
}
330
11A6
100
AcDbCellStyleMap
 90
        3
300
CELLSTYLE
  1
TABLEFORMAT_BEGIN
 90
        5
170
     1
 91
        0
 92
    32768
 62
   257
 93
        1
300
CONTENTFORMAT
  1
CONTENTFORMAT_BEGIN
 90
        0
 91
        0
 92
      512
 93
        0
300

 40
0.0
140
1.0
 94
        5
 62
     0
340
5D
144
0.25
309
CONTENTFORMAT_END
171
     1
301
MARGIN
  1
CELLMARGIN_BEGIN
 40
0.06
 40
0.06
 40
0.06
 40
0.06
 40
0.18
 40
0.18
309
CELLMARGIN_END
 94
        6
 95
        1
302
GRIDFORMAT
  1
GRIDFORMAT_BEGIN
 90
        0
 91
        1
 62
     0
 92
       -2
340
0
 93
        0
 40
0.045
309
GRIDFORMAT_END
 95
        2
302
GRIDFORMAT
  1
GRIDFORMAT_BEGIN
 90
        0
 91
        1
 62
     0
 92
       -2
340
0
 93
        0
 40
0.045
309
GRIDFORMAT_END
 95
        4
302
GRIDFORMAT
  1
GRIDFORMAT_BEGIN
 90
        0
 91
        1
 62
     0
 92
       -2
340
0
 93
        0
 40
0.045
309
GRIDFORMAT_END
 95
        8
302
GRIDFORMAT
  1
GRIDFORMAT_BEGIN
 90
        0
 91
        1
 62
     0
 92
       -2
340
0
 93
        0
 40
0.045
309
GRIDFORMAT_END
 95
       16
302
GRIDFORMAT
  1
GRIDFORMAT_BEGIN
 90
        0
 91
        1
 62
     0
 92
       -2
340
0
 93
        0
 40
0.045
309
GRIDFORMAT_END
 95
       32
302
GRIDFORMAT
  1
GRIDFORMAT_BEGIN
 90
        0
 91
        1
 62
     0
 92
       -2
340
0
 93
        0
 40
0.045
309
GRIDFORMAT_END
309
TABLEFORMAT_END
  1
CELLSTYLE_BEGIN
 90
        1
 91
        1
300
_TITLE
309
CELLSTYLE_END
300
CELLSTYLE
  1
TABLEFORMAT_BEGIN
 90
        5
170
     1
 91
        0
 92
        0
 62
   257
 93
        1
300
CONTENTFORMAT
  1
CONTENTFORMAT_BEGIN
 90
        0
 91
        0
 92
      512
 93
        0
300

 40
0.0
140
1.0
 94
        5
 62
     0
340
5D
144
0.18
309
CONTENTFORMAT_END
171
     1
301
MARGIN
  1
CELLMARGIN_BEGIN
 40
0.06
 40
0.06
 40
0.06
 40
0.06
 40
0.18
 40
0.18
309
CELLMARGIN_END
 94
        6
 95
        1
302
GRIDFORMAT
  1
GRIDFORMAT_BEGIN
 90
        0
 91
        1
 62
     0
 92
       -2
340
0
 93
        0
 40
0.045
309
GRIDFORMAT_END
 95
        2
302
GRIDFORMAT
  1
GRIDFORMAT_BEGIN
 90
        0
 91
        1
 62
     0
 92
       -2
340
0
 93
        0
 40
0.045
309
GRIDFORMAT_END
 95
        4
302
GRIDFORMAT
  1
GRIDFORMAT_BEGIN
 90
        0
 91
        1
 62
     0
 92
       -2
340
0
 93
        0
 40
0.045
309
GRIDFORMAT_END
 95
        8
302
GRIDFORMAT
  1
GRIDFORMAT_BEGIN
 90
        0
 91
        1
 62
     0
 92
       -2
340
0
 93
        0
 40
0.045
309
GRIDFORMAT_END
 95
       16
302
GRIDFORMAT
  1
GRIDFORMAT_BEGIN
 90
        0
 91
        1
 62
     0
 92
       -2
340
0
 93
        0
 40
0.045
309
GRIDFORMAT_END
 95
       32
302
GRIDFORMAT
  1
GRIDFORMAT_BEGIN
 90
        0
 91
        1
 62
     0
 92
       -2
340
0
 93
        0
 40
0.045
309
GRIDFORMAT_END
309
TABLEFORMAT_END
  1
CELLSTYLE_BEGIN
 90
        2
 91
        1
300
_HEADER
309
CELLSTYLE_END
300
CELLSTYLE
  1
TABLEFORMAT_BEGIN
 90
        5
170
     1
 91
        0
 92
        0
 62
   257
 93
        1
300
CONTENTFORMAT
  1
CONTENTFORMAT_BEGIN
 90
        0
 91
        0
 92
      512
 93
        0
300

 40
0.0
140
1.0
 94
        2
 62
     0
340
5D
144
0.18
309
CONTENTFORMAT_END
171
     1
301
MARGIN
  1
CELLMARGIN_BEGIN
 40
0.06
 40
0.06
 40
0.06
 40
0.06
 40
0.18
 40
0.18
309
CELLMARGIN_END
 94
        6
 95
        1
302
GRIDFORMAT
  1
GRIDFORMAT_BEGIN
 90
        0
 91
        1
 62
     0
 92
       -2
340
0
 93
        0
 40
0.045
309
GRIDFORMAT_END
 95
        2
302
GRIDFORMAT
  1
GRIDFORMAT_BEGIN
 90
        0
 91
        1
 62
     0
 92
       -2
340
0
 93
        0
 40
0.045
309
GRIDFORMAT_END
 95
        4
302
GRIDFORMAT
  1
GRIDFORMAT_BEGIN
 90
        0
 91
        1
 62
     0
 92
       -2
340
0
 93
        0
 40
0.045
309
GRIDFORMAT_END
 95
        8
302
GRIDFORMAT
  1
GRIDFORMAT_BEGIN
 90
        0
 91
        1
 62
     0
 92
       -2
340
0
 93
        0
 40
0.045
309
GRIDFORMAT_END
 95
       16
302
GRIDFORMAT
  1
GRIDFORMAT_BEGIN
 90
        0
 91
        1
 62
     0
 92
       -2
340
0
 93
        0
 40
0.045
309
GRIDFORMAT_END
 95
       32
302
GRIDFORMAT
  1
GRIDFORMAT_BEGIN
 90
        0
 91
        1
 62
     0
 92
       -2
340
0
 93
        0
 40
0.045
309
GRIDFORMAT_END
309
TABLEFORMAT_END
  1
CELLSTYLE_BEGIN
 90
        3
 91
        2
300
_DATA
309
CELLSTYLE_END
  0
XRECORD
  5
11EF
102
{ACAD_REACTORS
330
11A6
102
}
330
11A6
100
AcDbXrecord
280
     1
102
ACAD_ROUNDTRIP_PRE2007_TABLESTYLE
 90
      512
 91
        0
  1

 92
      512
 93
        0
  2

 94
      512
 95
        0
  3

  0
ENDSEC
  0
EOF
